osu file format v9

[General]
AudioFilename: Breeze - .mp3
AudioLeadIn: 0
PreviewTime: 181841
Countdown: 0
SampleSet: Soft
StackLeniency: 0.7
Mode: 0
LetterboxInBreaks: 1

[Editor]
DistanceSpacing: 1.4
BeatDivisor: 4
GridSize: 4

[Metadata]
Title:La Plage
Artist:Breeze
Creator:Louis Cyphre
Version:Advanced
Source:
Tags:Lenor kanpakyin spboxer3 Reiji-RJ

[Difficulty]
HPDrainRate:5
CircleSize:4
OverallDifficulty:7
ApproachRate:8
SliderMultiplier:2.2
SliderTickRate:1

[Events]
//Background and Video events
0,0,"the_mermaid_by_elenadudina-d3e77b2.jpg"
//Break Periods
2,104852,108443
2,145717,153848
//Storyboard Layer 0 (Background)
//Storyboard Layer 1 (Fail)
//Storyboard Layer 2 (Pass)
//Storyboard Layer 3 (Foreground)
//Storyboard Sound Samples
//Background Colour Transformations
3,100,163,162,255

[TimingPoints]
20977,648.648648648649,4,2,2,70,1,0
62328,-100,4,2,1,40,0,0
65166,-100,4,2,1,40,0,0
67760,-100,4,2,1,40,0,0
78707,-100,4,2,1,40,0,0
154598,-100,4,2,1,15,0,0
155247,-100,4,2,1,40,0,0
156463,-100,4,1,1,40,0,0
156625,-100,4,2,1,40,0,0
157761,-100,4,1,1,40,0,0
157923,-100,4,2,1,40,0,0
159058,-100,4,1,1,40,0,0
159220,-100,4,2,1,40,0,0
160355,-100,4,1,1,40,0,0
160517,-100,4,2,1,40,0,0
161652,-100,4,1,1,40,0,0
161815,-100,4,2,1,40,0,0
162950,-100,4,1,1,40,0,0
163112,-100,4,2,1,40,0,0
164247,-100,4,1,1,40,0,0
164409,-100,4,2,1,40,0,0
165544,-100,4,1,1,40,0,0
165707,-100,4,2,1,40,0,0
166842,-100,4,1,1,40,0,0
167004,-100,4,2,1,40,0,0
168139,-100,4,1,1,40,0,0
168301,-100,4,2,1,40,0,0
169436,-100,4,1,1,40,0,0
169598,-100,4,2,1,40,0,0
170734,-100,4,1,1,40,0,0
170896,-100,4,2,1,40,0,0

[Colours]
Combo1 : 0,128,128
Combo2 : 0,128,192
Combo3 : 14,192,184

[HitObjects]
312,240,20977,2,0,B|352:280,2,55,8|8|0
232,248,21463,2,0,B|224:208|248:160|296:160,1,110,8|8
360,176,21949,2,0,B|304:152|304:88,1,110,0|8
384,104,22436,6,8,B|424:64,1,55,8|0
456,136,22760,2,0,B|496:176|480:240,1,110,8|8
400,248,23247,1,0
256,304,23571,5,8
176,296,23733,2,0,B|188:236|252:224,2,110,8|8|8
108,336,24544,2,0,B|84:280|124:232,1,110,0|8
176,176,25031,5,8
36,240,25355,1,8
48,88,25679,1,8
60,80,25841,2,0,B|108:44|164:68,1,110,0|8
196,136,26328,6,0,B|240:172|300:148,2,110,8|8|8
120,168,27139,1,0
140,320,27463,5,8
152,240,27625,2,0,B|212:252|224:312,2,110,8|8|8
120,168,28436,2,0,B|176:144|224:176,1,110,0|8
288,224,28922,6,0,B|316:168|284:120,2,110,8|8|8
228,272,29733,2,0,B|268:232|332:240,1,110,0|8
392,288,30220,6,0,B|420:236|392:184,2,110,8|8|8
320,320,31031,1,0
184,248,31355,5,8
104,256,31517,2,0,B|96:192|152:168,2,110,8|8|8
184,248,32328,2,0,B|248:256|248:328,1,110,0|8
172,324,32814,5,8
152,168,33139,2,0,B|204:140|256:168,1,110,8|8
264,88,33625,2,0,B|256:208,1,110,0|8
248,276,34112,6,0,B|268:336|336:336,2,110,8|8|8
324,256,34922,1,0
444,160,35247,6,0,B|460:104,2,55,8|8|0
376,128,35733,2,0,B|340:176|276:156,1,110,8|8
312,88,36220,1,0
160,56,36544,6,0,B|104:80,2,55,8|8|0
176,128,37031,2,0,B|136:172|156:232,1,110,8|8
224,192,37517,1,0
256,344,37841,6,0,B|312:328,1,55,8|8
368,280,38166,2,8,B|320:248,1,55,0|8
360,104,38652,2,0,B|324:146,1,55,8|0
200,64,39139,6,0,B|144:88,1,55,8|8
80,112,39463,2,0,B|96:168,1,55,0|8
232,240,39949,2,0,B|184:288,1,55,8|0
344,304,40436,6,0,B|408:288,1,55,8|8
352,224,40760,1,0
432,216,40922,2,0,B|424:155|360:144,1,110,8|8
288,176,41409,2,0,B|240:144|248:80,1,110,0|8
184,40,41895,6,0,B|144:80,1,55,8|0
32,104,42220,2,0,B|72:144,1,55,8|0
152,232,42544,2,0,B|152:177,1,55,8|0
256,296,43031,6,0,B|312:256,1,55,8|8
416,264,43355,2,0,B|360:216,1,55,0|8
312,184,43679,1,0
392,80,43841,2,0,B|370:130,1,55,8|0
232,56,44328,6,0,B|192:96,1,55,8|8
88,56,44652,2,0,B|118:101,1,55,0|8
56,200,44977,2,0,B|128:168,1,55,0|8
184,168,45301,2,0,B|248:184|248:264,1,110,0|8
168,248,45787,5,8
96,272,45949,2,0,B|48:296,1,55,0|8
152,328,46274,2,0,B|104:360,1,55,0|8
224,304,46598,2,0,B|242:324|272:336|301:324|320:304,1,110,0|8
272,240,47085,5,8
344,208,47247,2,0,B|400:184,1,55,0|8
288,160,47571,2,0,B|320:104,2,55,0|8|0
176,64,48220,6,0,B|112:96,1,55,8|8
208,144,48544,2,0,B|168:200,1,55,0|8
288,160,48868,2,0,B|288:216,2,55,0|8|0
440,160,49517,6,0,B|400:200,1,55,8|8
440,296,49841,2,0,B|392:272,1,55,0|8
336,352,50166,2,0,B|320:296,2,55,0|8|0
216,256,50814,6,0,B|176:296,1,55,8|8
176,192,51139,2,0,B|120:192,1,55,0|8
216,128,51463,2,0,B|176:88,2,55,0|8|0
352,56,52112,6,0,B|368:112,1,55,8|8
472,104,52436,2,0,B|456:176,1,55,0|8
368,208,52760,2,0,B|400:256,2,55,0|8|0
256,304,53409,6,0,B|208:336,1,55,8|8
96,320,53733,2,0,B|144:288,1,55,0|8
176,176,54058,2,0,B|120:216,2,55,0|8|0
256,48,54706,6,0,B|304:16,1,55,8|8
424,32,55030,2,0,B|376:64,1,55,0|8
336,176,55355,2,0,B|392:136,2,55,0|8|0
312,328,56004,5,8
256,272,56166,1,8
184,304,56328,2,0,B|104:336,2,55,0|8|0
184,224,56814,2,0,B|136:192,1,55,8|0
224,64,57301,5,8
288,112,57463,1,8
360,88,57625,2,0,B|400:48,2,55,0|8|0
344,160,58112,2,0,B|376:216,1,55,8|0
256,312,58598,6,0,B|252:252|196:228,1,110,8|0
176,304,59085,2,0,B|144:352,1,55,8|0
96,288,59409,1,8
24,264,59571,2,0,B|48:208|112:208,1,110,0|2
256,192,62490,5,8
368,296,62814,1,0
400,144,63139,2,0,B|344:120|352:56,1,110
424,72,63625,2,2,B|448:56,2,27.5
280,32,64112,2,0,B|264:96|296:144,1,110
232,184,64598,1,0
304,216,64760,2,0,B|352:256|328:320,2,110,0|8|0
256,280,65571,1,0
208,344,65733,6,0,B|160:304|184:240,1,110
232,184,66220,2,2,B|208:160,2,27.5
352,88,66706,2,0,B|401:52|453:88,1,110
400,144,67193,2,0,B|400:204,2,55
452,252,67679,2,0,B|399:288|350:252,1,110,8|0
304,144,68328,6,0,B|336:200|312:256,1,110
240,280,68814,2,2,B|256:328,2,27.5
176,144,69301,2,0,B|128:184,1,55
56,168,69625,2,0,B|120:184|120:256,1,110,0|0
40,248,70112,2,2,B|16:272,2,27.5,2|0|2
160,344,70598,6,0,B|200:304,1,55
272,320,70922,2,0,B|216:296|224:224,1,110
298,249,71409,2,2,B|338:241,2,27.5
408,144,71895,6,0,B|352:144,1,55
392,72,72220,2,0,B|344:72|344:72|312:72|288:104,1,110,0|8
240,40,72706,2,8,B|216:64|216:96,1,55
144,224,73193,6,0,B|104:264,1,55
28,276,73517,2,0,B|44:340|108:344,1,110
176,312,74004,2,2,B|200:336,2,27.5
256,184,74490,6,0,B|296:224,1,55
332,292,74814,2,0,B|384:260|372:196,1,110
320,140,75301,2,2,B|344:108,2,27.5
184,72,75787,6,0,B|136:120,1,55
72,84,76112,2,0,B|64:144|88:196,1,110
152,232,76598,2,2,B|136:264,2,27.5
256,344,77085,6,0,B|288:288,1,55
360,296,77409,2,0,B|352:248|352:248|312:232|312:184,1,110,0|8
384,176,77895,2,0,B|432:128,1,55,0|8
296,48,78382,5,0
232,96,78544,1,0
152,104,78706,1,4
120,256,79031,6,0,B|184:248,1,55,0|0
56,216,79355,2,0,B|24:280|72:320,1,110,8|0
256,304,79842,2,0,B|201:310,1,55,0|4
352,288,80328,6,0,B|408:280,1,55,8|0
256,304,80652,2,0,B|240:240|296:208,1,110,8|0
368,208,81139,1,0
448,208,81301,6,0,B|448:144|384:128,1,110,8|0
312,128,81788,2,0,B|288:64,1,55,0|8
136,88,82274,6,0,B|168:152,1,55,8|0
64,32,82598,2,0,B|32:88|64:136,1,110,4|8
112,200,83085,1,0
40,312,83247,2,0,B|72:264|136:280,1,110,8|8
192,224,83734,1,0
312,352,83896,2,0,B|279:297|222:297,1,110,8|0
344,192,84544,6,0,B|408:176|408:104,1,110,8|0
328,112,85031,1,0
280,271,85193,2,0,B|280:208|344:192,1,110,0|8
360,40,85842,6,0,B|296:24|264:72,1,110,8|0
328,112,86328,1,0
204,20,86490,2,0,B|172:76|204:124,1,110,4|0
284,256,87139,6,0,B|232:288|180:256,1,110,8|0
128,316,87625,1,0
230,199,87788,2,0,B|196:148|228:96,1,110,8|8
288,144,88274,1,0
180,68,88436,2,0,B|239:78|283:42,1,110,8|0
348,88,88923,1,0
232,200,89085,6,0,B|216:256,1,55,8|0
148,288,89409,1,0
216,328,89571,2,0,B|272:352,1,55
344,336,89895,1,0
372,264,90058,2,0,B|428:224,1,55,8|0
296,256,90382,6,0,B|264:208|280:152,1,110,4|8
168,56,90869,2,0,B|220:71,1,55,0|8
176,136,91193,1,0
104,104,91355,6,0,B|48:120,1,55
8,56,91679,2,0,B|48:96|32:160,1,110,8|0
112,176,92166,2,0,B|120:232,1,55
192,208,92490,2,0,B|200:272,1,55,0|8
136,308,92815,1,0
256,320,92977,6,0,B|263:258|323:242,1,110,4|0
192,208,93463,2,0,B|188:136,1,55,0|8
212,80,93787,1,0
284,52,93950,6,0,B|292:116,1,55
260,176,94274,2,0,B|296:128|356:124,1,110,8|0
392,192,94761,2,0,B|420:248,1,55
328,240,95085,2,0,B|352:312,1,55,0|0
248,240,95409,1,0
392,192,95571,6,0,B|416:136,1,55,4|0
352,88,95896,1,8
248,240,96058,6,0,B|208:280,2,55,0|8|0
328,240,96544,2,0,B|272:232|248:168,1,110,0|8
176,192,97031,6,0,B|120:208,1,55
80,144,97355,2,0,B|196:112,1,110
264,120,97842,6,0,B|304:80,1,55,8|0
256,24,98166,2,0,B|287:71|351:63,1,110,4|0
360,144,98652,1,0
424,104,98815,2,0,B|464:152,1,55,8|0
360,144,99139,2,0,B|304:176,1,55
320,248,99463,6,0,B|320:184|256:168,1,110,8|0
240,248,99950,2,0,B|192:276,1,55
184,192,100274,1,0
120,240,100436,2,0,B|88:192|120:136,2,110,0|0|8
216,112,101247,6,0,B|216:48|152:32,1,110
208,128,101734,2,0,B|263:101|311:137,1,110,0|8
256,192,102220,2,0,B|240:256,1,55
296,304,102544,6,0,B|352:336|416:296,1,110
384,232,103031,2,0,B|372:288|417:333,2,110,8|4|0
328,176,103842,1,0
192,144,104004,6,2,B|144:172|116:224,1,110,10|0
40,236,104490,2,0,B|64:292,1,55,0|8
344,328,109193,6,0,B|384:288,1,55,8|0
320,240,109517,2,0,B|358:201,1,55
432,208,109842,2,0,B|372:199|360:136,1,110,8|0
436,128,110328,2,0,B|460:76,1,55
384,56,110652,2,0,B|328:64,1,55,0|8
256,32,110977,1,0
247,214,111139,6,0,B|224:152|264:112,1,110,4|8
192,80,111625,2,0,B|136:56,1,55,0|8
136,136,111950,1,0
64,168,112112,6,0,B|86:225|151:218,1,110,2|8
224,248,112598,2,0,B|232:312,1,55
216,168,112923,2,2,B|212:108,1,55
296,184,113247,1,0
304,264,113409,2,0,B|312:320,1,55,8|0
296,184,113734,6,0,B|360:200|392:152,1,110,4|8
264,32,114220,2,0,B|263:95|321:114,1,110,2|0
296,184,114707,2,0,B|240:160,1,55
264,32,115031,6,0,B|208:16|160:48,1,110,8|0
208,112,115517,2,2,B|200:172,1,55
128,120,115842,1,0
56,88,116004,2,0,B|32:144,1,55,8|0
32,312,116328,6,0,B|64:256|128:256,1,110,4|8
56,88,116815,2,0,B|40:152|104:192,1,110,2|0
128,112,117301,2,0,B|168:136|168:136|168:168|192:192,1,110,0|8
240,136,117788,5,0
264,208,117950,2,0,B|304:256,1,55
288,328,118274,2,0,B|350:328|374:272,1,110,8|8
364,196,118761,1,0
320,128,118923,6,0,B|360:80,1,55,4|0
240,136,119247,2,0,B|240:80,1,55,8|0
176,32,119571,2,0,B|136:72,1,55,8|0
160,144,119896,2,0,B|152:208,1,55
92,248,120220,6,0,B|108:304|160:332,1,110,2|0
228,296,120707,2,2,B|288:288,1,55
320,224,121031,1,0
400,216,121193,2,0,B|405:187|388:159|360:142|332:148,1,110,8|4
264,112,121679,2,0,B|240:160,1,55
296,312,122004,6,0,B|257:273,1,55,0|8
192,224,122328,1,0
120,336,122490,2,0,B|144:288,1,55
88,144,122815,6,0,B|126:182,1,55,8|0
192,224,123139,1,0
8,128,123301,2,0,B|24:64|88:64,1,110,2|0
256,32,123788,2,0,B|280:96|232:136,1,110,2|4
184,72,124274,2,0,B|160:128,1,55
88,144,124598,1,0
256,192,124761,6,0,B|312:216|312:280,1,110,8|0
232,272,125247,1,0
280,112,125409,6,0,B|336:128|360:184,1,110,8|0
232,272,126058,2,0,B|176:256|152:200,1,110,8|0
96,256,126544,1,0
240,192,126707,6,0,B|192:152|208:88,1,110,4|0
328,192,127355,2,0,B|376:232|361:290,1,110,8|0
288,264,127842,1,0
288,120,128004,2,0,B|347:91|390:138,1,110,8|0
224,264,128652,6,0,B|165:293|122:246,1,110,8|0
182,197,129139,1,0
101,326,129301,2,0,B|38:304|41:241,1,110,4|8
182,197,129950,6,0,B|184:135|122:114,1,110,8|0
107,190,130436,1,0
76,49,130598,2,0,B|132:21|178:58,1,110,8|0
436,49,131247,6,0,B|380:21|334:58,1,110,8|0
391,109,131734,1,0
272,27,131896,2,0,B|328:61|313:126,1,110,4|0
384,256,132544,6,0,B|408:320,1,55,8|0
304,248,132869,2,0,B|264:304,1,55
440,200,133193,6,0,B|472:152|448:96,1,110,8|0
304,32,133842,6,0,B|271:80|296:136,1,110,8|0
358,91,134328,1,0
226,167,134490,2,0,B|252:225|316:213,1,110,4|0
208,88,135139,6,0,B|148:100|140:164,1,110,8|0
226,168,135625,1,0
64,176,135788,2,0,B|80:236|143:239,1,110,2|0
220,252,136274,2,2,B|264:284,1,55,0|0
340,264,136598,1,0
360,192,136761,6,0,B|400:152,1,55
384,32,137085,2,0,B|344:80,1,55,4|0
272,72,137409,1,0
360,192,137571,2,0,B|320:232,1,55,0|8
168,192,138058,6,0,B|134:241|72:224,1,110,0|8
104,152,138544,1,0
64,88,138707,2,0,B|24:40,1,55,0|0
136,56,139031,2,0,B|192:32|248:56,1,110,8|0
208,120,139517,1,0
375,127,139679,6,0,B|376:72|328:32,1,110,4|0
208,120,140166,1,0
288,248,140328,2,0,B|235:220|184:248,1,110,8|0
235,311,140815,5,0
148,177,140977,2,0,B|94:209|112:272,1,110,8|0
48,312,141463,2,2,B|28:252,1,55,0|0
48,184,141788,1,0
96,120,141950,6,0,B|144:72,1,55
208,104,142274,2,0,B|144:96|133:32,1,110,4|0
208,104,142761,2,0,B|272:112|282:175,1,110,2|0
208,184,143247,2,0,B|168:224,1,55
336,96,143571,6,0,B|297:57,1,55,4|0
416,88,143896,2,0,B|400:32,1,55
384,160,144220,2,0,B|399:222|342:253,1,110,8|0
312,184,144707,1,0
400,304,144869,6,0,B|352:344|296:312,1,110,8|0
264,240,145355,2,0,B|200:272,1,55,0|8
256,192,154598,12,8,155896
368,192,156220,5,8
344,40,156544,2,0,B|309:90|248:72,1,110,8|0
176,48,157031,2,2,B|144:64,2,27.5
256,176,157517,2,0,B|232:232,1,55
168,176,157842,2,0,B|192:120,1,55,8|0
144,248,158166,2,0,B|120:304,1,55
256,176,158490,6,0,B|288:224|352:208,1,110,8|0
320,137,158977,1,0
262,86,159139,2,0,B|230:38,1,55,8|0
184,104,159463,5,0
168,184,159625,2,2,B|152:208,2,27.5
256,312,160112,2,0,B|319:320|347:267,1,110,8|8
275,237,160598,2,0,B|304:192,1,55
384,192,160923,6,0,B|320:184|312:120,1,110
360,64,161409,2,0,B|312:104|256:80,1,110,0|8
192,32,161896,2,0,B|168:88,1,55
96,64,162220,2,0,B|96:104,2,27.5,2|2|2
96,216,162707,6,0,B|72:272,1,55
160,256,163031,2,0,B|160:320,1,55,8|0
160,176,163355,1,0
224,216,163517,2,2,B|248:240,2,27.5
256,64,164004,6,0,B|320:48,1,55
440,96,164328,2,0,B|376:112|368:168,1,110,8|0
448,184,164815,2,2,B|472:208,2,27.5
352,304,165301,2,0,B|296:320|248:288,1,110,0|8
264,208,165788,6,0,B|320:184,1,55
176,136,166112,2,0,B|120:160,1,55,0|8
56,120,166436,1,0
56,200,166598,2,0,B|56:256,1,55
136,248,166923,6,0,B|160:296,1,55,8|0
216,248,167247,1,0
280,200,167409,2,2,B|312:176,2,27.5
256,40,167896,5,0
200,96,168058,1,0
128,128,168220,2,0,B|108:188|140:232,1,110,8|0
216,248,168707,2,2,B|197:284,2,27.5
332,348,169193,5,0
388,296,169355,1,0
464,268,169517,2,0,B|440:212|380:196,1,110,8|0
420,128,170004,2,2,B|439:103,2,27.5
272,72,170490,5,0
192,72,170652,1,0
212,148,170815,2,0,B|176:192|112:180,1,110,8|0
80,112,171301,2,0,B|32:144,1,55,0|8
144,256,171788,6,0,B|120:320,1,55,8|0
96,192,172112,2,0,B|152:160|208:192,1,110,4|0
188,112,172598,1,0
232,252,172761,6,0,B|216:188|272:148,1,110,8|8
188,112,173247,1,0
304,84,173409,2,0,B|348:120|336:184,1,110,4|8
144,40,174058,6,0,B|95:72|112:137,1,110,8|0
188,112,174544,1,0
60,200,174707,2,0,B|116:224|172:192,1,110,8|0
376,288,175355,2,0,B|320:320|272:284,1,110,8|8
324,228,175842,1,0
200,112,176004,6,0,B|240:56,1,55,4|0
304,40,176328,2,0,B|352:80,1,55,8|0
124,116,176652,2,0,B|129:177|192:188,1,110,8|0
200,112,177139,1,0
260,263,177301,2,0,B|292:208|260:160,1,110,8|0
288,336,177950,6,0,B|320:284|380:280,1,110,8|8
416,212,178436,1,0
304,144,178598,6,0,B|316:84|372:64,1,110,4|8
137,322,179247,2,0,B|196:308|208:248,1,110,8|0
168,180,179734,1,0
304,144,179896,6,0,B|272:96|208:112,2,110,8|0|8
240,192,180707,2,0,B|224:248,1,55,0|8
144,192,181031,2,0,B|128:128,1,55,0|4
96,288,181517,1,8
416,288,181842,6,0,B|448:232,1,55,8|0
384,184,182166,2,0,B|360:128,1,55
408,72,182490,2,0,B|365:115|304:96,1,110,8|0
308,176,182977,2,0,B|253:160,1,55
232,88,183301,2,0,B|168:72,1,55,0|8
128,128,183625,1,0
256,160,183788,6,0,B|304:192|304:256,1,110,4|0
224,240,184274,1,0
404,228,184436,2,0,B|356:268|380:332,1,110,8|0
452,292,184923,1,0
336,136,185085,6,0,B|312:80|248:80,1,110,8|0
256,160,185571,2,0,B|220:204,1,55
292,236,185896,1,0
368,216,186058,2,0,B|416:184,1,55,8|0
256,160,186382,6,0,B|200:180|152:144,1,110,4|0
76,124,186869,2,0,B|36:84,1,55
136,224,187355,2,0,B|200:248|208:312,1,110,8|8
280,304,187842,6,0,B|320:352,1,55,0|0
388,324,188166,2,0,B|360:276,1,55
328,208,188490,2,0,B|352:144,1,55,0|8
408,208,188815,1,0
272,120,188977,2,0,B|304:68|364:72,1,110,4|2
208,168,189463,5,0
144,216,189625,2,0,B|107:167|146:115,1,110,8|0
208,72,190112,1,0
144,216,190274,6,0,B|184:268|141:316,1,110,8|0
80,264,190761,1,0
208,168,190923,6,0,B|268:148|272:88,1,110,8|0
192,88,191409,1,0
312,16,191571,6,0,B|360:52|348:112,1,110,4|0
272,88,192058,1,0
288,168,192220,2,0,B|320:224,1,55,8|0
392,192,192544,2,0,B|384:264,1,55
288,168,192869,6,0,B|224:184|176:152,1,110,8|0
112,192,193355,2,0,B|92:244,1,55
176,240,193679,1,0
160,320,193842,2,0,B|232:320,1,55
368,240,194166,6,0,B|312:256|256:240,1,110,0|8
280,168,194652,1,0
304,96,194814,2,0,B|244:88|224:28,1,110
280,168,195463,6,0,B|296:240,1,55,8|0
248,288,195788,2,0,B|304:312,1,55
184,224,196112,6,0,B|124:228|100:284,1,110,8|0
28,252,196598,1,0
120,152,196761,6,0,B|136:96|200:80,1,110,8|0
256,32,197247,1,0
296,96,197409,6,0,B|304:160|360:184,1,110,8|0
440,312,198058,6,0,B|386:340|336:312,1,110,8|0
356,236,198544,2,2,B|300:224,2,55,0|2|0
424,192,199031,2,0,B|472:216,1,55,8|0
400,80,199355,2,0,B|376:144|312:136,1,110,4|0
328,64,199842,2,0,B|272:48,1,55,0|8
136,112,200328,6,0,B|120:168|152:168|136:224,1,110,0|8
64,192,200815,2,0,B|32:240,1,55
92,288,201139,2,2,B|128:332,1,55,0|0
260,252,201625,2,0,B|208:232,1,55,8|0
384,264,201950,2,0,B|328:232|328:168,1,110,0|8
408,184,202436,2,0,B|440:136,1,55,0|8
304,56,202923,6,0,B|248:56|208:104,1,110,0|8
152,56,203409,2,0,B|112:96,1,55
152,160,203734,2,0,B|140:224,1,55
220,212,204058,1,0
256,280,204220,2,0,B|328:272,1,55,8|0
304,200,204544,6,0,B|368:200|384:260,1,110,4|0
456,224,205031,2,0,B|472:168,1,55,0|8
424,112,205355,1,0
416,32,205517,2,0,B|352:40|344:104,1,110,0|8
280,56,206004,1,0
272,136,206166,1,0
208,88,206328,2,0,B|136:104,1,55,0|8
136,256,206815,5,8
192,312,206977,1,0
212,236,207139,2,0,B|260:204|316:220,1,110,4|0
336,296,207625,2,0,B|384:320,1,55,0|8
456,184,208112,5,0
480,112,208274,1,0
440,48,208436,1,8
296,104,208761,1,0
224,72,208923,2,0,B|176:116,1,55
108,116,209247,1,0
128,192,209409,6,0,B|144:256,1,55,8|0
105,313,209734,2,0,B|128:328|160:332|188:316|204:292,1,110,4|0
216,216,210220,2,0,B|200:160,1,55,0|8
280,296,210707,6,0,B|330:267|324:203,1,110,0|8
388,344,211355,1,0
424,276,211517,2,2,B|464:232,1,55,0|0
488,164,211841,1,0
432,104,212004,6,0,B|460:52,1,55,8|0
328,80,212328,2,0,B|368:128|344:192,1,110,4|0
280,144,212815,1,0
411,248,212977,2,0,B|363:285|307:264,1,110,8|0
248,216,213463,1,0
280,144,213625,2,0,B|216:120|176:176,1,110,8|0
168,248,214112,2,0,B|124:280,1,55
64,228,214436,1,0
48,152,214598,6,0,B|88:104,1,55,8|0
48,40,214923,2,0,B|104:16|152:48,1,110,4|0
232,56,215409,2,0,B|200:104,1,55,0|8
232,176,215734,1,0
288,120,215896,2,0,B|352:104,1,55
232,176,216220,6,0,B|208:232|248:288,1,110,8|0
304,232,216707,1,0
288,120,216869,2,0,B|344:88|400:128,1,110,8|8
472,112,217355,2,0,B|472:184,1,55,0|4
376,288,217842,2,0,B|336:328,2,55,8|0|8
