osu file format v13

[General]
AudioFilename: Breaking Benjamin - Blow me away [OST Halo].mp3
AudioLeadIn: 0
PreviewTime: 148928
Countdown: 0
SampleSet: None
StackLeniency: 0.7
Mode: 0
LetterboxInBreaks: 1
WidescreenStoryboard: 1

[Editor]
Bookmarks: 49250
DistanceSpacing: 2
BeatDivisor: 6
GridSize: 4
TimelineZoom: 0.8

[Metadata]
Title:Blow Me Away
TitleUnicode:Blow Me Away
Artist:Breaking Benjamin
ArtistUnicode:Breaking Benjamin
Creator:LifeJumb
Version:Normal
Source:Halo 3
Tags:Halo OST
BeatmapID:543932
BeatmapSetID:234523

[Difficulty]
HPDrainRate:4
CircleSize:3
OverallDifficulty:4
ApproachRate:4
SliderMultiplier:1.4
SliderTickRate:1

[Events]
//Background and Video events
0,0,"halo art.jpg",0,0
//Break Periods
2,3762,5324
2,7271,9361
2,10881,12448
2,14443,16539
2,27743,31971
2,36768,41619
2,85793,90015
2,94907,99758
2,139081,142412
//Storyboard Layer 0 (Background)
//Storyboard Layer 1 (Fail)
//Storyboard Layer 2 (Pass)
//Storyboard Layer 3 (Foreground)
//Storyboard Sound Samples
//Background Colour Transformations
3,100,163,162,255

[TimingPoints]
0,284.99501258728,4,2,0,40,1,0
0,-200,4,2,0,40,0,0
157982,284.99501258728,4,3,0,50,1,0
173730,-200,4,2,0,40,0,0
193036,284.99501258728,4,3,0,50,1,0

[Colours]
Combo1 : 168,168,168
Combo2 : 49,134,108
Combo3 : 255,192,98
Combo4 : 125,69,152

[HitObjects]
160,176,3562,5,0,0:0:0:0:
132,192,6644,5,0,0:0:0:0:
132,112,7071,1,0,0:0:0:0:
256,144,10681,5,0,0:0:0:0:
188,256,13768,5,0,0:0:0:0:
256,192,14243,1,0,0:0:0:0:
200,236,17859,6,0,P|316:236|392:164,2,221.666666666667,0|0|0,0:0|0:0|0:0,0:0:0:0:
268,160,19943,1,0,0:0:0:0:
152,204,20234,6,0,P|217:292|332:311,2,221.666666666667,0|0|0,0:0|0:0|0:0,0:0:0:0:
256,176,22366,1,0,0:0:0:0:
192,80,22657,6,0,P|308:80|384:152,2,221.666666666667,0|0|0,0:0|0:0|0:0,0:0:0:0:
268,160,24741,1,0,0:0:0:0:
152,152,25032,6,0,P|217:240|332:259,2,221.666666666667,0|0|0,0:0|0:0|0:0,0:0:0:0:
260,160,27217,1,0,0:0:0:0:
352,160,27543,1,0,0:0:0:0:
120,132,33291,6,0,P|152:72|220:48,1,140
296,52,34484,6,0,P|356:84|380:152,1,140
388,232,35719,6,0,P|356:292|288:316,1,140
208,316,36568,1,0,0:0:0:0:
120,132,42939,6,0,P|152:72|220:48,1,140
184,196,44126,6,0,P|211:126|276:117,1,140
244,256,45361,6,0,P|276:196|344:172,1,140
392,116,46210,1,0,0:0:0:0:
76,112,46929,6,0,L|144:112,1,58.3333333333333
108,184,47499,2,0,L|176:184,1,58.3333333333333
220,104,48116,6,0,L|288:104,1,58.3333333333333
256,180,48686,2,0,L|324:180,1,58.3333333333333
316,260,49304,6,0,L|384:260,1,58.3333333333333
388,184,49874,2,0,L|456:184,1,58.3333333333333
416,80,50491,6,0,L|348:80,1,58.3333333333333
312,80,51061,2,0,L|244:80,1,58.3333333333333
216,80,51726,6,0,L|148:80,1,58.3333333333333
88,200,52629,6,0,P|120:140|188:116,1,140
272,120,53816,6,0,P|240:180|172:204,1,140
96,200,55051,6,0,P|128:140|196:116,1,140
296,112,56233,1,0,0:0:0:0:
80,288,56571,6,0,L|148:288,1,58.3333333333333
120,208,57141,2,0,L|188:208,1,58.3333333333333
156,132,57758,6,0,L|224:132,1,58.3333333333333
200,56,58328,2,0,L|268:56,1,58.3333333333333
184,296,58946,6,0,L|252:296,1,58.3333333333333
224,224,59516,2,0,L|292:224,1,58.3333333333333
320,152,60133,6,0,L|276:108,1,58.3333333333333
200,108,60703,2,0,L|132:108,1,58.3333333333333
88,168,61368,6,0,L|39:216,1,58.3333333333333
280,116,62265,5,0,0:0:0:0:
288,248,62883,1,0,0:0:0:0:
256,320,63168,1,0,0:0:0:0:
180,288,63506,2,0,P|136:216|128:144,1,151.666666666667,0|0,0:0|0:0,0:0:0:0:
132,72,64403,1,0,0:0:0:0:
332,80,64693,2,0,P|376:152|384:224,1,151.666666666667,0|0,0:0|0:0,0:0:0:0:
372,300,65590,1,0,0:0:0:0:
200,292,66207,5,0,0:0:0:0:
192,88,67110,5,0,0:0:0:0:
292,196,67727,1,0,0:0:0:0:
368,192,68012,1,0,0:0:0:0:
432,292,68303,2,0,P|347:294|281:265,1,151.666666666667,0|0,0:0|0:0,0:0:0:0:
216,264,69247,1,0,0:0:0:0:
160,216,69538,2,0,P|186:136|236:83,1,151.666666666667,0|0,0:0|0:0,0:0:0:0:
312,76,70435,1,0,0:0:0:0:
412,240,71100,5,0,0:0:0:0:
96,104,72002,5,0,0:0:0:0:
252,132,72620,1,0,0:0:0:0:
320,84,72905,1,0,0:0:0:0:
392,144,73196,2,0,P|348:216|340:288,1,151.666666666667,0|0,0:0|0:0,0:0:0:0:
256,284,74140,1,0,0:0:0:0:
172,292,74431,2,0,P|107:237|78:171,1,151.666666666667,0|0,0:0|0:0,0:0:0:0:
144,96,75280,1,0,0:0:0:0:
280,276,75945,5,0,0:0:0:0:
360,108,76800,5,0,0:0:0:0:
320,236,77417,1,0,0:0:0:0:
264,272,77702,1,0,0:0:0:0:
180,288,77993,2,0,P|136:216|128:144,1,151.666666666667,0|0,0:0|0:0,0:0:0:0:
152,76,78848,2,0,B|320:32|168:316|344:248,1,326.666666666667,0|0,0:0|0:0,0:0:0:0:
192,184,80796,6,0,P|141:79|43:42,2,221.666666666667,0|0|0,0:0|0:0|0:0,0:0:0:0:
264,168,82880,1,0,0:0:0:0:
264,244,83171,6,0,P|329:332|444:351,2,221.666666666667,0|0|0,0:0|0:0|0:0,0:0:0:0:
272,160,85303,5,0,0:0:0:0:
208,96,85593,1,0,0:0:0:0:
448,188,91335,6,0,P|428:129|348:157,1,163.333333333333
316,228,92522,6,0,P|267:265|217:197,1,163.333333333333,0|0,0:0|0:0,0:0:0:0:
232,124,93757,6,0,P|207:66|130:102,1,163.333333333333
156,200,94707,1,0,0:0:0:0:
136,152,101078,6,0,P|174:95|244:78,1,140
312,112,102265,6,0,P|332:176|302:242,1,140,0|0,0:0|0:0,3:0:0:0:
236,280,103500,6,0,P|168:276|117:224,1,140
220,176,104349,5,0,0:0:0:0:
80,288,104973,6,0,L|148:288,1,58.3333333333333
148,212,105543,2,0,L|216:212,1,58.3333333333333
212,288,106160,6,0,L|280:288,1,58.3333333333333
268,212,106730,2,0,L|336:212,1,58.3333333333333
304,296,107348,6,0,L|372:296,1,58.3333333333333
360,224,107918,2,0,L|428:224,1,58.3333333333333
456,160,108535,6,0,L|412:116,1,58.3333333333333
352,152,109105,2,0,L|303:103,1,58.3333333333333
264,160,109770,6,0,L|215:111,1,58.3333333333333
136,152,110673,6,0,P|174:95|244:78,1,140
224,160,111860,6,0,P|244:224|214:290,1,140,0|0,0:0|0:0,3:0:0:0:
164,224,113095,6,0,P|146:158|179:94,1,140
64,184,114377,1,0,0:0:0:0:
80,288,114615,6,0,L|148:288,1,58.3333333333333
148,212,115185,2,0,L|216:212,1,58.3333333333333
96,136,115802,6,0,L|164:136,1,58.3333333333333
236,132,116372,2,0,L|304:132,1,58.3333333333333
288,212,116990,6,0,L|356:212,1,58.3333333333333
256,192,119502,5,0,0:0:0:0:
188,60,120404,6,0,P|242:36|325:79,1,151.666666666667
308,152,121307,1,0,0:0:0:0:
380,124,121592,2,0,P|426:188|388:259,1,163.333333333333
376,316,122542,1,0,0:0:0:0:
316,252,122826,2,0,B|270:280|239:242|222:214|164:260,1,163.333333333333
144,160,123729,1,0,0:0:0:0:
404,276,124346,5,0,0:0:0:0:
376,176,125249,6,0,P|373:114|314:150,1,151.666666666667
264,212,126151,1,0,0:0:0:0:
220,144,126436,2,0,P|180:97|158:167,1,163.333333333333
264,212,127386,1,0,0:0:0:0:
220,272,127719,2,0,P|251:325|285:271,1,140
264,212,128574,1,0,0:0:0:0:
356,52,129191,5,0,0:0:0:0:
424,216,130094,6,0,B|392:324|390:330|333:304,1,151.666666666667
276,280,130996,1,0,0:0:0:0:
200,272,131329,2,0,B|127:265|111:217|140:166,1,151.666666666667
192,104,132231,1,0,0:0:0:0:
280,84,132516,2,0,P|354:126|365:183,1,140
324,256,133419,1,0,0:0:0:0:
112,144,134036,5,0,0:0:0:0:
280,84,134945,2,0,P|354:126|364:192,1,151.666666666667
288,164,135889,1,0,0:0:0:0:
364,184,136180,2,0,P|438:141|449:84,1,140
240,272,137361,1,0,0:0:0:0:
224,100,137979,1,0,0:0:0:0:
144,100,138264,1,0,0:0:0:0:
256,248,138881,5,0,0:0:0:0:
256,192,143732,12,0,148292,0:0:0:0:
96,300,148577,5,0,0:0:0:0:
108,220,148883,1,0,0:0:0:0:
144,148,149194,1,0,0:0:0:0:
208,96,149479,1,0,0:0:0:0:
236,280,150097,6,0,P|340:208|368:112,1,221.666666666667
268,96,151267,1,0,0:0:0:0:
180,144,151578,1,0,0:0:0:0:
176,236,151862,6,0,P|232:283|282:242,1,140
304,184,152769,2,0,P|347:129|404:169,3,151.666666666667,0|0|0|0,0:0|0:0|0:0|0:0,0:0:0:0:
184,224,154894,6,0,L|378:112,1,221.666666666667,0|0,0:0|0:0,0:0:0:0:
284,56,156085,1,0,0:0:0:0:
204,96,156422,1,0,0:0:0:0:
148,168,156707,1,0,0:0:0:0:
367,187,157355,5,0,0:0:0:0:
400,288,157821,1,0,0:0:0:0:
160,252,158235,5,0,0:0:0:0:
200,208,158409,1,0,0:0:0:0:
344,120,158694,1,0,0:0:0:0:
180,64,158979,6,0,L|132:64,5,46.6666666666667,0|0|0|0|0|0,0:0|0:0|0:0|0:0|0:0|0:0,0:0:0:0:
120,140,159739,1,0,0:0:0:0:
84,292,160048,5,0,0:0:0:0:
136,320,160204,1,0,0:0:0:0:
192,312,160386,1,0,0:0:0:0:
352,248,160671,5,0,0:0:0:0:
392,168,160831,1,0,0:0:0:0:
308,68,161116,1,0,0:0:0:0:
196,156,161449,6,0,L|162:189,4,46.6666666666667,0|0|0|0|0,0:0|0:0|0:0|0:0|0:0,0:0:0:0:
104,256,162199,5,0,0:0:0:0:
304,320,162494,2,0,P|412:224|356:84,1,303.333333333333
308,72,163254,5,0,0:0:0:0:
208,204,163570,1,0,0:0:0:0:
328,296,163855,6,0,L|294:262,5,46.6666666666667,0|0|0|0|0|0,0:0|0:0|0:0|0:0|0:0|0:0,0:0:0:0:
428,228,164615,1,0,0:0:0:0:
400,132,164924,5,0,0:0:0:0:
376,88,165080,1,0,0:0:0:0:
336,56,165262,1,0,0:0:0:0:
160,84,165547,5,0,0:0:0:0:
112,140,165707,1,0,0:0:0:0:
200,296,165992,1,0,0:0:0:0:
304,240,166325,6,0,L|337:206,4,46.6666666666667,0|0|0|0|0,0:0|0:0|0:0|0:0|0:0,0:0:0:0:
272,120,167075,5,0,0:0:0:0:
172,80,167386,2,0,P|64:192|120:292,1,280
184,268,168099,1,0,0:0:0:0:
324,232,168415,1,0,0:0:0:0:
324,140,168700,6,0,L|324:92,5,46.6666666666667,0|0|0|0|0|0,0:0|0:0|0:0|0:0|0:0|0:0,0:0:0:0:
180,96,169460,1,0,0:0:0:0:
100,220,169769,5,0,0:0:0:0:
124,276,169925,1,0,0:0:0:0:
168,316,170107,1,0,0:0:0:0:
312,296,170392,5,0,0:0:0:0:
360,264,170552,1,0,0:0:0:0:
308,68,170837,1,0,0:0:0:0:
196,156,171170,6,0,L|162:189,4,46.6666666666667,0|0|0|0|0,0:0|0:0|0:0|0:0|0:0,0:0:0:0:
208,232,171920,5,0,0:0:0:0:
256,192,174012,5,0,0:0:0:0:
372,152,174910,2,0,P|417:214|384:280,1,151.666666666667
312,284,175817,1,0,0:0:0:0:
340,216,176102,2,0,P|362:142|306:87,1,163.333333333333
280,160,177052,1,0,0:0:0:0:
232,84,177333,2,0,P|186:146|218:216,1,151.666666666667
280,240,178239,1,0,0:0:0:0:
440,180,178856,5,0,0:0:0:0:
248,192,179736,2,0,P|213:261|140:262,1,151.666666666667
152,152,180643,1,0,0:0:0:0:
276,152,180928,2,0,P|255:77|178:61,1,163.333333333333
88,88,181878,1,0,0:0:0:0:
84,208,182159,2,0,P|121:275|197:276,1,151.666666666667
280,240,183065,1,0,0:0:0:0:
68,68,183701,5,0,0:0:0:0:
444,168,184604,6,0,B|408:163|416:273|352:256,1,140
288,292,185506,1,0,0:0:0:0:
212,256,185839,2,0,B|162:202|182:156|238:138,1,151.666666666667
304,156,186718,1,0,0:0:0:0:
372,196,187026,2,0,P|387:280|350:325,1,140
292,328,187929,1,0,0:0:0:0:
148,144,188546,5,0,0:0:0:0:
372,192,189426,2,0,P|387:276|350:321,1,140
292,164,190348,1,0,0:0:0:0:
416,200,190661,2,0,P|431:284|394:329,1,140
280,176,191871,1,0,0:0:0:0:
160,252,193368,5,0,0:0:0:0:
200,208,193542,1,0,0:0:0:0:
336,208,193827,1,0,0:0:0:0:
336,288,194112,6,0,L|288:288,5,46.6666666666667,0|0|0|0|0|0,0:0|0:0|0:0|0:0|0:0|0:0,0:0:0:0:
240,340,194872,1,0,0:0:0:0:
164,272,195181,5,0,0:0:0:0:
112,292,195337,1,0,0:0:0:0:
68,264,195519,1,0,0:0:0:0:
80,132,195804,5,0,0:0:0:0:
116,88,195964,1,0,0:0:0:0:
248,96,196249,1,0,0:0:0:0:
196,156,196582,6,0,L|162:189,4,46.6666666666667,0|0|0|0|0,0:0|0:0|0:0|0:0|0:0,0:0:0:0:
308,280,197332,5,0,0:0:0:0:
392,202,197627,2,0,P|350:64|200:55,1,303.333333333333
156,92,198387,5,0,0:0:0:0:
208,204,198703,1,0,0:0:0:0:
284,280,198988,6,0,L|317:313,5,46.6666666666667,0|0|0|0|0|0,0:0|0:0|0:0|0:0|0:0|0:0,0:0:0:0:
428,228,199748,1,0,0:0:0:0:
400,132,200057,5,0,0:0:0:0:
376,88,200213,1,0,0:0:0:0:
336,56,200395,1,0,0:0:0:0:
160,84,200680,5,0,0:0:0:0:
112,140,200840,1,0,0:0:0:0:
200,296,201125,1,0,0:0:0:0:
304,300,201458,6,0,L|351:297,4,46.6666666666667,0|0|0|0|0,0:0|0:0|0:0|0:0|0:0,0:0:0:0:
228,120,202155,5,0,0:0:0:0:
