osu file format v13

[General]
AudioFilename: Breaking Benjamin - Blow me away [OST Halo].mp3
AudioLeadIn: 0
PreviewTime: 148928
Countdown: 0
SampleSet: Soft
StackLeniency: 0.7
Mode: 0
LetterboxInBreaks: 1
WidescreenStoryboard: 0

[Editor]
Bookmarks: 49250
DistanceSpacing: 2
BeatDivisor: 6
GridSize: 4
TimelineZoom: 1

[Metadata]
Title:Blow Me Away
TitleUnicode:Blow Me Away
Artist:Breaking Benjamin
ArtistUnicode:Breaking Benjamin
Creator:LifeJumb
Version:Hard
Source:Halo 3
Tags:Halo OST
BeatmapID:543931
BeatmapSetID:234523

[Difficulty]
HPDrainRate:6
CircleSize:4
OverallDifficulty:9
ApproachRate:9
SliderMultiplier:1.4
SliderTickRate:1

[Events]
//Background and Video events
0,0,"halo art.jpg",0,0
//Break Periods
2,3756,6044
2,7271,10081
2,10881,13168
2,14443,17253
2,27743,32691
2,36768,42333
2,85788,90735
2,94907,100472
2,118181,118902
2,139081,143128
2,192071,192753
//Storyboard Layer 0 (Background)
//Storyboard Layer 1 (Fail)
//Storyboard Layer 2 (Pass)
//Storyboard Layer 3 (Foreground)
//Storyboard Sound Samples
//Background Colour Transformations
3,100,163,162,255

[TimingPoints]
29823.6250710621,284.99501258728,4,2,0,40,1,0
141578,155.440414507772,4,1,0,40,1,0
141578,-200,4,1,0,40,0,0
157899,155.440414507772,4,3,0,100,1,0
173676,284.99501258728,4,2,0,40,1,0
193198,155.440414507772,4,3,0,100,1,0

[Colours]
Combo1 : 168,168,168
Combo2 : 49,134,108
Combo3 : 255,192,98
Combo4 : 125,69,152

[HitObjects]
68,176,3556,5,0,0:0:0:0:
132,192,6644,5,0,0:0:0:0:
132,112,7071,1,0,0:0:0:0:
256,144,10681,5,0,0:0:0:0:
100,192,13768,5,0,0:0:0:0:
256,192,14243,1,0,0:0:0:0:
176,192,17853,5,0,0:0:0:0:
280,292,18138,6,0,L|424:292,1,140
276,224,18756,1,0,0:0:0:0:
344,84,19041,2,0,L|344:236,1,140
128,96,19658,1,0,0:0:0:0:
128,300,19943,1,0,0:0:0:0:
384,212,20228,1,0,0:0:0:0:
64,80,20561,6,0,L|176:192,1,140
260,84,21178,1,0,0:0:0:0:
156,80,21463,2,0,L|268:192,1,140
356,192,22081,1,0,0:0:0:0:
120,192,22366,1,0,0:0:0:0:
404,192,22651,1,0,0:0:0:0:
76,236,22983,6,0,L|224:176,1,140
256,72,23553,1,0,0:0:0:0:
296,184,23886,2,0,L|440:244,1,140
112,116,24456,1,0,0:0:0:0:
256,308,24788,1,0,0:0:0:0:
396,112,25073,1,0,0:0:0:0:
256,192,25358,6,0,L|408:256,1,163.333333333333
380,156,25976,1,0,0:0:0:0:
292,208,26308,2,0,L|148:140,1,140
84,72,26926,1,0,0:0:0:0:
72,332,27211,1,0,0:0:0:0:
160,72,27543,1,0,0:0:0:0:
120,132,33291,6,0,P|264:72|372:140,1,280
120,252,34478,6,0,P|264:312|372:244,1,280
100,184,35713,6,0,L|392:184,1,280
168,80,36568,1,0,0:0:0:0:
308,64,42933,6,0,P|368:208|300:316,1,280
188,64,44120,6,0,P|128:208|196:316,1,280
256,44,45355,6,0,B|148:156|296:160|400:172|304:272,1,303.333333333333
196,328,46210,1,0,0:0:0:0:
112,116,46923,6,0,P|176:140|236:120,1,116.666666666667
192,60,47493,2,0,P|259:72|300:120,1,116.666666666667
192,60,48110,6,0,P|259:72|300:120,1,116.666666666667
364,116,48680,2,0,P|318:167|256:177,1,116.666666666667
280,95,49298,6,0,P|326:44|388:35,1,116.666666666667
452,48,49868,2,0,P|406:99|344:109,1,116.666666666667
364,115,50485,6,0,P|331:176|343:238,1,116.666666666667
408,191,51055,2,0,P|400:260|356:304,1,116.666666666667
336,224,51720,2,0,P|344:155|388:111,1,116.666666666667
100,268,52623,6,0,B|168:152|312:380|384:272,1,303.333333333333
372,208,53810,6,0,B|304:92|160:320|88:212,1,303.333333333333
120,176,54998,6,0,P|276:231|385:145,1,303.333333333333
252,104,56233,1,0,0:0:0:0:
112,192,56565,6,0,P|176:216|236:196,1,116.666666666667
176,144,57135,2,0,P|243:137|296:171,1,116.666666666667
336,244,57752,6,0,L|415:338,1,116.666666666667
176,144,58322,2,0,L|84:60,1,116.666666666667
336,188,58940,6,0,L|464:188,1,116.666666666667
184,188,59510,2,0,L|32:188,1,140,0|0,0:0|0:0,0:0:0:0:
140,272,60127,6,0,L|268:272,1,116.666666666667
256,272,60697,2,0,L|408:272,1,140,0|0,0:0|0:0,0:0:0:0:
256,192,61363,5,0,0:0:0:0:
144,92,62265,5,0,0:0:0:0:
400,248,62883,1,0,0:0:0:0:
400,104,63168,1,0,0:0:0:0:
180,288,63500,2,0,P|156:124|276:56,1,303.333333333333,0|0,0:0|0:0,0:0:0:0:
256,192,64403,1,0,0:0:0:0:
332,288,64688,2,0,P|356:124|236:56,1,303.333333333333,0|0,0:0|0:0,0:0:0:0:
136,60,65590,1,0,0:0:0:0:
396,312,66207,5,0,0:0:0:0:
136,180,67110,5,0,0:0:0:0:
364,192,67727,1,0,0:0:0:0:
256,192,68012,1,0,0:0:0:0:
139,231,68297,2,0,P|209:80|350:91,1,326.666666666667,0|0,0:0|0:0,0:0:0:0:
256,192,69247,1,0,0:0:0:0:
348,96,69532,2,0,P|371:260|252:328,1,303.333333333333,0|0,0:0|0:0,0:0:0:0:
120,300,70435,1,0,0:0:0:0:
400,88,71100,5,0,0:0:0:0:
256,64,72002,5,0,0:0:0:0:
372,192,72620,1,0,0:0:0:0:
300,280,72905,1,0,0:0:0:0:
224,336,73190,2,0,B|180:196|444:208|348:80,1,326.666666666667,0|0,0:0|0:0,0:0:0:0:
284,64,74140,1,0,0:0:0:0:
232,112,74425,2,0,B|352:50|377:313|461:225,1,280,0|0,0:0|0:0,0:0:0:0:
448,144,75280,1,0,0:0:0:0:
76,280,75945,5,0,0:0:0:0:
360,108,76800,5,0,0:0:0:0:
352,272,77417,1,0,0:0:0:0:
288,192,77702,1,0,0:0:0:0:
84,188,77987,2,0,L|424:188,1,326.666666666667
432,104,78842,2,0,P|348:52|248:108,1,210
84,308,79792,2,0,P|168:312|216:284,1,140
176,192,80790,5,0,0:0:0:0:
296,112,81075,6,0,L|460:112,1,163.333333333333
220,112,81692,1,0,0:0:0:0:
152,232,81978,2,0,L|44:339,1,140
256,48,82595,1,0,0:0:0:0:
96,320,82880,1,0,0:0:0:0:
444,316,83212,1,0,0:0:0:0:
156,92,83497,6,0,L|268:204,1,140
232,112,84067,1,0,0:0:0:0:
356,288,84400,2,0,L|244:176,1,140
256,252,85018,1,0,0:0:0:0:
256,64,85303,1,0,0:0:0:0:
256,296,85588,1,0,0:0:0:0:
440,204,91335,6,0,P|406:100|265:151,1,280
360,160,92522,6,0,P|274:227|186:106,1,280,0|0,0:0|0:0,0:0:0:0:
268,148,93757,6,0,P|225:47|89:110,1,280
182,117,94707,1,0,0:0:0:0:
388,230,101072,6,0,P|251:305|137:248,1,280
376,110,102259,6,0,P|226:66|126:145,1,280
147,95,103447,6,0,P|141:251|241:329,1,280
259,213,104349,1,0,0:0:0:0:
88,216,104967,6,0,P|152:240|212:220,1,116.666666666667
152,168,105537,2,0,P|219:161|272:195,1,116.666666666667
208,88,106154,6,0,P|275:100|316:148,1,116.666666666667
308,213,106724,2,0,P|262:264|200:274,1,116.666666666667
224,192,107342,6,0,P|270:141|332:132,1,116.666666666667
400,152,107912,2,0,P|354:203|292:213,1,116.666666666667
320,140,108529,6,0,P|256:167|227:223,1,116.666666666667
308,220,109099,2,0,P|265:275|205:290,1,116.666666666667
224,207,109669,6,0,P|161:239|135:295,1,116.666666666667,0|0,0:0|0:0,0:0:0:0:
117,72,110667,6,0,B|243:118|43:300|162:352,1,303.333333333333
245,342,111854,6,0,B|118:295|318:113|199:61,1,303.333333333333
280,52,113137,6,0,B|180:128|232:168|325:332,1,303.333333333333
252,104,114324,1,0,0:0:0:0:
183,151,114609,6,0,P|171:219|201:274,1,116.666666666667
241,202,115179,2,0,P|260:267|235:325,1,116.666666666667
336,140,115796,6,0,L|415:46,1,116.666666666667
176,240,116366,2,0,L|84:324,1,116.666666666667
189,147,116984,6,0,L|87:70,1,116.666666666667
311,238,117602,2,0,L|384:296,2,93.3333333333333,0|0|0,0:0|0:0|0:0,0:0:0:0:
256,192,119502,5,0,0:0:0:0:
125,161,120404,6,0,P|231:115|394:200,1,303.333333333333
254,196,121307,1,0,0:0:0:0:
366,68,121592,2,0,P|456:193|383:333,1,326.666666666667
304,126,122542,1,0,0:0:0:0:
369,192,122826,2,0,B|280:248|219:173|186:119|74:208,1,303.333333333333
171,245,123729,1,0,0:0:0:0:
444,62,124346,5,0,0:0:0:0:
333,193,125249,6,0,P|327:70|211:142,1,303.333333333333
261,175,126151,1,0,0:0:0:0:
261,175,126436,2,0,P|181:82|138:222,1,326.666666666667
184,159,127386,1,0,0:0:0:0:
184,159,127719,2,0,P|63:183|142:284,1,280
134,211,128574,1,0,0:0:0:0:
441,305,129191,5,0,0:0:0:0:
415,89,130094,6,0,B|352:306|348:318|233:266,1,303.333333333333
292,206,130996,1,0,0:0:0:0:
321,93,131329,2,0,B|420:200|380:292|268:329,1,303.333333333333
291,206,132231,1,0,0:0:0:0:
207,59,132516,2,0,P|237:228|164:318,1,280
152,176,133419,1,0,0:0:0:0:
449,191,134036,5,0,0:0:0:0:
389,247,134939,6,0,B|295:156|145:344|93:199|91:199,1,303.333333333333
176,167,135889,1,0,0:0:0:0:
98,221,136174,2,0,B|192:312|342:124|394:269|396:269,1,303.333333333333
398,230,137361,1,0,0:0:0:0:
385,165,137979,1,0,0:0:0:0:
374,126,138264,1,0,0:0:0:0:
256,193,138881,5,0,0:0:0:0:
376,292,143728,5,0,0:0:0:0:
401,266,143883,1,0,0:0:0:0:
420,226,144013,1,0,0:0:0:0:
428,186,144168,1,0,0:0:0:0:
419,150,144324,1,0,0:0:0:0:
403,115,144479,1,0,0:0:0:0:
380,87,144634,1,0,0:0:0:0:
351,61,144764,1,0,0:0:0:0:
318,45,144945,1,0,0:0:0:0:
284,36,145075,1,0,0:0:0:0:
246,37,145230,1,0,0:0:0:0:
210,45,145386,1,0,0:0:0:0:
176,63,145515,1,0,0:0:0:0:
146,87,145671,1,0,0:0:0:0:
122,117,145826,1,0,0:0:0:0:
105,155,145982,1,0,0:0:0:0:
97,186,146137,1,0,0:0:0:0:
101,228,146293,1,0,0:0:0:0:
114,263,146448,1,0,0:0:0:0:
135,295,146578,1,0,0:0:0:0:
162,323,146733,1,0,0:0:0:0:
192,342,146888,1,0,0:0:0:0:
226,351,147044,1,0,0:0:0:0:
261,351,147199,1,0,0:0:0:0:
295,353,147355,1,0,0:0:0:0:
330,344,147484,1,0,0:0:0:0:
359,332,147640,1,0,0:0:0:0:
389,312,147795,1,0,0:0:0:0:
410,287,147951,1,0,0:0:0:0:
431,259,148106,1,0,0:0:0:0:
445,226,148261,1,0,0:0:0:0:
447,194,148417,1,0,0:0:0:0:
447,158,148572,1,0,0:0:0:0:
301,100,148883,5,0,0:0:0:0:
207,175,149194,1,0,0:0:0:0:
170,252,149479,1,0,0:0:0:0:
282,139,150101,6,0,L|354:139,2,70,0|0|0,0:0|0:0|0:0,0:0:0:0:
282,139,150541,2,0,L|282:211,2,70,0|0|0,0:0|0:0|0:0,0:0:0:0:
136,192,151008,5,0,0:0:0:0:
134,111,151267,1,0,0:0:0:0:
256,317,151578,1,0,0:0:0:0:
257,185,151862,2,0,P|393:182|418:299,1,268.333333333333
331,243,152769,2,0,P|202:248|189:121,1,280
343,154,153572,6,0,L|414:154,1,70
223,152,153857,2,0,L|294:152,1,70
80,153,154142,2,0,L|164:153,1,81.6666666666667
174,252,154894,6,0,L|228:313,1,81.6666666666667,0|0,0:0|0:0,0:0:0:0:
323,258,155230,2,0,L|269:305,1,70,0|0,0:0|0:0,0:0:0:0:
247,233,155515,1,0,0:0:0:0:
114,223,155800,5,0,0:0:0:0:
117,61,156085,1,0,0:0:0:0:
210,227,156422,1,0,0:0:0:0:
211,61,156707,1,0,0:0:0:0:
367,187,157355,1,0,0:0:0:0:
176,116,157821,1,0,0:0:0:0:
160,252,158235,5,0,0:0:0:0:
256,256,158391,2,0,P|396:184|380:72,1,280
284,68,158986,5,0,0:0:0:0:
228,112,159142,1,0,0:0:0:0:
220,120,159220,1,0,0:0:0:0:
212,128,159297,1,0,0:0:0:0:
112,184,159453,2,0,P|220:300|348:288,1,280
284,104,160048,5,0,0:0:0:0:
96,184,160204,5,0,0:0:0:0:
208,312,160386,5,0,0:0:0:0:
440,176,160671,1,0,0:0:0:0:
408,88,160826,2,0,P|268:104|188:212,1,280,0|0,0:0|0:0,0:0:0:0:
140,276,161448,6,0,P|216:276|268:236,1,140
300,152,161733,1,0,0:0:0:0:
292,140,161810,1,0,0:0:0:0:
288,128,161888,1,0,0:0:0:0:
64,52,162199,5,0,0:0:0:0:
92,104,162484,2,0,B|140:-8|336:8|124:384|336:380|392:344|416:200,1,583.333333333333
472,144,163262,6,0,P|334:68|250:144,1,280
280,180,163857,5,0,0:0:0:0:
220,176,164013,1,0,0:0:0:0:
208,168,164091,1,0,0:0:0:0:
200,160,164168,1,0,0:0:0:0:
104,112,164324,2,0,P|136:267|252:322,1,280
320,136,164919,5,0,0:0:0:0:
160,48,165075,5,0,0:0:0:0:
100,204,165257,5,0,0:0:0:0:
348,264,165542,1,0,0:0:0:0:
440,240,165697,2,0,P|388:108|263:59,1,280,0|0,0:0|0:0,0:0:0:0:
212,128,166319,6,0,P|136:128|84:167,1,140
184,224,166604,1,0,0:0:0:0:
196,228,166681,1,0,0:0:0:0:
208,232,166759,1,0,0:0:0:0:
352,172,167070,5,0,0:0:0:0:
432,48,167354,2,0,B|100:20|468:248|120:108|376:256|32:132|396:372|72:320,1,536.666666666667
64,240,168106,6,0,P|86:84|197:62,1,280,0|0,0:0|0:0,2:0:0:0:
284,68,168701,5,0,0:0:0:0:
316,140,168857,1,0,0:0:0:0:
328,152,168935,1,0,0:0:0:0:
340,164,169012,1,0,0:0:0:0:
416,84,169168,2,0,P|462:235|388:340,1,280
240,300,169763,5,0,0:0:0:0:
60,300,169919,5,0,0:0:0:0:
64,128,170101,5,0,0:0:0:0:
332,112,170386,1,0,0:0:0:0:
400,156,170541,2,0,P|341:284|214:326,1,280,0|0,0:0|0:0,0:0:0:0:
136,308,171163,6,0,P|192:257|257:252,1,140
328,246,171448,1,0,0:0:0:0:
344,248,171525,1,0,0:0:0:0:
360,248,171603,1,0,0:0:0:0:
220,128,171914,5,0,0:0:0:0:
256,192,172225,12,0,173520,0:0:0:0:
256,192,174012,5,0,0:0:0:0:
276,72,174910,2,0,P|366:197|296:336,1,303.333333333333
272,244,175817,1,0,0:0:0:0:
316,324,176102,2,0,P|362:177|250:66,1,326.666666666667
272,160,177052,1,0,0:0:0:0:
276,72,177333,2,0,P|366:197|296:336,1,303.333333333333
272,232,178239,1,0,0:0:0:0:
80,192,178856,5,0,0:0:0:0:
148,192,179759,6,0,P|154:69|270:141,1,303.333333333333
220,174,180661,1,0,0:0:0:0:
220,174,180943,2,0,P|300:81|343:221,1,326.666666666667
297,158,181896,1,0,0:0:0:0:
297,158,182229,2,0,P|418:182|339:283,1,280
347,210,183084,1,0,0:0:0:0:
68,68,183701,5,0,0:0:0:0:
415,89,184604,6,0,B|344:80|360:300|233:266,1,280
160,208,185506,1,0,0:0:0:0:
112,288,185839,2,0,B|13:181|53:89|165:52,1,303.333333333333
160,128,186741,1,0,0:0:0:0:
207,59,187026,2,0,P|237:228|164:318,1,280
152,176,187929,1,0,0:0:0:0:
449,191,188546,5,0,0:0:0:0:
201,325,189449,6,0,B|292:231|104:81|249:29|249:27,1,303.333333333333
281,112,190348,1,0,0:0:0:0:
227,34,190684,2,0,B|136:128|324:278|179:330|179:332,1,303.333333333333
152,260,191871,1,0,0:0:0:0:
346,123,193353,5,0,0:0:0:0:
250,128,193509,2,0,P|117:212|142:322,1,280
238,317,194104,5,0,0:0:0:0:
290,269,194260,1,0,0:0:0:0:
305,251,194338,1,0,0:0:0:0:
319,230,194415,1,0,0:0:0:0:
400,187,194571,2,0,P|282:81|155:104,1,280
96,184,195166,5,0,0:0:0:0:
168,60,195322,5,0,0:0:0:0:
352,48,195504,5,0,0:0:0:0:
356,292,195789,1,0,0:0:0:0:
264,324,195944,2,0,P|124:308|44:200,1,280,0|0,0:0|0:0,0:0:0:0:
76,136,196592,5,0,0:0:0:0:
92,120,196669,1,0,0:0:0:0:
108,108,196747,1,0,0:0:0:0:
124,100,196851,1,0,0:0:0:0:
140,96,196928,1,0,0:0:0:0:
152,92,197006,1,0,0:0:0:0:
376,168,197317,5,0,0:0:0:0:
444,320,197602,2,0,B|428:264|428:260|420:252|416:244|412:240|408:236|404:236|388:240|380:240|372:248|364:260|360:268|360:276|356:284|352:296|348:304|340:312|336:316|336:320|324:324|308:316|304:312|296:300|292:292|284:272|284:264|284:252|288:244|288:236|284:224|284:216|284:212|284:200|284:192|284:188|280:176|272:172|256:168|244:168|228:176|220:184|220:192|216:200|212:208|208:216|200:224|200:232|192:244|188:252|188:256|188:260|180:268|180:268|176:272|172:276|172:276|168:276|164:276|152:272|140:264|128:252|124:240|120:232|120:228|120:220|120:212|120:204|124:200|124:192|124:188|120:184,1,583.333333333333
48,152,198380,6,0,P|159:40|261:90,1,280
280,180,198975,5,0,0:0:0:0:
216,172,199131,1,0,0:0:0:0:
200,164,199209,1,0,0:0:0:0:
184,152,199286,1,0,0:0:0:0:
104,112,199442,2,0,P|136:267|252:322,1,280
424,208,200037,5,0,0:0:0:0:
364,68,200193,5,0,0:0:0:0:
212,40,200375,5,0,0:0:0:0:
280,308,200660,1,0,0:0:0:0:
360,264,200815,2,0,P|269:154|152:144,1,256.666666666667,0|0,0:0|0:0,2:0:0:0:
80,176,201462,5,0,0:0:0:0:
72,192,201539,1,0,0:0:0:0:
68,212,201617,1,0,0:0:0:0:
64,228,201722,1,0,0:0:0:0:
64,248,201799,1,0,0:0:0:0:
64,264,201877,1,0,0:0:0:0:
256,192,202188,5,0,0:0:0:0:
