osu file format v6

[General]
AudioFilename: blow_me_away.mp3
AudioLeadIn: 0
PreviewTime: 62347
Countdown: 0
SampleSet: Normal
StackLeniency: 0.4
Mode: 0
LetterboxInBreaks: 1

[Editor]
DistanceSpacing: 0.600000023841858
BeatDivisor: 6
GridSize: 8

[Metadata]
Title:Blow Me Away
Artist:Breaking Benjamin
Creator:Kytoxid
Version:Legendary
Source:Halo 2
Tags:bungie microsoft game mariobros777

[Difficulty]
HPDrainRate:7
CircleSize:5
OverallDifficulty:8
SliderMultiplier:2
SliderTickRate:2

[Events]
//Background and Video events
0,0,"BMA.jpg"
//Break Periods
2,80718,85216
2,195424,196290
//Storyboard Layer 0 (Background)
//Storyboard Layer 1 (Fail)
//Storyboard Layer 2 (Pass)
//Storyboard Layer 3 (Foreground)
//Storyboard Sound Samples
//Background Colour Transformations
3,100,0,0,0

[TimingPoints]
17869,302.65427801822,4,1,0,100,1,0
27698,-100,4,1,0,50,0,0
32383,-200,4,2,0,70,0,0
37079,-100,4,1,0,85,0,0
41921,-100,4,2,0,50,0,0
42525,-200,4,2,0,65,0,0
46612,-100,4,1,0,100,0,0
46915,-100,4,1,0,100,0,1
51764,-100,4,1,0,100,0,0
52205,-200,4,2,0,100,0,0
56446,-100,4,1,0,90,0,0
62359,-100,4,1,0,100,0,1
65838,-100,4,2,0,100,0,1
67049,-100,4,1,0,100,0,1
70681,-100,4,2,0,100,0,1
71892,-100,4,1,0,100,0,1
75524,-100,4,2,0,100,0,1
76735,-100,4,1,0,100,0,1
80810,-100,4,1,0,65,0,0
90356,-200,4,2,0,65,0,0
94881,-100,4,1,0,65,0,0
100201,-200,4,2,0,65,0,0
105033,-100,4,1,0,100,0,1
109856,-100,4,1,0,100,0,0
110192,-200,4,2,0,80,0,0
114269,-100,4,1,0,100,0,0
117598,-100,4,2,0,100,0,0
120468,-100,4,1,0,100,0,1
124333,-100,4,2,0,100,0,1
125165,-100,4,1,0,100,0,1
129176,-100,4,2,0,100,0,1
130008,-100,4,1,0,100,0,1
133943,-100,4,2,0,100,0,1
134851,-100,4,1,0,100,0,1
138909,-100,4,1,0,100,0,0
143940,-100,4,2,0,70,0,0
146059,-100,4,1,0,65,0,0
158158,-100,4,2,0,65,0,0
171703,-100,4,2,0,19,0,0
172233,-100,4,2,0,39,0,0
172536,-100,4,2,0,50,0,0
172839,-100,4,2,0,61,0,0
173141,-100,4,2,0,70,0,0
173444,-100,4,2,0,81,0,0
174038,-100,4,1,0,100,0,1
178438,-100,4,2,0,100,0,1
179649,-100,4,1,0,100,0,1
183584,-100,4,2,0,100,0,1
184492,-100,4,1,0,100,0,1
188124,-100,4,2,0,100,0,1
189335,-100,4,1,0,100,0,1
195189,-100,4,1,0,100,0,0

[Colours]
Combo1 : 160,0,0
Combo2 : 0,128,255
Combo3 : 0,128,0

[HitObjects]
256,192,17869,1,4
360,144,18171,5,0
384,192,18322,1,0
360,240,18474,1,0
256,192,18776,5,4
152,240,19079,5,0
128,192,19230,1,0
152,144,19382,1,0
256,192,19684,6,2,B|256:48|112:48,2,200,2|2|6
304,296,20592,5,0
256,320,20744,1,0
208,296,20895,1,0
256,192,21198,5,4
208,88,21500,5,0
256,64,21652,1,0
304,88,21803,1,0
48,192,22106,5,2
256,192,22408,1,2
464,192,22711,1,6
416,88,23014,5,0
360,88,23165,1,0
304,88,23316,1,0
256,192,23619,5,8
208,296,23922,5,0
152,296,24073,1,0
96,296,24224,1,0
48,192,24527,5,8
256,192,24830,1,8
464,192,25132,1,8
416,296,25435,5,0
360,296,25586,1,0
304,296,25738,1,0
256,192,26040,5,8
208,88,26343,5,0
152,88,26494,1,0
96,88,26645,1,0
48,192,26948,5,8
256,192,27251,1,8
464,192,27553,1,8
472,72,27856,6,0,B|264:72,1,200
152,72,28461,1,0
32,72,28764,1,0
32,192,29067,5,4
152,192,29369,2,0,B|248:264|168:304|88:256|240:168,3,200
320,192,30580,5,4
320,304,30883,1,0
344,248,31034,1,0
320,192,31185,6,0,B|184:224|112:112|208:96|240:136|160:208,1,200
88,136,31791,1,0
88,136,31942,1,0
88,136,32093,6,0,B|216:24|80:24|232:160,1,200,4|0
144,240,32699,5,0
256,280,33001,1,0
368,240,33304,2,0,B|456:152,1,100,2|0
385,61,33909,2,0,B|433:13,2,50,2|0|0
256,64,34514,2,0,B|112:64|112:176,2,200,2|2|2
336,152,36028,1,0
256,240,36330,1,2
231,122,36633,1,2
186,11,36936,2,0,B|168:78,2,50,0|4|4
88,80,37541,5,0
176,160,37844,2,0,B|64:208,2,100
176,280,38449,1,4
296,280,38752,1,0
416,280,39054,5,0
400,224,39206,1,0
368,176,39357,1,0
256,136,39660,2,0,B|128:80|224:32|272:80|152:144,1,200
64,192,40265,1,4
168,136,40568,1,0
288,72,40870,6,0,B|408:72,1,100,2|0
344,112,41173,2,2,B|456:112,1,100,2|0
400,152,41476,2,0,B|512:152,1,100,2|0
456,192,41778,1,0
424,296,42081,5,0
368,312,42232,1,0
312,328,42383,1,0
256,344,42535,1,0
240,288,42686,1,2
296,272,42837,1,2
352,256,42989,6,0,B|312:144,1,100,2|0
344,120,43443,1,0
296,112,43594,2,0,B|168:152,1,100,2|0
168,184,44048,1,0
222,191,44199,2,0,B|256:285,3,100,2|0|0|2
196,285,45259,1,0
136,285,45410,5,8
51,201,45713,1,0
136,116,46015,1,8
221,201,46318,1,4
256,344,46923,5,4
448,56,47226,5,0
448,56,47529,1,0
448,56,47831,1,0
448,56,48134,1,0
64,56,48739,5,0
64,56,49042,1,0
64,56,49345,1,0
64,56,49647,1,0
256,192,49950,5,8
256,248,50101,1,0
256,304,50253,1,0
256,360,50404,1,0
256,304,50555,6,2,B|256:72,1,200
357,168,51160,2,2,B|141:168,2,200
72,72,52674,6,0,B|72:192,1,100,2|0
172,72,53279,2,0,B|72:72,1,100,2|0
172,171,53884,2,0,B|172:71,1,100,2|0
292,71,54490,5,0
292,131,54641,1,0
292,191,54792,1,0
292,311,55095,1,2
292,191,55398,1,0
292,311,55700,1,2
292,191,56003,2,0,B|159:193,1,100
192,72,56608,6,0,B|408:72,1,200
392,184,57214,2,0,B|296:280,1,100,8|0
264,256,57516,2,0,B|176:168,1,100,8|0
192,128,57819,2,0,B|408:128,1,200
392,240,58424,6,0,B|296:336,1,100,8|0
264,312,58727,2,0,B|176:224,1,100,8|0
192,184,59029,2,0,B|408:184,1,200
392,72,59635,2,0,B|176:72,1,200,8|0
256,208,60240,12,4,61451
256,208,62359,6,2,B|344:120,2,100,2|0|0
256,88,62964,1,0
256,208,63267,2,0,B|160:112,2,100,2|0|0
255,308,63872,2,0,B|255:196,1,100
195,212,64175,2,0,B|331:212,1,100,0|0
295,152,64477,2,0,B|296:288,1,100
356,252,64780,2,2,B|141:252,2,200
356,252,65688,1,4
352,128,65991,5,0
328,108,66066,1,0
296,104,66142,1,0
266,110,66218,1,0
240,128,66293,2,0,B|120:128,2,100
296,232,66898,1,2
64,64,67201,6,0,B|200:64,1,100,8|0
164,64,67504,1,0
64,128,67806,2,0,B|200:128,1,100,8|0
164,128,68109,1,0
64,192,68412,2,0,B|184:192,1,100,8|0
164,192,68714,2,0,B|211:145,4,50
113,300,69320,1,8
448,320,69622,6,2,B|448:200,1,100,2|0
392,248,69925,2,2,B|392:120,1,100,2|0
336,176,70228,2,2,B|336:40,1,100,2|0
280,104,70530,1,2
168,144,70833,5,0
176,176,70909,1,0
184,208,70984,1,0
192,240,71060,1,0
200,272,71136,2,0,B|232:384,2,100
200,272,71741,1,2
320,48,72044,6,0,B|216:120,2,100
320,168,72649,1,0
424,112,72952,1,0
320,48,73254,2,2,B|320:272,1,200
440,248,73860,2,2,B|440:32,1,200
384,152,74465,1,0
384,208,74616,1,0
384,264,74768,1,0
384,152,75070,1,0
384,208,75221,1,0
384,264,75373,1,0
264,288,75675,5,0
235,278,75751,1,0
209,263,75827,1,0
188,242,75902,1,0
172,216,75978,2,0,B|174:108,2,100
172,216,76583,1,2
292,216,76886,6,0,B|371:140,2,100
207,131,77491,2,0,B|289:53,2,100
324,102,78097,2,2,B|172:254,1,200
97,328,78702,2,2,B|252:173,1,200
323,101,79307,2,2,B|472:250,1,200
379,327,79913,2,0,B|282:231,4,100,0|0|0|0|4
67,55,85966,6,0,B|11:145|35:265|131:321|256:296,1,400
256,192,86874,2,0,B|368:192,2,100
256,88,87479,2,0,B|381:63|477:119|501:239|440:336,1,400
360,360,88387,1,0
312,360,88538,1,0
264,344,88690,1,8
216,320,88841,1,8
176,288,88992,1,0
160,240,89144,1,0
152,192,89295,6,2,B|368:192,1,200
352,88,89900,2,2,B|144:88,1,200
256,192,90506,5,0
306,160,90657,1,0
321,102,90808,1,0
290,50,90960,1,0
233,32,91111,1,2
177,53,91262,1,2
126,85,91413,6,0,B|64:193|109:268|174:322,2,200,0|0|2
238,41,92927,1,0
320,128,93229,2,0,B|399:67,1,100,2|0
484,152,93835,2,0,B|404:212,1,100,2|0
320,128,94440,2,2,B|399:67,1,100
256,176,95045,6,0,B|256:296,2,100
208,152,95651,5,2
128,240,95953,2,2,B|120:304|184:344,2,100
80,128,96559,2,0,B|88:72|160:48,2,100,2|0|0
184,192,97164,5,0
264,104,97467,1,0
376,56,97769,1,0
496,64,98072,2,0,B|496:152|416:256|296:312|192:312,1,400
104,280,98980,6,0,B|48:224|144:184,1,100
144,248,99283,2,0,B|200:208|136:144,1,100
112,200,99585,2,0,B|56:144|152:104,1,100
122,118,99888,1,4
416,328,100796,5,0
428,300,100871,1,0
436,271,100947,1,0
436,241,101023,1,0
421,215,101098,2,0,B|403:152|347:118|291:93,1,100,2|0
244,135,101704,2,0,B|176:157|207:216|263:255|313:185|360:221,1,200,2|2
247,296,102612,5,0
131,267,102914,1,2
88,225,103066,1,0
68,168,103217,1,0
119,60,103520,1,2
171,29,103671,1,0
231,29,103822,1,0
286,52,103974,1,0
329,95,104125,2,0,B|408:121|380:232|285:222|272:138|347:140,1,200,2|0
318,145,105033,5,4
148,315,105336,6,2,B|68:108,1,200
196,129,105941,2,2,B|276:343,1,200
436,146,106849,2,0,B|357:68,1,100
323,118,107152,1,0
323,178,107303,1,0
266,144,107454,2,2,B|179:55,2,100
256,208,108665,12,4,109875
360,200,110783,6,0,B|432:200|432:112,1,100
360,200,111389,2,0,B|324:262|400:306,1,100,2|0
360,200,111994,2,0,B|324:137|247:181,1,100
160,176,112599,6,0,B|232:176|232:88,1,100,2|0
160,176,113205,2,0,B|124:238|200:282,1,100
160,176,113810,2,0,B|124:113|47:157,1,100,2|0
160,176,114415,6,2,B|376:200,1,200
392,88,115021,5,0
392,88,115323,1,0
392,88,115626,1,0
336,88,115777,1,0
280,88,115928,1,0
256,208,116231,5,8
232,328,116534,5,0
176,328,116685,1,0
120,328,116836,1,0
120,328,117139,1,0
120,328,117442,1,0
256,208,117744,5,8
256,208,117896,1,0
256,208,118047,1,0
256,208,118198,1,0
256,208,118350,12,4,119560
256,40,119863,5,0
256,96,120014,1,0
256,152,120166,5,0
256,152,120241,1,0
256,152,120317,1,0
256,152,120393,1,0
256,152,120468,1,0
64,320,120771,5,8
120,320,120922,1,0
176,320,121074,1,0
448,96,121376,5,8
392,96,121528,1,0
336,96,121679,1,0
296,288,121982,6,0,B|192:248,1,100
216,300,122284,2,0,B|130:236,1,100
129,290,122587,2,0,B|87:198,1,100
93,149,122890,2,2,B|157:106|340:98|409:161,1,300,2|0
335,157,123495,2,0,B|439:197,1,100
384,215,123797,2,0,B|470:279,1,100
414,272,124100,2,0,B|456:364,1,100
413,336,124403,2,0,B|348:299,4,50
413,336,125008,1,2
146,137,125311,6,2,B|72:64,2,100
146,137,125916,2,2,B|44:249,2,100
272,136,126521,2,0,B|294:111|358:111|382:151,1,100,8|8
318,182,126824,5,8
284,231,126975,1,0
250,280,127127,1,0
216,329,127278,1,0
250,280,127429,1,8
284,230,127581,1,8
318,181,127732,1,0
352,132,127883,1,0
383,80,128035,6,2,B|329:53|282:86,1,100
288,142,128337,2,0,B|342:169|389:136,1,100
384,224,128640,2,2,B|330:197|283:230,1,100
289,286,128943,2,0,B|343:313|390:280,1,100
432,256,129245,6,0,B|488:256,4,50
432,256,129851,1,2
200,288,130153,6,2,B|128:284|128:216,2,100,2|0|0
248,176,130759,2,2,B|288:128|291:76|291:76|320:16|344:7|344:7|344:32|291:76|291:76|247:97|208:176,1,400
72,264,131667,6,0,B|144:336,1,100
152,264,131969,2,0,B|224:336,1,100
302,334,132272,2,0,B|232:264,1,100,8|0
382,334,132574,2,0,B|312:264,1,100,8|0
384,264,132877,6,0,B|476:245|512:184|512:112|432:40|320:16|192:16|88:40|0:112|0:184|41:257|170:276,1,800,0|0
152,256,134163,1,0
184,264,134239,1,0
208,256,134315,1,0
240,264,134390,1,0
240,203,134542,1,0
240,143,134693,1,4
360,112,134996,6,2,B|352:80|320:48|264:32,1,100,2|0
292,42,135298,1,0
152,112,135601,2,2,B|160:80|192:48|248:32,1,100,2|0
219,42,135904,1,0
256,152,136206,2,2,B|256:256,1,100,2|0
264,312,136509,5,8
322,322,136660,1,8
373,289,136812,1,0
394,233,136963,1,0
365,181,137114,1,8
251,205,137417,5,0
227,260,137568,1,0
203,315,137720,1,8
154,350,137871,1,8
95,361,138022,1,0
43,331,138174,1,0
28,273,138325,1,8
68,227,138476,1,8
123,203,138628,1,8
184,216,138779,1,8
228,261,138930,6,0,B|216:208,4,50
72,80,139838,6,0,B|112:40|200:16|352:48|400:80,1,300
384,72,140443,2,0,B|456:136|464:208|424:296,1,200
352,336,141049,1,4
256,256,141351,5,0
48,112,141654,5,2
424,48,142259,1,2
120,288,142865,1,2
376,320,143470,2,0,B|392:240|344:104|168:136|160:232|240:320|304:296|328:240|272:216,1,400,2|0
72,88,144681,5,8
168,304,145286,1,0
392,336,145891,1,8
320,240,146194,5,0
344,120,146497,1,0
232,55,146799,1,0
121,101,147102,1,0
184,208,147405,5,8
240,224,147556,1,8
224,168,147707,1,0
280,184,147859,1,0
264,128,148010,1,8
320,144,148161,1,8
304,88,148312,1,0
360,104,148464,1,0
344,48,148615,5,2
344,48,148691,1,0
344,48,148766,1,0
288,40,148918,1,0
288,40,149069,1,0
232,48,149220,1,0
232,48,149296,1,0
232,48,149372,1,0
184,40,149523,1,0
152,128,149826,6,0,B|104:104,2,50
136,184,150128,2,0,B|72:168,2,50
144,240,150431,2,0,B|80:256,2,50
176,288,150734,2,0,B|136:328,2,50
232,304,151036,5,2
290,293,151188,1,0
343,264,151339,1,0
352,205,151490,1,0
322,153,151642,1,0
264,138,151793,1,0
210,165,151944,1,0
166,206,152096,1,0
106,207,152247,1,0
61,167,152398,1,0
69,107,152550,1,0
116,71,152701,1,0
176,72,152852,6,0,B|280:32|408:72|464:176|448:280,1,400
440,288,153533,1,0
416,304,153609,1,0
360,280,153760,1,0
312,248,153912,1,0
304,304,154063,1,0
280,320,154139,1,0
256,336,154214,1,0
256,280,154366,1,0
160,288,154668,6,0,B|104:336,2,50
121,241,154971,2,0,B|65:241,2,50
126,181,155274,2,0,B|70:141,2,50
171,141,155576,2,0,B|155:93,2,50
226,116,155879,5,0
284,103,156030,1,0
344,115,156182,1,0
388,155,156333,1,0
406,212,156484,1,0
412,272,156635,1,0
373,317,156787,1,0
318,340,156938,1,0
258,346,157089,1,0
204,320,157241,1,0
160,272,157392,5,2
64,134,157846,1,2
255,33,158300,6,0,B|306:141,1,100
314,66,158603,2,0,B|365:174,1,100
370,98,158905,2,0,B|421:206,1,100,2|0
429,131,159208,2,0,B|480:239,1,100
488,160,159511,2,0,B|437:268,1,100
429,193,159813,2,0,B|378:301,1,100
374,224,160116,2,0,B|323:332,1,100,2|2
317,258,160419,2,0,B|266:366,1,100,2|0
255,377,160721,6,0,B|212:286,1,100
200,344,161024,2,0,B|157:254,1,100,2|0
142,312,161327,2,0,B|100:221,1,100
83,279,161629,2,0,B|41:188,1,100,2|0
72,136,161932,1,0
124,107,162083,1,0
179,84,162235,1,0
233,59,162386,1,0
255,114,162537,2,2,B|255:190,2,50,6|0|0
255,351,163143,6,0,B|306:243,1,100,4|0
314,318,163445,2,0,B|365:210,1,100
370,286,163748,2,0,B|421:178,1,100,6|0
429,253,164051,2,0,B|480:145,1,100
488,224,164353,2,0,B|437:116,1,100,4|0
429,191,164656,2,0,B|378:83,1,100
374,160,164958,2,2,B|323:52,1,100,6|2
317,126,165261,2,0,B|266:18,1,100,2|0
255,7,165564,6,0,B|212:98,1,100,4|0
198,41,165866,2,0,B|155:131,1,100
142,72,166169,2,0,B|100:163,1,100,4|0
83,105,166472,2,0,B|41:196,1,100
72,248,166774,1,4
124,277,166926,1,0
179,300,167077,1,0
233,325,167228,1,0
255,270,167380,2,0,B|255:194,2,50,6|0|0
256,208,167985,12,2,171617
256,192,171920,6,0,B|320:192,21,50,0|0|0|0|0|0|0|0|0|0|0|0|0|0|0|0|0|0|0|0|0|2
256,192,174038,5,4
86,241,174946,6,2,B|118:153|204:96|324:82|441:144,1,400
426,137,175854,1,0
427,139,176157,2,2,B|393:217|314:288|212:292|75:235,1,400
85,239,177065,1,0
86,241,177367,2,2,B|118:153|204:96|324:82|441:144,1,400
426,137,178275,1,0
312,176,178578,5,0
280,184,178654,1,0
248,192,178729,1,0
216,200,178805,1,0
187,208,178881,2,0,B|172:222|107:219|104:155,2,100
187,208,179486,5,2
144,120,179789,6,0,B|129:50|179:19,2,100,0|0|8
69,49,180394,1,0
45,93,180545,1,0
44,142,180697,1,8
144,120,180999,2,0,B|169:177|250:169,2,100,0|0|8
184,90,181453,1,8
234,83,181604,1,0
280,104,181756,1,0
309,144,181907,1,8
310,194,182058,1,8
289,239,182210,2,0,B|269:275|221:278|187:260,1,100
156,241,182512,2,0,B|124:220|112:166|137:136,4,100,8|8|0|0|0
240,184,183420,5,0
389,164,183723,5,0
390,194,183799,1,0
383,223,183874,1,0
368,248,183950,1,0
347,270,184026,2,0,B|290:316|232:304,2,100,0|0|2
240,184,184631,6,0,B|360:104,1,100
323,128,184934,1,0
272,232,185236,2,0,B|392:152,1,100
355,176,185539,1,0
304,280,185842,2,0,B|424:200,1,100
387,224,186144,2,0,B|455:172|440:136,1,100
442,145,186447,2,0,B|428:86|371:49,1,100
389,62,186750,2,0,B|328:55|276:86,1,100
292,77,187052,2,0,B|147:180|99:243|99:304|177:349|287:287,1,400
249,303,187960,1,0
333,218,188263,1,0
243,148,188566,5,0
213,141,188641,1,0
190,120,188717,1,0
177,93,188793,1,0
181,63,188868,2,0,B|230:21|320:46|354:102|362:142,1,200,0|2
416,184,189473,6,0,B|474:48,2,100
448,280,190079,2,0,B|524:369,2,100
352,256,190684,2,0,B|240:272,2,100
453,186,191289,5,0
332,345,191592,1,0
213,184,191895,1,0
31,268,192197,1,0
78,74,192500,1,0
267,8,192803,1,0
341,194,193105,1,0
256,208,193408,12,4,195224
256,208,197040,12,0,200672
144,192,201882,5,8
368,192,202185,1,0
