osu file format v7

[General]
AudioFilename: 265_Love Fighter.mp3
AudioLeadIn: 1000
PreviewTime: 10543
Countdown: 1
SampleSet: Normal
StackLeniency: 0.7
Mode: 0
LetterboxInBreaks: 1

[Editor]
Bookmarks: 13541,13581,17251,21211,73011
DistanceSpacing: 0.800000011920929
BeatDivisor: 4
GridSize: 8

[Metadata]
Title:Love Fighter
Artist:Brandy
Creator:yeahyeahyeahhh
Version:Relaxing
Source:O2Jam
Tags:yaya darrihuka yyy O2Mania

[Difficulty]
HPDrainRate:3
CircleSize:3
OverallDifficulty:5
SliderMultiplier:1.5
SliderTickRate:1

[Events]
//Background and Video events
0,0,"LF.jpg"
//Break Periods
2,80823,91063
//Storyboard Layer 0 (Background)
//Storyboard Layer 1 (Fail)
//Storyboard Layer 2 (Pass)
//Storyboard Layer 3 (Foreground)
//Storyboard Sound Samples
//Background Colour Transformations
3,100,163,162,255

[TimingPoints]
1903,480,4,1,0,100,1,0
6943,-200,4,1,0,100,0,0
7183,-100,4,1,0,0,0,0
7543,-100,4,1,0,100,0,0
132943,-100,4,1,0,67,0,0

[Colours]
Combo1 : 255,255,0
Combo2 : 5,240,5
Combo3 : 5,5,240
Combo4 : 240,5,5

[HitObjects]
360,72,3823,2,0,B|304:24|200:24|136:88,1,225,2|2
64,224,5263,1,2
64,104,5743,2,0,B|144:104|192:192|160:296,1,225,2|2
256,352,6943,6,0,B|256:288|256:288,1,37.5,2|0
448,104,7663,6,0,B|368:104|320:192|352:296,1,225,2|2
448,224,8863,1,2
448,224,9103,1,2
448,224,9343,1,2
448,224,9583,1,2
256,192,10303,5,2
256,192,10783,1,2
328,344,11503,6,0,B|248:360|168:344|168:344,1,150,4|8
48,248,12463,2,0,B|-24:304|-24:304,2,75,0|0|8
104,96,13423,5,2
104,96,13543,2,2,B|224:80,3,112.5
288,88,14863,2,2,B|376:104|376:104,1,75
440,72,15343,6,0,B|472:176|373:222|373:222,1,150,0|8
256,192,16303,2,0,B|96:192,2,150,0|8|0
328,232,17503,5,2
432,168,17863,1,2
328,96,18223,1,2
232,168,18583,1,2
152,264,18943,1,2
176,336,19183,6,0,B|256:352|336:336|336:336,1,150,4|8
464,248,20143,2,0,B|536:304|536:304,2,75,0|0|8
408,96,21103,5,2
408,96,21223,2,2,B|288:80,3,112.5
224,88,22543,2,2,B|136:104|136:104,1,75
72,72,23023,6,0,B|40:176|139:222|139:222,1,150,0|8
256,192,23983,2,0,B|416:192,2,150,0|8|0
176,192,25183,6,0,B|96:160,2,75
248,224,25903,2,0,B|352:264,2,75
184,272,26623,1,0
256,192,26863,12,4,28783
120,176,29263,5,8
64,280,29743,1,0
184,280,30223,2,0,B|256:288|336:280|336:280,1,150,8|0
448,280,31183,5,8
392,176,31663,1,0
392,176,31903,1,0
392,176,32143,1,0
336,72,32623,6,0,B|256:40|176:75|176:75,1,150,0|0
184,192,33583,2,0,B|264:224|344:189|344:189,1,150,0|0
432,256,34543,6,2,B|376:312,1,75
296,312,35023,2,2,B|248:328|176:312,1,112.5
96,240,35743,1,2
136,168,35983,2,2,B|48:144,2,75,2|2|4
256,144,36943,5,8
376,168,37423,1,0
328,280,37903,2,0,B|256:288|176:280|176:280,2,150,8|0|8
376,168,39343,2,0,B|416:168|456:184,2,75
256,120,40303,5,2
152,264,41023,1,2
256,328,41503,1,2
360,264,41983,1,2
352,184,42223,6,2,B|360:104|360:104,1,75,6|2
272,64,42703,2,2,B|256:152|256:152,1,75,6|2
176,192,43183,2,2,B|168:112|168:112,1,75,6|2
88,72,43663,1,2
32,136,43903,6,0,B|40:296,1,150
360,304,45823,2,0,B|367:154,1,150
480,232,47743,6,0,B|472:72,1,150
152,80,49663,6,0,B|144:229,1,150
360,304,50623,6,0,B|367:154,1,150
216,304,51823,6,0,B|96:304,2,112.5
296,304,52783,2,0,B|416:304,2,112.5
256,232,53743,6,2,B|256:136|256:136,4,75
304,344,55063,1,0
424,296,55423,1,0
352,192,55663,6,2,B|392:112|352:40|352:40,1,150
156,46,56623,6,2,B|160:40|120:112|160:192,1,150
72,216,57343,6,2,B|80:384|256:384|448:384|448:176,1,525,2|0
288,160,59503,6,0,B|392:112,2,112.5,4|4|4
224,208,60463,2,4,B|120:256,2,112.5
296,240,61423,1,4
256,344,63343,6,0,B|336:360|416:344|416:344,1,150,4|8
456,256,64303,2,0,B|536:304|536:304,2,75,0|0|8
400,160,65263,5,2
400,160,65383,2,2,B|280:144,3,112.5
232,88,66703,2,2,B|144:104|144:104,1,75
80,80,67183,6,0,B|48:184|147:230|147:230,1,150,0|8
256,192,68143,2,0,B|416:192,2,150,0|8|0
184,240,69343,5,2
80,176,69703,1,2
184,104,70063,1,2
288,176,70423,1,2
184,240,70783,1,2
184,240,71023,5,0
240,352,71503,5,0
80,312,71983,2,0,B|0:360|0:360,2,75,0|0|8
112,160,72943,5,2
112,160,73063,2,2,B|232:144,3,112.5
280,88,74383,2,2,B|368:104|368:104,1,75
432,80,74863,6,0,B|464:184|365:230|365:230,1,150,0|8
256,192,75823,2,0,B|96:192,2,150,0|8|0
336,192,77023,6,0,B|416:160,2,75
264,224,77743,2,0,B|160:264,2,75
328,272,78463,1,0
256,192,78703,12,4,80623
144,336,92263,5,2
144,336,92503,1,2
144,336,92743,1,2
368,336,93223,5,2
368,336,93463,1,2
368,336,93703,1,2
320,112,94183,5,2
256,64,94423,1,2
192,112,94663,1,2
256,216,95023,2,0,B|256:304,4,75
256,192,96463,12,0,97903
64,304,98383,5,0
224,304,98863,1,0
304,304,99103,1,0
384,304,99343,2,0,B|384:392|384:392,2,75
456,264,100063,5,0
456,184,100303,2,0,B|448:72|352:56,1,150,8|0
256,42,101263,2,0,B|256:192,1,150,8|0
56,179,102223,2,0,B|64:72|130:63,1,150,8|0
256,40,103183,1,8
384,64,103663,5,0
472,160,104143,2,0,B|400:192|304:160,1,150,8|0
192,160,105103,2,0,B|120:128|45:153,1,150,8|0
112,264,106063,2,2,B|192:296|280:256,2,150
176,176,107503,1,4
56,184,107983,6,0,B|64:72|160:56,1,150,8|0
256,42,108943,2,0,B|256:192,1,150,8|0
455,179,109903,2,0,B|448:72|381:63,1,150,8|0
256,40,110863,1,8
128,64,111343,5,0
40,160,111823,2,0,B|112:192|208:160,1,150,8|0
320,160,112783,2,0,B|392:128|467:153,1,150,8|0
256,192,113383,12,4,115183
64,272,115663,6,0,B|192:240|312:296,1,225,2|0
352,320,116623,1,2
328,200,117103,5,0
392,96,117583,2,0,B|264:128|144:72,1,225,2|0
104,40,118543,1,2
56,152,119023,6,0,B|56:312,2,150
168,200,120463,1,0
280,168,120943,1,0
392,200,121423,1,0
464,336,122023,2,2,B|408:344|320:336,1,112.5
296,232,122863,5,0
296,232,123103,1,0
296,232,123343,2,0,B|416:248,2,112.5,2|0|0
216,232,124303,2,0,B|96:248,2,112.5,2|0|0
216,152,125263,2,0,B|96:136,2,112.5,2|0|0
296,152,126223,2,0,B|416:136,2,112.5,2|0|0
288,72,127183,2,0,B|256:48|216:72,1,75,2|0
136,80,127663,5,0
96,208,128143,1,0
136,336,128623,2,0,B|216:344|304:336,1,150
376,200,129583,2,0,B|296:192|208:200,1,150
256,192,131023,12,0,134383
