osu file format v5

[General]
AudioFilename: Distro X.mp3
AudioLeadIn: 0
PreviewTime: 45928
Countdown: 0
SampleSet: Normal
StackLeniency: 0.7
Mode: 0
LetterboxInBreaks: 1
EditorBookmarks: 4188,12536,20884,29232,37580,45928,54275,62623,70971,77232,81406,89754,98101,106449,116884,125232,131493,135667,144015
EditorDistanceSpacing: 1

[Metadata]
Title:Distro X
Artist:Brandy
Creator:DJPop
Version:Metroid Mix
Source:O2Jam
Tags:distro x brandy o2jam red pulse mategr mgame

[Difficulty]
HPDrainRate:3
CircleSize:5
OverallDifficulty:7
SliderMultiplier:1.9
SliderTickRate:4

[Events]
//Background and Video events
0,0,"Distro X.jpg"
//Break Periods
2,75867,76332
2,81606,88854
2,96215,97462
//Storyboard Layer 0 (Background)
//Storyboard Layer 1 (Failing)
//Storyboard Layer 2 (Passing)
//Storyboard Layer 3 (Foreground)
//Storyboard Sound Samples
//Background Colour Transformations
3,100,0,0,0

[TimingPoints]
15,521.739130434783,4,2,0,100,1,0
10319,-100,4,1,0,100,0,0
12406,-200,4,1,0,100,0,0
12928,-200,4,1,0,100,0,0
16580,-200,4,1,0,100,0,0
17100,-200,4,1,0,100,0,0
20360,-100,4,1,2,100,0,0
41623,-100,4,1,2,100,0,0
43710,-100,4,1,0,100,0,0
46188,-100,4,1,0,100,0,0
49971,-100,4,1,2,100,0,0
54145,-100,4,1,0,100,0,0
54275,-100,4,1,0,100,0,0
61282,-100,4,1,0,100,0,0
62362,-100,4,1,0,100,0,1
62623,-100,4,1,1,100,0,1
68623,-100,4,1,0,100,0,0
68884,-100,4,1,0,100,0,1
70968,-200,4,1,0,100,0,1
71228,-100,4,1,1,100,0,1
73054,-200,4,1,0,100,0,1
73314,-100,4,1,1,100,0,1
75140,-200,4,1,0,100,0,1
75400,-100,4,1,1,100,0,1
76270,-100,4,1,1,100,0,0
77101,-100,4,2,1,100,0,0
78660,-100,4,2,0,70,0,0
79052,-100,4,2,0,100,0,0
81921,-100,4,1,2,100,0,0
94965,-100,4,1,0,100,0,0
96008,-50,4,1,1,100,0,0
97051,-50,4,1,0,100,0,0
98355,-100,4,1,0,100,0,0
102145,-100,4,1,2,100,0,0
103319,-100,4,1,0,100,0,0
104232,-100,4,1,2,100,0,0
106188,-100,4,1,0,100,0,0
114667,-100,4,2,0,100,0,0
115963,-100,4,1,1,100,0,0
116623,-100,4,1,1,100,0,1
122545,-100,4,1,1,100,0,0
125101,-100,4,2,1,100,0,0
126268,-100,4,1,1,100,0,0
126536,-100,4,1,1,100,0,1
131232,-100,4,1,0,100,0,0

[Colours]
Combo1 : 255,255,255
Combo2 : 164,253,55
Combo3 : 53,149,255
Combo4 : 255,47,30
Combo5 : 255,255,45

[HitObjects]
384,304,4188,2,0,B|448:304,2,47.5
320,304,4710,2,2,B|256:304,2,47.5
320,240,5232,1,0
320,240,5362,1,0
320,240,5493,1,0
320,176,5754,2,0,B|320:96,2,47.5,4|0|4
256,176,6275,6,0,B|176:176,2,47.5
256,176,6797,2,2,B|256:128,2,47.5
256,240,7319,1,0
256,240,7580,1,0
256,304,7841,2,0,B|256:352,2,47.5,4|0|4
320,304,8362,6,0,B|384:304,2,47.5
256,304,8884,2,2,B|192:304,2,47.5
256,240,9406,1,0
224,240,9536,1,0
192,240,9667,1,0
128,240,9928,2,0,B|128:160,2,47.5,4|0|4
64,240,10449,6,2,B|32:240|32:240|16:224|16:224|64:192|64:192|16:112,1,190,0|0
16,64,11232,1,10
80,64,11493,2,0,B|80:0,2,47.5
80,64,12015,1,12
144,64,12275,1,4
208,64,12536,6,0,B|272:64,1,47.5
256,64,13058,1,4
256,128,13319,1,4
256,192,13580,2,0,B|320:192,1,47.5
304,192,14101,1,4
304,192,14362,1,4
304,256,14623,2,0,B|224:256,1,47.5
256,256,15145,1,4
256,192,15406,1,4
256,192,15667,12,0,16449
160,320,16710,6,0,B|80:320,1,47.5
112,320,17232,1,4
112,256,17493,1,4
176,256,17754,2,0,B|240:256,1,47.5
224,256,18275,1,4
224,256,18536,1,4
224,256,18797,2,0,B|224:192,1,47.5
224,144,19319,1,4
288,144,19580,1,4
288,208,19841,6,2,B|224:208,1,47.5
176,208,20362,2,2,B|176:288,2,47.5
176,144,20884,5,0
144,144,21015,1,0
112,144,21145,1,0
112,208,21406,1,4
112,272,21667,1,4
176,272,21928,1,0
208,272,22058,1,0
240,272,22188,1,0
304,272,22449,1,4
368,272,22710,1,4
368,208,22971,5,0
368,208,23101,1,0
368,208,23232,1,0
304,208,23493,1,4
240,208,23754,1,4
176,208,24015,5,2
80,256,24406,1,2
32,160,24797,1,2
32,96,25058,5,0
64,96,25188,1,0
96,96,25319,1,0
160,96,25580,1,4
224,96,25841,1,4
288,96,26101,1,0
288,96,26232,1,0
288,96,26362,1,0
288,160,26623,1,4
288,224,26884,1,4
224,224,27145,5,0
192,224,27275,1,0
160,224,27406,1,0
96,224,27667,1,4
32,224,27928,1,4
48,160,28188,5,2
160,160,28580,1,2
96,80,28971,1,2
160,48,29232,5,0
176,112,29493,1,0
240,112,29754,1,0
240,48,30015,1,0
304,48,30275,1,0
304,112,30536,1,10
304,144,30667,1,10
304,176,30797,1,10
304,240,31058,1,10
208,240,31319,5,0
144,240,31580,1,0
176,176,31841,1,0
112,176,32101,1,0
64,224,32362,1,0
80,288,32623,1,10
112,304,32754,1,10
144,304,32884,1,10
208,304,33145,1,10
304,304,33406,5,0
368,304,33667,1,0
368,240,33928,1,0
368,176,34188,1,0
304,176,34449,1,0
304,240,34710,1,10
304,240,34841,1,10
304,240,34971,1,10
240,240,35232,1,10
144,240,35493,5,0
144,176,35754,1,0
144,112,36015,1,0
144,176,36275,1,0
144,240,36536,1,0
80,240,36797,1,10
80,208,36928,1,10
80,176,37058,1,14
80,112,37319,1,14
176,112,37580,5,0
240,112,37841,1,0
240,176,38101,1,0
176,176,38362,1,0
176,240,38623,1,0
240,240,38884,1,10
240,240,39015,1,10
240,240,39145,1,14
240,304,39406,1,14
144,304,39667,5,0
80,304,39928,1,0
80,304,40188,1,0
80,240,40449,1,0
144,240,40710,1,0
144,176,40971,1,10
112,176,41101,1,10
80,176,41232,1,14
80,112,41493,1,14
160,112,41754,5,0
224,96,42015,1,0
208,160,42275,1,0
272,160,42536,1,0
336,160,42797,1,0
400,160,43058,1,10
400,160,43188,1,10
400,160,43319,1,14
400,224,43580,1,14
336,224,43841,5,8
336,224,43971,1,0
336,224,44101,1,8
336,224,44232,1,0
272,224,44493,1,0
272,224,44623,1,8
176,224,45015,1,10
112,224,45275,1,0
112,224,45406,2,2,B|32:208|16:176|32:144|128:144,1,190,10|4
176,96,46188,5,0
240,96,46449,1,0
240,96,46580,1,0
240,96,46710,1,0
304,96,46971,1,0
368,96,47232,1,0
304,96,47493,1,0
304,160,47754,2,2,B|240:160|240:160|208:208|208:208|208:288,1,190
272,272,48536,1,0
336,272,48797,1,0
400,272,49058,2,2,B|464:272|464:272|464:192|464:192|384:192,1,190,2|6
304,192,50101,5,0
272,192,50232,1,0
240,208,50362,1,0
224,240,50493,1,0
208,272,50623,1,0
144,272,50884,5,0
160,240,51014,1,0
160,208,51144,1,0
128,192,51275,1,0
96,192,51405,1,0
48,240,51667,5,0
32,208,51798,1,0
32,176,51929,1,0
48,144,52059,1,0
80,128,52190,1,0
80,64,52449,5,0
112,48,52580,1,0
144,48,52710,1,0
176,48,52841,1,0
208,64,52972,1,0
272,80,53232,5,0
288,48,53362,1,0
320,32,53492,1,0
352,32,53623,1,0
384,32,53754,1,0
272,112,54275,5,0
336,112,54536,2,0,B|352:192|352:192|336:256|256:256,1,190,0|0
208,272,55319,1,0
208,336,55580,1,0
272,336,55841,1,0
272,272,56101,2,0,B|144:272,1,95,0|0
112,272,56623,1,0
128,208,56884,2,0,B|176:208|224:160|256:128|416:128,1,285,0|4
400,64,57928,1,2
368,64,58058,1,2
336,64,58188,1,2
336,128,58449,6,4,B|400:128|432:160|448:272,1,190
384,272,59232,1,4
320,256,59493,2,4,B|224:304|128:256,1,190
80,224,60275,1,4
80,160,60536,2,4,B|192:208|240:160|256:80,1,190
192,320,61841,5,0
128,320,62101,1,0
64,320,62362,2,0,B|32:240|96:112,1,190
144,112,63145,2,0,B|336:112,1,190
336,176,63928,1,0
336,240,64188,1,0
336,304,64449,2,0,B|272:288|208:240|192:160,1,190
144,144,65232,1,0
80,144,65493,2,0,B|80:256|160:336,1,190
208,336,66275,1,0
256,288,66536,2,0,B|320:256|384:208|400:128,1,190
384,96,67319,1,0
320,96,67580,2,0,B|128:96,1,190
112,160,68362,5,4
112,160,68623,1,4
176,160,68884,6,4,B|176:96|256:80,1,95
272,144,69406,2,4,B|464:144,1,190
464,208,70188,1,4
400,208,70449,2,4,B|192:208,1,190
144,208,71232,1,4
320,48,72275,5,4
384,48,72536,1,4
448,48,72797,2,4,B|448:128|384:112,1,95
400,224,73580,1,4
192,224,74362,1,4
128,224,74623,1,4
64,224,74884,1,4
64,80,75667,1,4
416,80,77232,5,4
320,80,77623,1,4
224,80,78015,1,4
160,80,78275,1,4
160,144,78536,1,4
160,208,78797,1,4
160,272,79058,1,4
224,272,79319,5,4
256,272,79449,1,4
288,272,79580,1,4
288,208,79841,1,4
256,208,79971,1,4
224,208,80101,1,4
224,144,80362,1,4
256,144,80493,1,4
288,144,80623,1,4
256,192,80884,12,4,81406
272,320,89754,5,0
304,304,89884,1,0
336,288,90015,1,0
352,224,90275,1,0
352,160,90536,1,0
256,192,90797,12,0,91580
80,64,91841,5,0
80,96,91971,1,0
80,128,92101,1,0
144,112,92362,1,0
144,176,92623,1,0
256,192,92884,12,0,93667
416,48,93928,5,0
416,80,94058,1,0
416,112,94188,1,0
368,160,94449,1,0
416,112,94710,1,0
256,192,94971,12,0,96015
256,32,98362,5,0
256,96,98623,1,0
256,128,98754,1,0
256,160,98884,1,0
256,224,99145,1,0
256,288,99406,1,0
256,224,99667,1,0
192,224,99928,2,2,B|224:160|256:128|288:160|320:240,1,190
256,272,100710,1,0
256,272,100971,1,0
256,208,101232,2,2,B|256:16,1,190,2|6
160,80,102275,5,0
192,80,102406,1,0
224,80,102536,1,0
256,80,102667,1,0
288,80,102797,1,0
288,144,103058,5,0
256,144,103188,1,0
224,144,103319,1,0
192,144,103449,1,0
160,144,103580,1,0
160,208,103841,5,0
160,240,103971,1,0
176,272,104101,1,0
208,288,104232,1,0
240,288,104362,1,0
304,288,104623,5,0
336,288,104754,1,0
368,272,104884,1,0
384,240,105015,1,0
384,208,105145,1,0
320,192,105406,5,0
288,176,105536,1,0
256,160,105667,1,0
224,176,105797,1,0
192,192,105928,1,0
48,96,106710,6,0,B|176:96,1,95
208,96,107232,1,0
272,96,107493,1,0
272,160,107754,1,0
208,160,108015,1,0
144,160,108275,2,2,B|96:160|32:208|80:272|176:272,1,190
208,272,109058,1,0
272,272,109319,1,0
336,272,109580,2,2,B|416:272|432:208|416:128,1,190,2|2
368,96,110362,1,0
352,32,110623,6,4,B|240:32|176:64|128:96,1,190
112,96,111406,1,4
128,160,111667,2,4,B|224:96|336:80,1,190
368,96,112449,1,4
368,160,112710,2,4,B|272:192|176:288,1,190
144,256,113493,5,8
80,256,113754,1,8
80,160,114145,1,8
80,64,114536,1,8
256,192,114797,12,0,115841
368,256,116101,5,0
368,192,116362,1,0
368,128,116623,2,0,B|320:80|208:112|176:160,1,190
128,144,117406,1,0
128,208,117667,2,0,B|176:256|256:272|336:224,1,190
320,176,118449,1,0
368,224,118710,1,0
384,160,118971,2,0,B|416:80|352:64|240:80,1,190
200,96,119754,1,0
112,176,120275,5,0
112,240,120536,1,0
112,304,120797,2,0,B|304:304,1,190
304,240,121580,1,0
304,176,121841,2,0,B|96:176,1,190
128,128,123145,6,4,B|176:80|240:64|304:48,1,190
304,112,123928,1,4
320,176,124188,2,4,B|272:240|288:320|400:352,1,190
400,288,124971,1,4
256,192,125232,12,4,126275
48,336,126536,5,0
112,336,126797,1,0
176,336,127058,2,0,B|240:336|304:304|352:240,1,190
352,192,127841,1,0
336,128,128101,2,0,B|208:128,1,95
240,192,128623,1,0
176,192,128884,1,0
176,128,129145,2,0,B|176:80|240:16|336:32,1,190
384,32,129928,1,0
256,192,130188,12,0,131232
96,240,131493,6,0,B|96:304|160:320|256:320,1,190
310,305,132276,1,0
304,240,132536,2,0,B|304:192|240:112|288:96|368:80,1,190
400,64,133319,5,0
416,128,133580,1,0
416,192,133841,1,0
384,256,134101,1,0
384,256,134232,1,0
384,256,134362,1,0
336,304,134623,1,0
336,304,134754,1,0
336,304,134884,1,0
272,336,135145,2,0,B|144:336,1,95
112,320,135667,5,0
112,320,135797,1,0
112,320,135928,1,0
112,256,136188,2,4,B|208:256,1,95
256,208,136710,1,0
256,208,136841,1,0
256,208,136971,1,0
304,160,137232,2,4,B|400:160,1,95
448,112,137754,1,0
448,112,137884,1,0
448,112,138015,1,0
400,64,138275,2,4,B|272:64,1,95
240,64,138797,5,2
144,64,139188,1,2
48,64,139580,1,2
48,128,139841,6,0,B|48:240,1,95
96,272,140362,2,0,B|96:352,2,47.5,4|0|4
144,224,140884,2,0,B|144:96,1,95
192,80,141406,2,0,B|192:16,2,47.5,4|0|4
240,128,141928,2,0,B|240:256,1,95
288,272,142449,2,0,B|288:336,2,47.5,4|0|4
336,224,142971,6,14,B|336:176,1,47.5
336,80,143493,2,14,B|336:32,1,47.5
240,80,144015,6,0,B|144:80,1,95
96,128,144536,1,4
96,128,144797,1,4
128,192,145058,2,0,B|256:192,1,95
272,240,145580,1,4
272,240,145841,1,4
224,288,146101,2,0,B|96:288,1,95
80,336,146623,1,4
80,336,146884,1,4
144,368,147145,5,2
256,368,147536,1,2
352,368,147928,1,2
400,320,148188,6,0,B|400:224,1,95
448,176,148710,2,0,B|528:176,2,47.5,4|0|4
400,128,149232,2,0,B|320:48,1,95
272,32,149754,1,4
208,32,150015,1,4
144,64,150275,2,0,B|80:144,1,95
128,192,150797,2,0,B|128:240,2,47.5,4|0|4
192,192,151319,5,2
256,128,151710,1,2
320,192,152101,1,2
320,192,152362,1,2
256,256,152754,1,2
192,192,153145,1,2
