osu file format v5

[General]
AudioFilename: Distro X.mp3
AudioLeadIn: 0
PreviewTime: 45928
Countdown: 0
SampleSet: Normal
StackLeniency: 0.7
Mode: 0
LetterboxInBreaks: 1
EditorBookmarks: 4188,12536,20884,29232,37580,45928,54275,62623,70971,77232,81406,89754,98101,106449,116884,125232,131493,135667,144015
EditorDistanceSpacing: 0.600000023841858

[Metadata]
Title:Distro X
Artist:Brandy
Creator:DJPop
Version:DaRRi Relax
Source:O2Jam
Tags:distro x brandy o2jam red pulse mategr mgame

[Difficulty]
HPDrainRate:3
CircleSize:4
OverallDifficulty:5
SliderMultiplier:1.6
SliderTickRate:4

[Events]
//Background and Video events
0,0,"Distro X.jpg"
//Break Periods
2,81084,88554
//Storyboard Layer 0 (Background)
//Storyboard Layer 1 (Failing)
//Storyboard Layer 2 (Passing)
//Storyboard Layer 3 (Foreground)
//Storyboard Sound Samples
//Background Colour Transformations
3,100,0,0,0

[TimingPoints]
15,521.739130434783,4,2,0,100,1,0
10319,-100,4,1,0,100,0,0
77101,-100,4,2,0,100,0,0
78660,-100,4,2,0,70,0,0
79052,-100,4,2,0,100,0,0
81921,-100,4,1,2,100,0,0
95493,-100,4,1,0,100,0,0
114667,-100,4,2,0,100,0,0
115963,-100,4,1,0,100,0,0
125101,-100,4,2,0,100,0,0
126268,-100,4,1,0,100,0,0

[Colours]
Combo1 : 255,255,255
Combo2 : 164,253,55
Combo3 : 53,149,255
Combo4 : 255,47,30
Combo5 : 255,255,45

[HitObjects]
184,64,4188,6,2,B|256:-1|328:64,3,160
328,128,6015,1,0
328,192,6275,6,2,B|256:127|184:192,3,160
184,256,8102,1,0
184,320,8362,6,2,B|256:255|328:320,3,160
376,280,10189,1,0
440,280,10449,5,6
424,56,11493,5,2
440,144,11884,1,2
456,232,12275,1,2
392,232,12536,6,0,B|458:232|458:336|392:336,1,160
328,336,13319,1,0
264,336,13580,6,0,B|198:336|198:232|264:232,1,160
328,232,14363,1,0
392,232,14623,6,0,B|458:232|458:128|392:128,1,160
328,128,15406,1,0
288,72,15667,5,4
264,160,16058,1,4
240,248,16449,1,4
272,304,16710,6,0,B|144:304,1,120
120,304,17232,1,0
64,272,17493,1,0
120,240,17754,2,0,B|256:240,1,120
272,240,18275,1,0
328,208,18536,1,0
272,176,18797,2,0,B|144:176,1,120
120,176,19319,1,0
64,144,19580,1,0
64,80,19841,5,2
64,304,20362,1,2
64,192,20884,6,0,B|152:104,2,120
128,192,21928,2,0,B|216:280,2,120
192,192,22971,2,0,B|280:104,2,120
256,192,24015,1,2
344,216,24406,1,2
432,240,24797,1,2
464,184,25058,6,0,B|464:56,2,120
400,152,26101,2,0,B|400:280,2,120
336,184,27145,2,0,B|336:56,2,120,0|0|0
272,200,28188,1,2
184,176,28580,1,2
96,152,28971,1,2
120,88,29232,5,0
184,88,29493,1,0
248,88,29754,1,2
312,88,30015,1,0
376,88,30275,1,0
440,88,30536,1,0
440,88,30667,1,2
472,192,31319,5,0
408,192,31580,1,0
344,192,31841,2,2,B|256:192,1,80,2|0
200,192,32362,1,0
136,192,32623,1,0
136,192,32754,1,2
104,296,33406,5,0
168,296,33667,1,0
232,296,33928,1,2
296,296,34189,1,0
360,296,34449,1,0
424,296,34710,1,0
424,296,34841,1,2
456,192,35493,6,0,B|368:192,1,80
376,192,36015,2,0,B|288:192,1,80
296,192,36536,2,0,B|200:192,1,80
216,192,37058,2,0,B|120:192,1,80
104,248,37580,5,2
80,192,37841,1,2
104,136,38101,1,0
104,136,38232,1,0
104,24,38623,2,0,B|240:24,2,120
136,80,39667,5,2
192,56,39928,1,2
248,80,40188,1,0
304,56,40449,1,0
360,80,40710,1,4
304,160,41101,1,4
248,232,41493,1,4
216,288,41754,5,2
272,312,42015,1,2
328,288,42275,1,0
328,288,42406,1,0
440,288,42797,2,0,B|440:152,2,120
384,248,43841,6,0,B|176:248,1,200
88,248,45015,1,0
88,248,45275,1,0
88,248,45406,2,2,B|88:72,1,160,0|4
216,48,46449,5,0
216,48,46580,1,0
216,48,46710,1,0
272,72,46971,1,0
328,48,47232,1,0
384,72,47493,1,0
440,48,47754,2,0,B|440:216,1,160
440,272,48536,1,0
376,272,48797,2,0,B|208:272,1,160
112,232,50101,6,2,B|112:184,1,40
112,192,50493,2,2,B|112:144,1,40
112,152,50884,2,2,B|112:104,1,40
112,80,51145,6,0,B|192:112|272:80,1,160
416,40,52188,6,2,B|416:88,1,40
416,80,52580,2,2,B|416:128,1,40
416,120,52971,2,2,B|416:168,1,40
416,192,53232,6,0,B|336:160|256:192,1,160
144,248,54275,5,4
216,336,54797,5,0
216,336,54928,1,0
216,336,55058,1,0
272,312,55319,1,0
328,336,55580,1,0
384,312,55841,1,0
440,336,56102,2,0,B|440:168,1,160
440,112,56884,1,0
376,112,57145,1,0
376,112,57275,2,0,B|248:112,1,120
96,224,58449,6,0,B|96:96,2,120
160,208,59493,2,0,B|160:336,2,120
224,192,60536,2,2,L|232:200|240:184|248:200|256:184|264:200|272:184|280:200|288:184|296:200|304:184|312:200|320:184|328:200|336:184|344:200|352:184|360:200|368:184|376:200,1,320,2|0
256,192,61645,12,4,62623
256,192,63145,5,0
344,64,63928,5,0
376,120,64188,1,0
408,64,64449,1,0
376,192,64971,1,0
376,192,65232,1,0
168,320,66015,5,0
136,264,66275,1,0
104,320,66536,1,0
136,192,67058,1,0
136,192,67319,1,0
176,104,68884,5,2
200,192,69275,1,2
224,280,69667,1,2
288,280,69928,5,2
312,192,70319,1,2
336,104,70711,1,2
312,40,70971,6,0,B|304:104|208:104|200:40,1,160,4|0
168,320,72275,5,0
136,264,72535,1,0
104,320,72796,1,0
136,192,73318,1,0
136,192,73579,1,0
344,64,74362,5,0
376,120,74622,1,0
408,64,74883,1,0
376,192,75405,1,0
376,192,75666,1,0
216,256,77232,5,0
216,256,77623,1,0
216,256,78015,1,0
160,224,78275,1,2
256,192,78667,1,2
352,160,79058,1,2
296,128,79319,6,0,L|312:136|280:144|312:152|280:160|312:168|280:176|312:184|280:192|312:200|280:208|312:216|280:224|312:232|280:240|296:248|296:264,1,480,0|4
72,72,89754,6,10,L|120:40,3,40
200,48,90406,1,10
200,48,90667,1,10
160,144,90928,2,0,L|359:171,1,200,0|0
424,128,91841,6,10,L|376:96,3,40
296,111,92493,2,10,L|263:134,2,40,10|10|10
351,197,93015,2,0,L|152:224,1,200
72,184,93928,6,10,L|120:152,3,40
200,160,94580,1,10
200,160,94841,1,10
160,256,95101,2,0,L|359:283,1,200,0|0
432,264,96015,6,0,L|432:208,1,40,4|0
432,224,96275,2,0,L|432:176,1,40,4|0
432,184,96536,2,0,L|432:144,1,40,4|0
432,144,96797,2,0,L|432:104,1,40,4|0
256,192,97188,12,0,98101
296,48,98623,5,0
296,48,98754,1,0
296,48,98884,1,0
240,72,99145,1,0
184,48,99406,1,0
128,72,99667,1,0
72,48,99928,2,0,B|72:216,1,160
72,272,100710,1,0
136,272,100971,2,0,B|304:272,1,160
296,272,102275,6,2,B|296:224,1,40
296,232,102667,2,2,B|296:184,1,40
296,192,103058,2,2,B|296:144,1,40
296,120,103319,6,0,B|352:160|416:120,2,120
216,112,104362,6,2,B|216:160,1,40
216,152,104754,2,2,B|216:200,1,40
216,192,105145,2,2,B|216:240,1,40
216,264,105406,6,0,B|160:224|96:264,2,120
216,264,106449,5,4
296,336,106971,5,0
296,336,107102,1,0
296,336,107232,1,0
240,312,107493,1,0
184,336,107754,1,0
128,312,108015,1,0
72,336,108276,2,0,B|72:168,1,160
72,112,109058,1,0
136,112,109319,1,0
136,112,109449,2,0,L|264:112,1,120
464,192,110623,6,2,L|464:72,2,120
408,152,111667,2,2,L|408:272,2,120
360,192,112710,2,0,C|296:144|232:192|168:144|112:192,1,320
256,192,113819,12,0,114536
112,112,114797,6,2,L|104:120|120:128|104:136|120:144|104:152|120:160|104:168|120:176|104:184|120:192|104:200|120:208|104:216|120:224|104:232|120:240|104:248|112:256|112:272,1,320,2|0
256,192,115906,12,4,116884
256,192,117406,5,0
88,80,118188,5,0
144,112,118449,1,0
200,80,118710,2,0,L|360:80,1,160
416,112,119493,1,0
424,304,120275,5,0
384,248,120536,1,0
344,304,120797,2,0,L|176:304,1,160
120,304,121580,1,0
120,304,121710,1,2
336,280,123145,5,2
312,192,123536,1,2
288,104,123928,1,2
224,104,124189,5,2
200,192,124580,1,2
176,280,124972,1,2
200,344,125232,6,2,B|208:280|304:280|312:344,1,160
424,80,126536,5,0
368,112,126797,1,0
312,80,127058,2,0,L|152:80,1,160
96,112,127841,1,0
88,304,128623,5,0
128,248,128884,1,0
168,304,129145,2,0,L|336:304,1,160
392,304,129928,1,0
392,304,130058,1,2
392,192,131493,5,0
392,192,131884,1,0
392,192,132275,1,0
344,240,132536,1,0
256,192,132928,1,0
168,240,133319,1,0
120,192,133580,5,4
256,192,133645,12,2,135145
448,104,135667,6,2,L|320:104,1,120,2|0
328,136,136188,2,2,L|200:136,1,120,2|0
208,168,136710,2,2,L|80:168,1,120,2|0
56,168,137232,2,0,L|56:224,3,40
56,240,137754,6,2,L|192:240,1,120,2|0
176,272,138275,2,2,L|312:272,1,120,2|0
328,304,138797,1,4
328,304,139188,1,4
328,304,139580,1,4
392,304,139841,6,2,L|392:184,1,120,2|0
392,152,140362,2,2,L|272:152,1,120,2|0
240,152,140884,2,2,L|240:272,1,120,2|0
240,304,141406,2,0,L|184:304,3,40
168,304,141928,6,2,L|168:160,1,120,2|0
168,152,142449,2,2,L|288:152,1,120,2|0
320,120,142971,1,0
320,120,143101,1,0
432,96,143493,1,0
432,96,143623,1,0
488,192,144015,6,0,L|368:200,1,120
336,192,144536,2,0,L|336:144,3,40
336,192,145058,2,0,L|216:184,1,120
184,192,145579,2,0,L|184:248,3,40
184,192,146101,2,0,L|64:200,1,120
32,192,146622,2,0,L|32:144,3,40
32,120,147145,5,2
72,208,147536,1,2
112,296,147928,1,2
176,296,148188,6,0,L|304:288,1,120
328,264,148710,2,0,L|368:272,3,40
296,232,149232,2,0,L|168:224,1,120
144,200,149754,2,0,L|104:208,3,40
176,168,150275,2,0,L|304:160,1,120
328,136,150797,2,0,L|368:144,3,40
296,104,151319,5,2
296,104,151710,1,2
296,104,152101,1,2
240,56,152362,5,2
232,160,152754,1,2
224,264,153145,1,2
