osu file format v5

[General]
AudioFilename: Distro X.mp3
AudioLeadIn: 0
PreviewTime: 45928
Countdown: 0
SampleSet: Soft
StackLeniency: 0.7
Mode: 0
LetterboxInBreaks: 1
EditorBookmarks: 4188,12536,20884,29232,37580,45928,54275,62623,70971,77232,81406,89754,98101,106449,116884,125232,131493,135667,144015

[Metadata]
Title:Distro X
Artist:Brandy
Creator:DJPop
Version:DaRRi MIx
Source:O2Jam
Tags:distro x brandy o2jam red pulse mategr mgame

[Difficulty]
HPDrainRate:3
CircleSize:5
OverallDifficulty:7
SliderMultiplier:1.9
SliderTickRate:4

[Events]
//Background and Video events
0,0,"Distro X.jpg"
//Break Periods
2,81606,88854
//Storyboard Layer 0 (Background)
//Storyboard Layer 1 (Failing)
//Storyboard Layer 2 (Passing)
//Storyboard Layer 3 (Foreground)
//Storyboard Sound Samples
//Background Colour Transformations
3,100,0,0,0

[TimingPoints]
15,521.739130434783,4,2,0,100,1,0
10319,-100,4,1,0,100,0,0
12406,-100,4,2,0,100,0,0
12928,-200,4,1,0,100,0,0
16580,-100,4,2,0,100,0,0
17100,-200,4,1,0,100,0,0
20360,-100,4,1,2,100,0,0
41232,-100,4,1,0,100,0,0
41623,-100,4,1,2,100,0,0
43710,-100,4,1,0,100,0,0
49971,-100,4,1,2,100,0,0
54145,-100,4,1,0,100,0,0
62623,-100,4,1,1,100,0,0
68623,-100,4,1,0,100,0,0
70968,-200,4,1,0,100,0,0
71228,-100,4,1,1,100,0,0
73054,-200,4,1,0,100,0,0
73314,-100,4,1,1,100,0,0
75140,-200,4,1,0,100,0,0
75400,-100,4,1,1,100,0,0
77101,-100,4,2,0,100,0,0
78660,-100,4,2,0,70,0,0
79052,-100,4,2,0,100,0,0
80884,-50,4,2,0,100,0,0
81921,-100,4,1,2,100,0,0
94965,-100,4,1,0,100,0,0
96008,-50,4,1,1,100,0,0
97051,-50,4,1,0,100,0,0
98355,-100,4,1,0,100,0,0
102145,-100,4,1,2,100,0,0
103319,-100,4,1,0,100,0,0
104232,-100,4,1,2,100,0,0
106188,-100,4,1,0,100,0,0
114667,-100,4,2,0,100,0,0
115963,-100,4,1,1,100,0,0
125101,-100,4,2,0,100,0,0
126268,-100,4,1,1,100,0,0
131232,-100,4,1,0,100,0,0

[Colours]
Combo1 : 255,255,255
Combo2 : 164,253,55
Combo3 : 53,149,255
Combo4 : 255,47,30
Combo5 : 255,255,45

[HitObjects]
39,121,4188,6,2,B|32:216|101:236,1,142.5,2|2
208,80,4710,2,2,B|144:16|64:80,1,142.5
160,240,5232,2,2,B|240:216|232:128,1,142.5
256,192,5754,5,0
256,192,6015,1,0
472,262,6275,6,2,B|480:168|410:147,1,142.5
304,304,6797,2,2,B|368:368|448:304,1,142.5
352,144,7319,2,2,B|272:168|280:256,1,142.5
256,192,7841,5,0
256,192,8101,1,0
184,128,8362,6,2,B|248:64|328:128,1,142.5
232,288,8884,2,2,B|152:264|160:176,1,142.5
352,169,9406,2,2,B|360:264|290:284,1,142.5
256,192,9928,5,0
256,192,10188,1,0
360,120,10449,5,0
360,120,10580,1,0
360,120,10710,1,0
360,120,10841,1,0
360,120,10971,1,0
360,120,11101,5,2
360,120,11362,1,2
384,176,11493,5,0
208,112,11884,1,0
208,304,12275,1,0
88,320,12536,6,0,L|72:312|88:304|72:296|88:288|72:280|88:272|72:264|88:256|72:248|88:240,1,142.5
87,256,13058,1,0
136,224,13188,1,2
256,256,13449,5,0
256,256,13580,2,0,B|288:224|256:192,1,71.25
258,194,14101,1,0
207,160,14232,1,2
88,192,14493,5,0
88,192,14623,2,0,B|56:160|88:128,1,71.25
86,130,15145,1,0
137,96,15275,1,2
224,144,15536,5,0
256,96,15667,5,4
216,280,16058,1,4
400,312,16449,1,4
440,192,16710,6,0,L|432:208|424:192|416:208|408:192|400:208|392:192|384:208|376:192|368:208|360:192,1,142.5
376,193,17232,1,0
344,144,17362,1,2
344,144,17623,5,0
320,192,17754,2,0,B|232:192,1,71.25
248,192,18275,1,0
216,144,18406,1,2
216,144,18667,5,0
184,192,18797,2,0,B|96:192,1,71.25
112,192,19319,1,0
80,144,19449,1,2
80,144,19710,1,0
56,192,19841,5,2
56,192,19971,1,2
256,280,20362,5,2
256,280,20493,1,2
408,112,20884,6,0,L|400:120|392:112|384:120|376:112|368:120|360:112|352:120|344:112|336:120,1,95
312,64,21275,2,0,B|248:64,1,47.5
232,112,21536,2,0,B|168:112,1,47.5
152,64,21797,1,0
96,64,21928,6,0,L|88:72|96:80|88:88|96:96|88:104|96:112|88:120|96:128|88:136,1,95
144,160,22319,2,0,B|144:224,1,47.5
96,240,22580,2,0,B|96:304,1,47.5
144,320,22841,1,0
144,264,22971,6,0,L|152:256|160:264|168:256|176:264|184:256|192:264|200:256|208:264|216:256,1,95
240,312,23362,2,0,B|304:312,1,47.5
320,264,23623,2,0,B|384:264,1,47.5
400,312,23884,1,0
432,264,24015,5,2
304,168,24406,1,2
432,80,24797,1,2
328,80,25058,6,0,C|304:120|280:80,1,95
224,80,25449,2,0,C|176:80,1,47.5,0|0
120,80,25710,2,0,C|64:80,1,47.5,0|0
16,80,25971,1,0
40,136,26101,6,0,C|64:176|88:136,1,95
144,136,26492,2,0,C|192:136,1,47.5,0|0
248,136,26753,2,0,C|304:136,1,47.5,0|0
352,136,27014,1,0
368,192,27145,6,0,C|328:216|368:240,1,95
328,288,27536,2,0,C|280:288,1,47.5,0|0
224,288,27797,2,0,C|168:288,1,47.5,0|0
120,288,28058,1,0
64,272,28188,5,2
128,176,28449,1,0
128,176,28580,1,2
64,88,28841,1,0
64,88,28971,1,2
224,40,29232,6,8,C|176:40,1,47.5
128,72,29493,2,8,C|184:72,1,47.5
224,104,29754,2,0,C|176:104,1,47.5
128,136,30015,2,0,C|184:136,1,47.5
224,168,30275,2,0,C|176:168,1,47.5,4|0
128,200,30536,1,0
176,232,30667,1,2
176,344,30928,1,2
384,344,31319,6,8,C|336:344,1,47.5
288,312,31580,1,8
384,280,31841,2,0,C|336:280,1,47.5
288,248,32101,2,0,C|352:248,1,47.5
384,216,32362,2,0,C|336:216,1,47.5
288,184,32623,1,0
336,152,32754,1,2
336,40,33015,1,2
224,40,33406,6,8,C|176:40,1,47.5
128,72,33667,2,8,C|184:72,1,47.5
224,104,33928,1,0
128,136,34188,2,0,C|184:136,1,47.5
224,168,34449,2,0,C|176:168,1,47.5,4|0
128,200,34710,1,0
176,232,34841,1,2
176,344,35101,1,2
384,344,35493,6,0,C|336:344,1,47.5
288,312,35754,2,0,C|336:312,1,47.5
384,280,36015,2,0,C|336:280,1,47.5
288,248,36275,2,0,C|352:248,1,47.5
384,216,36536,2,2,C|384:168,1,47.5
336,136,36797,2,0,C|288:136,1,47.5
240,104,37058,2,2,C|240:56,1,47.5
288,24,37319,2,0,C|344:24,1,47.5
384,56,37580,5,10
400,112,37710,1,10
416,168,37841,1,10
432,224,37971,5,10
432,224,38232,1,10
432,224,38493,1,10
368,224,38623,6,0,B|312:240|312:312|368:328,2,142.5,4|0|0
280,328,39667,5,10
264,272,39797,1,10
248,216,39928,1,10
232,160,40058,5,10
232,160,40319,1,10
232,160,40580,1,10
208,112,40710,6,0,B|160:144,2,47.5
256,80,41101,2,0,B|312:80,2,47.5
232,32,41493,1,8
112,56,41754,5,10
96,112,41884,1,10
80,168,42015,1,10
64,224,42145,5,10
64,224,42406,1,10
64,224,42667,1,10
128,224,42797,6,0,B|184:240|184:312|128:328,2,142.5,4|0|0
128,224,43841,6,0,L|176:208,1,47.5
173,209,44101,2,0,L|221:193,1,47.5
218,194,44362,2,0,L|266:178,1,47.5,0|0
264,256,44754,1,0
264,256,44884,2,0,B|323:256,1,47.5
320,336,45275,1,0
320,336,45406,2,2,B|392:352|448:280|400:208,1,190,2|6
440,64,46188,6,0,B|392:64,1,47.5
336,64,46449,1,0
336,64,46580,1,0
336,64,46710,1,0
352,160,46971,2,0,B|320:120,1,47.5
264,128,47232,2,0,B|232:168,1,47.5
176,168,47493,2,0,B|128:168,1,47.5
88,128,47754,2,0,B|24:192|72:280|152:272,1,190
176,168,48536,5,0
130,271,48797,6,0,B|200:224|296:280,1,142.5
280,208,49319,2,0,B|328:248|400:200,1,95,0|0
400,168,49710,6,0,B|448:168,2,47.5
352,192,50101,6,10,B|312:152,1,47.5
318,158,50493,2,10,B|272:112,1,47.5
284,124,50884,2,10,B|248:88,1,47.5
152,56,51145,6,0,B|88:104|16:56,2,142.5,4|0|0
160,192,52188,6,10,B|200:232,1,47.5
194,226,52580,2,10,B|240:272,1,47.5
228,260,52971,2,10,B|264:296,1,47.5
360,328,53232,5,4
360,328,53623,1,0
360,328,54015,1,0
208,312,54275,6,0,B|144:328|120:248,1,95,4|0
32,240,54797,1,0
32,240,54928,1,0
32,240,55058,1,0
128,272,55319,2,0,B|152:224,1,47.5
208,232,55580,2,0,B|232:280,1,47.5
288,272,55841,2,0,B|344:272,1,47.5
392,272,56101,2,0,B|464:248|464:152|384:128,1,190
392,32,56884,5,0
392,128,57145,5,0
344,128,57275,2,0,B|248:128,1,95
248,184,57667,2,0,B|208:224|160:184,1,95
120,144,58058,2,0,B|88:184|152:192|120:232,1,95
120,288,58449,5,2
392,240,58841,1,2
120,192,59232,1,2
120,96,59493,5,2
256,280,59884,1,2
392,96,60275,1,2
352,208,60536,6,0,C|344:208|344:192|352:192|336:208|328:208|328:192|336:192|320:208|312:208|312:192|320:192|304:208|296:208|296:192|304:192|288:208|280:208|280:192|288:192|272:208|264:208|264:192|272:192|256:208|248:208|248:192|256:192|240:208,1,380
256,192,61645,12,4,62623
168,16,62884,5,8
80,64,63145,2,0,L|88:88|112:88,1,47.5,0|8
256,104,63536,2,0,L|248:128|224:128,1,47.5,0|8
80,144,63928,2,0,L|88:168|112:168,1,47.5,0|8
216,184,64319,1,0
200,128,64449,1,0
184,72,64580,1,0
168,16,64710,5,4
344,88,64971,5,8
432,136,65232,2,0,L|424:160|400:160,1,47.5,0|8
256,176,65623,2,0,L|264:200|288:200,1,47.5,0|8
432,216,66015,2,0,L|424:240|400:240,1,47.5,0|8
296,256,66406,1,0
312,200,66536,1,0
328,144,66667,1,0
344,88,66797,5,4
168,160,67058,5,8
80,208,67319,2,0,L|88:232|112:232,1,47.5,0|8
256,248,67710,2,0,L|248:272|224:272,1,47.5,0|8
80,288,68101,2,0,L|88:312|112:312,1,47.5,0|8
216,328,68493,1,0
200,272,68623,1,0
184,216,68754,1,0
168,160,68884,5,2
256,288,69275,1,2
344,160,69667,1,2
368,240,69928,5,2
296,96,70319,1,2
136,40,70710,1,2
48,96,70971,6,0,B|72:112|96:96,1,47.5,4|8
352,40,71493,2,0,B|288:40,1,47.5,0|8
160,72,71884,2,0,B|224:72,1,47.5,0|8
352,104,72275,2,0,B|288:104,1,47.5,0|8
160,136,72667,2,0,B|160:184,1,47.5
464,192,73058,6,0,B|440:208|416:192,1,47.5,4|8
160,136,73580,2,0,B|224:136,1,47.5,0|8
352,168,73971,2,0,B|288:168,1,47.5,0|8
160,200,74362,2,0,B|224:200,1,47.5,0|8
352,232,74754,2,0,B|352:280,1,47.5
48,296,75145,6,0,B|72:280|96:296,1,47.5,4|8
352,352,75667,2,0,B|288:352,1,47.5,0|8
160,320,76058,2,0,B|224:320,1,47.5,0|8
352,288,76449,2,0,B|304:272,1,47.5,0|8
256,256,76710,2,0,B|256:304,2,47.5
224,88,77232,5,0
224,88,77623,1,0
224,88,78015,1,0
408,104,78275,5,2
320,248,78667,1,2
152,296,79058,1,2
128,128,79319,5,2
192,160,79580,1,0
256,192,79841,1,2
256,192,79971,1,0
320,224,80232,1,2
384,256,80493,1,2
384,256,80623,2,0,B|384:288,3,23.75
384,256,80884,6,2,B|360:97|153:97|128:256,1,380,6|2
48,128,89754,5,8
96,96,89884,1,8
48,128,90015,1,8
96,96,90145,1,8
208,96,90406,1,8
208,96,90667,1,8
152,192,90928,6,2,B|152:288,1,95,2|2
152,287,91319,1,2
152,287,91449,1,2
152,287,91580,1,2
152,287,91710,1,2
152,344,91841,5,8
200,312,91971,1,8
152,344,92101,1,8
200,312,92232,1,8
312,312,92493,1,8
360,344,92623,1,8
312,312,92754,1,8
256,232,93015,6,2,B|256:184,1,47.5,2|0
256,184,93275,2,2,B|256:136,1,47.5,2|0
256,136,93536,1,2
256,136,93667,1,2
256,136,93797,1,2
256,80,93928,5,8
304,48,94058,1,8
256,80,94188,1,8
304,48,94319,1,8
416,48,94580,1,8
416,48,94841,1,8
360,144,95101,6,2,B|360:240,1,95
360,239,95493,1,2
360,239,95623,1,2
360,239,95754,1,2
360,239,95884,1,2
360,296,96015,6,0,L|336:255|312:296,1,95
280,248,96275,2,0,L|256:289|232:248,1,95
200,296,96536,2,0,L|176:255|152:296,1,95
120,248,96797,2,0,L|96:289|72:248,1,95
72,248,97188,5,0
72,248,97449,1,0
72,248,97580,2,2,C|56:240|88:232|56:224|88:216|56:208|88:200|56:192|88:184|56:176|88:168|56:160|88:152|72:144,1,380,2|6
72,64,98362,6,0,B|120:64,1,47.5
176,64,98623,1,0
176,64,98754,1,0
176,64,98884,1,0
160,160,99145,2,0,B|192:120,1,47.5
248,128,99406,2,0,B|280:168,1,47.5
336,168,99667,2,0,B|384:168,1,47.5
424,128,99928,2,0,B|488:192|440:280|360:272,1,190
336,168,100710,5,0
382,271,100971,6,0,B|312:224|216:280,1,142.5
232,208,101493,2,0,B|184:248|112:200,1,95,0|0
112,168,101884,6,0,B|64:168,2,47.5
160,192,102275,5,10
160,192,102406,1,10
212,139,102667,1,10
212,139,102797,1,10
264,88,103058,1,10
264,88,103188,1,10
360,56,103319,6,0,B|312:24,2,47.5,4|0|0
408,88,103710,2,0,B|408:136,2,47.5
456,56,104101,1,8
352,192,104362,6,10,B|319:226,1,47.5
318,226,104754,2,10,B|285:260,1,47.5
284,260,105145,2,10,B|251:294,1,47.5
152,328,105406,5,4
152,328,105797,1,0
152,328,106188,1,0
304,312,106449,6,0,B|368:328|392:248,1,95,4|0
480,240,106971,1,0
480,240,107101,1,0
480,240,107232,1,0
384,272,107493,2,0,B|360:224,1,47.5
304,232,107754,2,0,B|280:280,1,47.5
224,272,108015,2,0,B|168:272,1,47.5
120,272,108275,2,0,B|48:248|48:152|128:128,1,190
120,32,109058,5,0
120,128,109319,5,0
168,128,109449,2,0,B|264:128,1,95
264,184,109841,2,0,B|304:224|352:184,1,95
392,144,110232,2,0,B|424:184|360:192|392:232,1,95
384,288,110623,5,2
96,192,111015,1,2
384,96,111406,1,2
128,96,111667,5,2
416,192,112058,1,2
128,288,112449,1,2
256,280,112710,6,2,L|248:272|264:264|248:256|264:248|248:240|264:232|248:224|264:216|248:208|264:200|248:192|264:184|248:176|264:168|248:160|264:152|248:144|264:136|248:128|264:120|248:112|264:104,1,380,2|0
256,192,113819,12,0,114537
257,107,114797,6,2,L|248:112|264:120|248:128|264:136|248:144|264:152|248:160|264:168|248:176|264:184|248:192|264:200|248:208|264:216|248:224|264:232|248:240|264:248|248:256|264:264|248:272|256:280,1,380,2|2
448,192,116101,5,0
448,192,116362,1,0
448,192,116623,2,0,L|440:200|432:192|424:200|416:192|408:200|400:192|392:200|384:192|376:200,1,95,0|4
304,72,117145,5,8
208,144,117406,2,0,C|200:168|208:192,1,47.5,0|8
304,264,117797,2,0,C|312:288|304:312,1,47.5,0|8
64,192,118188,5,0
64,192,118449,1,0
64,192,118710,2,0,L|72:184|80:192|88:184|96:192|104:184|112:192|120:184|128:192|136:184,1,95,0|4
208,312,119232,5,8
304,240,119493,2,0,C|312:216|304:192,1,47.5,0|8
208,120,119884,2,0,C|200:96|208:72,1,47.5,0|8
448,192,120275,5,0
448,192,120536,1,0
448,192,120797,2,0,L|440:200|432:192|424:200|416:192|408:200|400:192|392:200|384:192|376:200,1,95,0|4
288,128,121319,5,8
328,296,121580,2,0,C|304:304|280:296,1,47.5,0|8
224,88,121971,2,0,C|200:80|176:88,1,47.5,0|8
176,256,122362,2,0,C|200:264|224:256,1,47.5,0|8
288,128,122754,2,0,C|312:120|336:128,1,47.5,0|0
392,224,123145,5,4
392,224,123536,1,0
392,224,123928,1,0
208,256,124188,5,4
256,104,124580,1,4
400,32,124971,1,4
400,144,125232,6,2,L|392:136|392:160|400:152|400:176|392:168|392:192|400:184|400:208|392:200|392:224|400:216|400:240|392:232|392:256|400:248|400:272|392:264|392:288|400:280|400:304|392:296|392:320|400:312,1,380,2|4
320,264,126536,5,0
320,264,126667,1,0
320,264,126797,1,0
320,264,127058,2,0,B|208:264,1,95
120,232,127580,2,0,B|80:264,2,47.5,8|0|0
128,176,127971,2,0,B|176:192,2,47.5,8|0|0
96,128,128362,2,0,B|88:80,2,47.5,8|0|0
64,176,128754,2,0,B|32:216,2,47.5,8|0|0
128,176,129145,6,0,B|224:176,1,95,0|4
312,120,129667,2,0,B|344:80,2,47.5,8|0|0
320,176,130058,2,0,B|312:224,2,47.5,8|0|0
376,168,130449,2,0,B|424:160,2,47.5,8|0|0
368,224,130841,2,0,B|320:248,2,47.5,8|0|0
424,216,131232,6,0,L|440:232|424:256|448:312,1,95
336,264,131754,6,0,L|336:312,2,47.5
288,232,132145,1,0
288,232,132275,2,2,L|288:136,1,95
184,104,132797,6,0,L|192:56,2,47.5
136,136,133188,1,0
136,136,133319,2,2,L|120:232,1,95,2|4
256,192,133645,12,2,135145
224,104,135667,6,2,B|144:128|168:240,1,142.5,2|2
344,216,136188,2,2,B|360:128|280:104,1,142.5,2|2
192,264,136710,2,2,B|256:320|328:264,1,142.5,2|2
256,192,137232,5,0
256,192,137362,1,0
256,192,137493,1,0
256,192,137623,1,0
256,128,137754,6,2,B|320:136|336:208|288:248,1,142.5,2|2
256,256,138275,2,2,B|192:248|176:176|224:136,1,142.5,2|2
136,104,138797,5,6
408,192,139188,1,2
136,280,139580,1,2
288,280,139841,6,2,B|368:256|344:144,1,142.5,2|2
167,167,140362,2,2,B|152:256|232:280,1,142.5,2|2
320,120,140884,2,2,B|256:64|184:120,1,142.5,2|2
256,192,141406,5,0
256,192,141536,1,0
256,192,141667,1,0
256,192,141797,1,0
256,128,141928,6,2,B|320:136|336:208|288:248,1,142.5,2|2
256,256,142449,2,2,B|192:248|176:176|224:136,1,142.5,2|2
256,64,142971,5,0
256,64,143101,1,0
256,320,143493,5,0
256,320,143623,1,0
48,192,144015,6,0,L|88:256|176:256,1,142.5,0|0
216,256,144536,1,0
216,256,144667,1,0
216,256,144797,1,0
216,256,144928,1,0
256,320,145058,6,0,L|296:256|384:256,1,142.5
424,256,145580,1,0
424,256,145710,1,0
424,256,145841,1,0
424,256,145971,1,0
488,256,146101,6,0,L|448:192|360:192,1,142.5
336,192,146623,1,0
288,192,146754,1,0
240,192,146884,1,0
192,192,147015,1,0
128,192,147145,5,2
384,192,147536,1,2
128,192,147928,1,2
48,64,148188,6,0,L|88:128|176:128,1,142.5,0|0
216,128,148710,1,0
216,128,148841,1,0
216,128,148971,1,0
216,128,149101,1,0
256,192,149232,6,0,L|296:128|384:128,1,142.5
424,128,149754,1,0
424,128,149884,1,0
424,128,150015,1,0
424,128,150145,1,0
391,192,150275,6,0,L|248:192,1,142.5
200,192,150797,1,0
256,192,150928,1,0
312,192,151058,1,0
368,192,151188,1,0
424,192,151319,5,6
256,304,151710,1,2
88,192,152101,1,6
88,304,152362,5,6
256,80,152754,1,2
424,304,153145,1,2
