osu file format v14

[General]
AudioFilename: Cross Time.mp3
AudioLeadIn: 3000
PreviewTime: 45219
Countdown: 1
SampleSet: Soft
StackLeniency: 0.7
Mode: 0
LetterboxInBreaks: 1
WidescreenStoryboard: 0

[Editor]
Bookmarks: 3219,6219,18219,30219,45219,57594,60594,69219,81219,97719,109906,121719,133719
DistanceSpacing: 0.5
BeatDivisor: 4
GridSize: 8
TimelineZoom: 1

[Metadata]
Title:Cross Time !!
TitleUnicode:Cross Time !!
Artist:Brandy
ArtistUnicode:Brandy
Creator:buraimaster1234
Version:Ultra
Source:O2Jam
Tags:o2jam mgame econ djpop FFFanatic DaRRi ignorethis bmin11 Takuma Lesjuh Metroid Luxary DJPop cyanberryio Ain053 video game electronic instrumental
BeatmapID:36055
BeatmapSetID:5918

[Difficulty]
HPDrainRate:8
CircleSize:4
OverallDifficulty:8
ApproachRate:8
SliderMultiplier:1.6
SliderTickRate:2

[Events]
//Background and Video events
0,0,"266_Cross_Time_!!.jpg",0,0
//Break Periods
2,69419,80469
2,94731,96969
//Storyboard Layer 0 (Background)
//Storyboard Layer 1 (Fail)
//Storyboard Layer 2 (Pass)
//Storyboard Layer 3 (Foreground)
//Storyboard Layer 4 (Overlay)
//Storyboard Sound Samples

[TimingPoints]
219,375,4,2,0,100,1,0
45219,-100,4,1,0,100,0,0
81219,-100,4,2,0,100,0,0
83281,-200,4,2,0,100,0,0
83656,-100,4,2,0,100,0,0
109719,-100,4,1,0,100,0,0
121719,-100,4,1,0,100,0,1
133719,-100,4,1,0,100,0,0
147125,-100,4,1,0,0,0,0

[Colours]
Combo1 : 193,0,242
Combo2 : 244,40,11
Combo3 : 11,69,244
Combo4 : 11,244,11

[HitObjects]
56,72,6219,1,4,0:0:0:0:
56,72,6406,1,2,0:0:0:0:
120,104,6594,1,0,0:0:0:0:
120,104,6687,1,0,0:0:0:0:
120,104,6781,1,0,0:0:0:0:
120,104,6875,1,0,0:0:0:0:
120,104,6969,1,2,0:0:0:0:
184,72,7156,2,0,B|280:72,2,80,0|2|0,0:0|0:0|0:0,0:0:0:0:
184,144,7719,6,0,B|184:240,2,80,0|2|0,0:0|0:0|0:0,0:0:0:0:
248,144,8281,2,2,B|248:320,2,160
312,144,9219,5,0,0:0:0:0:
360,184,9406,1,0,0:0:0:0:
408,144,9594,1,2,0:0:0:0:
456,184,9781,1,0,0:0:0:0:
408,224,9969,2,0,B|384:272|384:272|328:272,1,80,0|2,0:0|0:0,0:0:0:0:
296,272,10344,2,0,B|248:272|248:272|224:224,1,80,0|2,0:0|0:0,0:0:0:0:
176,216,10719,2,0,B|72:216,2,80,0|2|0,0:0|0:0|0:0,0:0:0:0:
224,168,11281,1,2,0:0:0:0:
224,168,11656,1,2,0:0:0:0:
224,168,12031,1,2,0:0:0:0:
224,104,12219,6,0,B|320:104,1,80,4|2,0:0|0:0,0:0:0:0:
344,224,12781,1,2,0:0:0:0:
400,256,12969,2,0,B|344:280|344:280|344:328,1,80,0|2,0:0|0:0,0:0:0:0:
216,288,13531,1,2,0:0:0:0:
152,312,13719,2,0,B|80:312|80:312|48:256,2,120,0|2|0,0:0|0:0|0:0,0:0:0:0:
152,248,14469,1,2,0:0:0:0:
216,232,14656,1,0,0:0:0:0:
216,232,14750,1,2,0:0:0:0:
216,168,14937,1,0,0:0:0:0:
216,168,15031,1,2,0:0:0:0:
216,104,15219,6,0,B|272:72|272:72|336:72,2,120,0|2|0,0:0|0:0|0:0,0:0:0:0:
216,168,15969,2,0,B|160:200|160:200|96:200,2,120,0|2|0,0:0|0:0|0:0,0:0:0:0:
280,168,16719,2,0,B|312:128,1,40,0|2,0:0|0:0,0:0:0:0:
368,136,17000,2,0,B|408:184,1,40,0|2,0:0|0:0,0:0:0:0:
456,168,17281,1,2,0:0:0:0:
456,232,17469,1,2,0:0:0:0:
424,288,17656,2,0,B|384:312,1,40,0|2,0:0|0:0,0:0:0:0:
328,304,17937,2,0,B|288:280,1,40,0|2,0:0|0:0,0:0:0:0:
232,280,18219,5,4,0:0:0:0:
232,280,18312,1,2,0:0:0:0:
168,280,18500,1,0,0:0:0:0:
168,280,18594,1,2,0:0:0:0:
104,280,18781,1,2,0:0:0:0:
56,232,18969,1,2,0:0:0:0:
104,184,19156,1,0,0:0:0:0:
104,184,19250,1,2,0:0:0:0:
168,184,19437,1,0,0:0:0:0:
168,184,19531,1,2,0:0:0:0:
232,184,19719,6,0,B|320:184,1,80,0|2,0:0|0:0,0:0:0:0:
376,184,20094,2,0,B|376:232|376:232|400:256,1,80,0|2,0:0|0:0,0:0:0:0:
464,256,20469,1,2,0:0:0:0:
464,256,20844,1,2,0:0:0:0:
352,320,21219,6,0,B|304:320,2,40,0|0|2,0:0|0:0|0:0,0:0:0:0:
352,256,21594,2,0,B|400:256,2,40,0|0|2,0:0|0:0|0:0,0:0:0:0:
352,192,21969,2,0,B|304:192,2,40,0|0|2,0:0|0:0|0:0,0:0:0:0:
352,128,22344,2,0,B|400:128,2,40,0|0|2,0:0|0:0|0:0,0:0:0:0:
352,64,22719,6,0,B|304:64,1,40,0|2,0:0|0:0,0:0:0:0:
248,64,23000,2,0,B|192:64,1,40,0|2,0:0|0:0,0:0:0:0:
144,64,23281,1,2,0:0:0:0:
96,104,23469,1,2,0:0:0:0:
96,168,23656,2,0,B|96:224,1,40,0|2,0:0|0:0,0:0:0:0:
96,272,23937,2,0,B|136:304,1,40,0|2,0:0|0:0,0:0:0:0:
192,296,24219,5,4,0:0:0:0:
192,296,24312,1,2,0:0:0:0:
248,272,24500,1,2,0:0:0:0:
304,296,24687,1,0,0:0:0:0:
304,296,24781,1,2,0:0:0:0:
368,272,24969,1,2,0:0:0:0:
424,296,25156,1,0,0:0:0:0:
424,296,25250,1,2,0:0:0:0:
480,272,25437,1,0,0:0:0:0:
480,272,25531,1,2,0:0:0:0:
480,208,25719,6,0,B|480:152|480:152|432:120,1,80,0|2,0:0|0:0,0:0:0:0:
392,136,26094,2,0,B|280:136,1,80,0|2,0:0|0:0,0:0:0:0:
248,136,26469,1,2,0:0:0:0:
248,136,26844,1,2,0:0:0:0:
144,56,27219,5,0,0:0:0:0:
112,56,27312,1,0,0:0:0:0:
80,56,27406,1,2,0:0:0:0:
80,120,27594,1,0,0:0:0:0:
112,120,27687,1,0,0:0:0:0:
144,120,27781,1,2,0:0:0:0:
144,184,27969,1,0,0:0:0:0:
112,184,28062,1,0,0:0:0:0:
80,184,28156,1,2,0:0:0:0:
80,248,28344,1,0,0:0:0:0:
112,248,28437,1,0,0:0:0:0:
144,248,28531,1,2,0:0:0:0:
152,312,28719,6,0,B|248:312,1,80,0|2,0:0|0:0,0:0:0:0:
232,248,29094,2,0,B|280:248|280:248|320:280,1,80,0|2,0:0|0:0,0:0:0:0:
336,320,29469,2,2,B|472:320,2,120
336,256,30219,6,0,B|432:256|432:256|432:168,1,160,4|2,0:0|0:0,0:0:0:0:
432,128,30781,1,0,0:0:0:0:
432,64,30969,2,0,B|336:64,2,80,8|2|0,0:0|0:0|0:0,0:0:0:0:
432,128,31531,2,2,B|248:128,2,160
432,192,32469,1,8,0:0:0:0:
392,240,32656,1,2,0:0:0:0:
328,240,32844,1,0,0:0:0:0:
288,192,33031,1,2,0:0:0:0:
224,192,33219,6,2,B|56:192,1,160
64,256,33781,1,0,0:0:0:0:
64,320,33969,2,2,B|160:320,1,80,8|0,0:0|0:0,0:0:0:0:
256,264,34531,1,2,0:0:0:0:
368,320,34906,1,2,0:0:0:0:
480,264,35281,1,2,0:0:0:0:
368,208,35656,1,0,0:0:0:0:
312,176,35844,1,2,0:0:0:0:
312,112,36031,1,2,0:0:0:0:
312,48,36219,6,2,B|136:48,2,160,4|2|10,0:0|0:0|0:0,0:0:0:0:
312,112,37156,2,0,B|400:136|400:136|400:216,3,160,2|2|2|2,0:0|0:0|0:0|0:0,0:0:0:0:
400,272,38469,1,8,0:0:0:0:
344,240,38656,1,2,0:0:0:0:
280,240,38844,1,0,0:0:0:0:
232,280,39031,1,2,0:0:0:0:
184,240,39219,6,0,B|88:240,1,80,0|2,0:0|0:0,0:0:0:0:
64,184,39594,2,0,B|40:136|72:88,1,80,0|2,0:0|0:0,0:0:0:0:
96,56,39969,2,0,B|184:56,1,80,8|2,0:0|0:0,0:0:0:0:
224,104,40344,2,0,B|256:144|224:192,1,80,0|2,0:0|0:0,0:0:0:0:
288,208,40719,2,0,B|368:232,1,80,2|2,0:0|0:0,0:0:0:0:
364,230,41094,2,2,B|460:263,1,80
439,256,41469,1,10,0:0:0:0:
439,256,41750,1,2,0:0:0:0:
439,256,42031,1,2,0:0:0:0:
440,320,42219,6,2,B|312:320,2,120
320,320,42969,6,2,B|192:320,2,120
200,320,43719,6,2,B|72:320,2,120
80,320,44469,6,2,B|40:256|88:192,2,120
78,206,45219,5,4,0:0:0:0:
144,208,45406,1,0,0:0:0:0:
208,208,45594,1,0,0:0:0:0:
272,208,45781,1,0,0:0:0:0:
336,208,45969,2,0,C|472:208,2,120
336,272,46719,6,0,C|248:272,1,80
192,272,47094,2,0,C|96:272,1,80
56,240,47469,2,0,L|56:168|112:136,2,120
112,208,48219,6,0,L|192:208,1,80
256,208,48594,1,0,0:0:0:0:
256,208,48687,1,0,0:0:0:0:
256,208,48781,1,0,0:0:0:0:
320,208,48969,2,0,L|408:208,2,80
256,208,49531,1,0,0:0:0:0:
256,208,49625,1,0,0:0:0:0:
256,208,49719,6,0,L|232:168|232:168|280:168|280:168|256:128,2,120
200,240,50469,2,0,L|232:280|320:280,2,120
136,240,51219,5,4,0:0:0:0:
88,280,51406,1,0,0:0:0:0:
40,240,51594,1,0,0:0:0:0:
40,176,51781,1,0,0:0:0:0:
88,136,51969,2,0,L|224:136,2,120
40,88,52719,1,0,0:0:0:0:
88,40,52906,1,0,0:0:0:0:
152,40,53094,1,0,0:0:0:0:
216,40,53281,1,0,0:0:0:0:
256,88,53469,1,0,0:0:0:0:
352,88,53750,1,0,0:0:0:0:
256,88,54031,1,0,0:0:0:0:
256,152,54219,6,0,L|256:248,1,80
192,232,54594,2,0,L|192:328,1,80
96,280,55062,1,0,0:0:0:0:
96,280,55156,1,0,0:0:0:0:
96,216,55344,1,0,0:0:0:0:
96,216,55531,1,0,0:0:0:0:
96,152,55719,1,0,0:0:0:0:
224,152,56094,1,0,0:0:0:0:
280,184,56281,1,0,0:0:0:0:
336,152,56469,1,0,0:0:0:0:
336,152,56750,1,0,0:0:0:0:
336,152,57031,1,0,0:0:0:0:
400,152,57219,6,0,B|456:160|456:216,1,80,4|0,0:0|0:0,0:0:0:0:
456,264,57594,1,0,0:0:0:0:
456,328,57781,2,0,B|272:328,1,160
232,328,58344,1,0,0:0:0:0:
232,264,58531,2,0,C|176:264|160:328|80:328,3,160
64,328,59844,1,0,0:0:0:0:
64,264,60031,1,0,0:0:0:0:
64,200,60219,6,0,B|112:112|200:112,1,160
240,152,60781,1,0,0:0:0:0:
296,184,60969,1,0,0:0:0:0:
352,152,61156,1,0,0:0:0:0:
352,216,61344,1,0,0:0:0:0:
408,184,61531,2,0,B|464:272|400:352,1,160
352,312,62094,1,0,0:0:0:0:
288,320,62281,2,0,B|104:320,1,160
64,296,62844,1,0,0:0:0:0:
64,264,62937,1,0,0:0:0:0:
64,232,63031,1,0,0:0:0:0:
112,192,63219,6,0,B|152:104|256:120,1,160,4|0,0:0|0:0,0:0:0:0:
264,176,63781,1,0,0:0:0:0:
320,144,63969,1,0,0:0:0:0:
344,200,64156,1,0,0:0:0:0:
408,200,64344,1,0,0:0:0:0:
472,184,64531,2,0,B|472:272|416:344,3,160
360,312,65844,1,0,0:0:0:0:
296,312,66031,1,0,0:0:0:0:
232,312,66219,6,0,B|136:312,1,80
88,312,66594,2,0,B|112:216,1,80
112,168,66969,2,0,B|96:80,1,80
160,88,67344,2,0,B|256:88,1,80
304,88,67719,1,0,0:0:0:0:
304,88,67812,1,0,0:0:0:0:
368,88,68000,1,0,0:0:0:0:
368,88,68094,1,0,0:0:0:0:
432,88,68281,1,0,0:0:0:0:
472,136,68469,5,0,0:0:0:0:
432,184,68656,1,0,0:0:0:0:
472,232,68844,1,0,0:0:0:0:
432,280,69031,1,0,0:0:0:0:
368,280,69219,1,6,0:0:0:0:
176,88,81219,6,0,B|264:64,1,80,0|2,0:0|0:0,0:0:0:0:
256,192,81594,1,2,0:0:0:0:
256,192,81781,1,0,0:0:0:0:
336,296,81969,2,0,B|248:320,1,80,0|2,0:0|0:0,0:0:0:0:
256,192,82344,1,2,0:0:0:0:
256,192,82531,1,0,0:0:0:0:
152,272,82719,2,0,B|128:184,1,80,0|2,0:0|0:0,0:0:0:0:
256,192,83094,1,2,0:0:0:0:
360,112,83281,2,2,B|384:200,1,80
256,192,83844,1,2,0:0:0:0:
256,192,84031,1,2,0:0:0:0:
256,192,84125,1,2,0:0:0:0:
256,192,84219,6,0,B|224:232|240:288,1,80,2|0,0:0|0:0,0:0:0:0:
296,288,84594,1,2,0:0:0:0:
360,296,84781,1,0,0:0:0:0:
392,240,84969,2,0,B|408:184|472:192,1,80
472,128,85344,1,2,0:0:0:0:
424,80,85531,1,0,0:0:0:0:
376,120,85719,2,0,B|272:120,2,80,0|2|0,0:0|0:0|0:0,0:0:0:0:
424,160,86281,2,2,B|392:248|408:320,2,160
360,160,87219,6,0,B|304:224,1,80,4|0,0:0|0:0,0:0:0:0:
320,280,87594,1,2,0:0:0:0:
272,320,87781,1,0,0:0:0:0:
216,280,87969,2,0,B|176:288|144:248,1,80
120,192,88344,1,2,0:0:0:0:
144,136,88531,1,0,0:0:0:0:
208,136,88719,2,0,B|304:136,2,80,0|2|0,0:0|0:0|0:0,0:0:0:0:
144,136,89281,1,0,0:0:0:0:
200,160,89469,2,2,B|272:136|256:56,2,120
168,216,90219,5,0,0:0:0:0:
168,280,90406,1,2,0:0:0:0:
216,320,90594,1,0,0:0:0:0:
280,320,90781,1,2,0:0:0:0:
280,256,90969,1,0,0:0:0:0:
320,208,91156,1,2,0:0:0:0:
384,224,91344,1,0,0:0:0:0:
416,280,91531,1,2,0:0:0:0:
384,224,91719,5,2,0:0:0:0:
392,160,91906,1,0,0:0:0:0:
392,160,92000,1,2,0:0:0:0:
376,96,92187,1,0,0:0:0:0:
376,96,92281,1,2,0:0:0:0:
312,80,92469,1,2,0:0:0:0:
264,120,92656,1,0,0:0:0:0:
264,120,92750,1,2,0:0:0:0:
264,184,92937,1,0,0:0:0:0:
264,184,93031,1,2,0:0:0:0:
240,240,93219,5,2,0:0:0:0:
176,240,93406,1,0,0:0:0:0:
176,240,93500,1,2,0:0:0:0:
120,280,93687,1,0,0:0:0:0:
120,280,93781,1,2,0:0:0:0:
168,320,93969,2,0,B|256:320,1,80,0|2,0:0|0:0,0:0:0:0:
248,320,94250,1,2,0:0:0:0:
312,320,94437,1,0,0:0:0:0:
312,320,94531,1,2,0:0:0:0:
48,56,97719,5,4,0:0:0:0:
48,56,97906,1,0,0:0:0:0:
48,56,98094,1,2,0:0:0:0:
152,56,98281,5,0,0:0:0:0:
152,56,98469,1,0,0:0:0:0:
152,56,98656,1,0,0:0:0:0:
256,56,98844,5,0,0:0:0:0:
256,56,99031,1,0,0:0:0:0:
256,56,99219,1,2,0:0:0:0:
360,56,99406,5,0,0:0:0:0:
360,56,99594,1,0,0:0:0:0:
360,56,99781,1,2,0:0:0:0:
464,56,99969,5,0,0:0:0:0:
464,56,100156,1,0,0:0:0:0:
464,56,100344,1,0,0:0:0:0:
464,56,100531,1,2,0:0:0:0:
464,192,100719,6,2,B|336:192,2,120
344,192,101469,6,2,B|200:192,2,120
224,192,102219,5,0,0:0:0:0:
224,192,102406,1,0,0:0:0:0:
224,192,102594,1,0,0:0:0:0:
224,192,102781,1,2,0:0:0:0:
128,192,102969,1,0,0:0:0:0:
128,192,103156,1,2,0:0:0:0:
32,192,103344,1,0,0:0:0:0:
32,192,103531,1,2,0:0:0:0:
48,328,103719,5,4,0:0:0:0:
48,328,103906,1,0,0:0:0:0:
48,328,104094,1,2,0:0:0:0:
152,328,104281,5,0,0:0:0:0:
152,328,104469,1,0,0:0:0:0:
152,328,104656,1,2,0:0:0:0:
256,328,104844,5,0,0:0:0:0:
256,328,105031,1,0,0:0:0:0:
256,328,105219,1,2,0:0:0:0:
360,328,105406,5,0,0:0:0:0:
360,328,105594,1,0,0:0:0:0:
360,328,105781,1,2,0:0:0:0:
464,328,105969,5,0,0:0:0:0:
464,328,106156,1,0,0:0:0:0:
464,328,106344,1,0,0:0:0:0:
464,328,106531,1,2,0:0:0:0:
464,192,106719,6,2,B|336:192,2,120
344,192,107469,6,2,B|200:192,2,120
224,192,108219,5,0,0:0:0:0:
224,192,108406,1,2,0:0:0:0:
224,192,108594,1,0,0:0:0:0:
224,192,108781,1,2,0:0:0:0:
128,192,108969,1,0,0:0:0:0:
128,192,109156,1,2,0:0:0:0:
32,192,109344,1,0,0:0:0:0:
32,192,109531,1,2,0:0:0:0:
80,280,109719,6,0,B|248:280,1,160,4|0,0:0|0:0,0:0:0:0:
304,280,110281,1,0,0:0:0:0:
368,280,110469,1,0,0:0:0:0:
424,240,110656,1,0,0:0:0:0:
472,280,110844,1,0,0:0:0:0:
424,328,111031,2,0,B|424:152,1,160
360,184,111594,1,0,0:0:0:0:
360,120,111781,2,0,B|176:120,1,160
136,120,112344,2,0,B|72:128|72:192,1,80
72,224,112719,6,0,B|240:224,1,160,4|0,0:0|0:0,0:0:0:0:
256,280,113281,1,0,0:0:0:0:
288,224,113469,2,0,B|480:224,1,160
480,168,114031,1,0,0:0:0:0:
448,112,114219,6,0,B|344:112,1,80,4|0,0:0|0:0,0:0:0:0:
312,80,114594,2,0,B|264:104|224:80,1,80
176,112,114969,2,0,B|80:112,1,80
40,144,115344,2,0,B|16:192|40:240,1,80
72,272,115719,6,0,B|168:272,1,80,4|2,0:0|0:0,0:0:0:0:
264,208,116281,1,0,0:0:0:0:
328,224,116469,1,2,0:0:0:0:
392,240,116656,1,0,0:0:0:0:
456,256,116844,1,2,0:0:0:0:
456,128,117219,6,0,B|360:128,1,80,0|2,0:0|0:0,0:0:0:0:
264,72,117781,1,0,0:0:0:0:
200,96,117969,1,2,0:0:0:0:
144,120,118156,1,0,0:0:0:0:
88,144,118344,1,2,0:0:0:0:
88,272,118719,6,0,B|176:272,1,80,4|2,0:0|0:0,0:0:0:0:
216,304,119094,2,0,B|264:328|312:296,1,80
352,280,119469,2,0,B|440:280,1,80,0|2,0:0|0:0,0:0:0:0:
480,232,119844,2,0,B|456:184|480:128,1,80
456,88,120219,5,0,0:0:0:0:
432,88,120312,1,0,0:0:0:0:
408,88,120406,1,0,0:0:0:0:
384,88,120500,1,0,0:0:0:0:
360,88,120594,1,2,0:0:0:0:
336,88,120687,1,0,0:0:0:0:
312,88,120781,1,0,0:0:0:0:
288,88,120875,1,0,0:0:0:0:
288,88,120969,5,0,0:0:0:0:
264,88,121062,1,0,0:0:0:0:
240,88,121156,1,0,0:0:0:0:
216,88,121250,1,0,0:0:0:0:
192,88,121344,1,2,0:0:0:0:
168,88,121437,1,0,0:0:0:0:
144,88,121531,1,0,0:0:0:0:
120,88,121625,1,0,0:0:0:0:
96,88,121719,6,0,B|72:144|72:192,1,80,4|0,0:0|0:0,0:0:0:0:
104,224,122094,2,0,B|200:224,1,80,8|0,0:0|0:0,0:0:0:0:
312,224,122656,1,0,0:0:0:0:
312,224,122750,1,0,0:0:0:0:
312,224,122844,1,8,0:0:0:0:
368,248,123031,1,0,0:0:0:0:
424,224,123219,6,0,B|456:176|424:128,1,80
384,104,123594,2,0,B|296:104,1,80,8|0,0:0|0:0,0:0:0:0:
176,104,124156,1,0,0:0:0:0:
176,104,124250,1,0,0:0:0:0:
176,104,124344,1,8,0:0:0:0:
128,144,124531,1,0,0:0:0:0:
128,208,124719,6,0,B|128:304,2,80,0|0|8,0:0|0:0|0:0,0:0:0:0:
128,208,125187,1,0,0:0:0:0:
128,208,125281,1,0,0:0:0:0:
192,208,125469,2,0,B|280:208,1,80
296,144,125844,2,0,B|400:144,1,80,8|0,0:0|0:0,0:0:0:0:
408,200,126219,2,0,L|408:264|472:296,2,120
344,200,126969,2,0,L|248:200,1,80
280,264,127344,2,0,L|192:264,1,80,8|0,0:0|0:0,0:0:0:0:
216,328,127719,6,0,L|112:328,1,80,4|0,0:0|0:0,0:0:0:0:
136,328,128094,1,8,0:0:0:0:
136,328,128281,1,0,0:0:0:0:
64,216,128656,1,0,0:0:0:0:
64,184,128750,1,0,0:0:0:0:
64,152,128844,1,8,0:0:0:0:
64,120,128937,1,0,0:0:0:0:
64,88,129031,1,0,0:0:0:0:
128,88,129219,6,0,L|216:88,1,80
248,136,129594,2,0,L|344:136,1,80,8|0,0:0|0:0,0:0:0:0:
424,224,130156,1,0,0:0:0:0:
424,256,130250,1,0,0:0:0:0:
424,288,130344,1,8,0:0:0:0:
424,320,130437,1,0,0:0:0:0:
424,352,130531,1,0,0:0:0:0:
360,336,130719,5,0,0:0:0:0:
304,312,130906,1,0,0:0:0:0:
304,280,131000,1,0,0:0:0:0:
304,248,131094,1,8,0:0:0:0:
240,224,131281,1,0,0:0:0:0:
240,256,131375,1,0,0:0:0:0:
240,288,131469,1,0,0:0:0:0:
176,272,131656,5,0,0:0:0:0:
176,240,131750,1,0,0:0:0:0:
176,208,131844,1,8,0:0:0:0:
112,184,132031,1,0,0:0:0:0:
112,216,132125,1,0,0:0:0:0:
112,248,132219,1,0,0:0:0:0:
48,224,132406,5,0,0:0:0:0:
48,192,132500,1,0,0:0:0:0:
48,160,132594,1,8,0:0:0:0:
112,144,132781,1,0,0:0:0:0:
112,112,132875,1,0,0:0:0:0:
112,80,132969,1,0,0:0:0:0:
168,56,133156,1,0,0:0:0:0:
232,72,133344,1,8,0:0:0:0:
296,88,133531,1,0,0:0:0:0:
360,104,133719,6,0,L|496:104,2,120,4|0|0,0:0|0:0|0:0,0:0:0:0:
360,168,134469,2,0,L|408:168,4,40
360,232,135031,1,0,0:0:0:0:
360,296,135219,1,0,0:0:0:0:
360,296,135312,1,0,0:0:0:0:
360,296,135406,1,0,0:0:0:0:
360,296,135500,1,0,0:0:0:0:
360,296,135594,1,0,0:0:0:0:
296,296,135781,1,0,0:0:0:0:
232,296,135969,1,0,0:0:0:0:
168,296,136156,1,0,0:0:0:0:
168,232,136344,1,0,0:0:0:0:
168,168,136531,1,0,0:0:0:0:
168,104,136719,6,0,L|32:104,2,120,4|0|0,0:0|0:0|0:0,0:0:0:0:
232,104,137469,1,0,0:0:0:0:
264,104,137562,1,0,0:0:0:0:
296,104,137656,1,0,0:0:0:0:
328,104,137750,1,0,0:0:0:0:
360,104,137844,1,0,0:0:0:0:
424,104,138031,2,0,L|424:152,2,40
360,104,138406,2,0,L|360:184,1,80
360,248,138781,2,0,L|264:248,1,80
216,248,139156,2,0,L|216:344,2,80
152,248,139719,5,0,0:0:0:0:
56,248,140000,1,0,0:0:0:0:
152,248,140281,1,0,0:0:0:0:
152,184,140469,1,0,0:0:0:0:
184,184,140562,1,0,0:0:0:0:
216,184,140656,1,0,0:0:0:0:
248,184,140750,1,0,0:0:0:0:
280,184,140844,1,8,0:0:0:0:
344,184,141031,1,0,0:0:0:0:
408,184,141219,6,0,L|472:184|472:184|472:264,2,120
408,248,141969,1,0,0:0:0:0:
408,280,142062,1,0,0:0:0:0:
408,312,142156,1,0,0:0:0:0:
376,312,142250,1,0,0:0:0:0:
344,312,142344,1,8,0:0:0:0:
344,248,142531,1,0,0:0:0:0:
280,248,142719,6,0,L|280:376,2,120
216,248,143469,1,0,0:0:0:0:
184,248,143562,1,0,0:0:0:0:
152,248,143656,1,0,0:0:0:0:
120,248,143750,1,0,0:0:0:0:
88,248,143844,1,8,0:0:0:0:
88,184,144031,1,0,0:0:0:0:
88,120,144219,6,0,L|16:120|16:120|16:48,2,120,4|0|0,0:0|0:0|0:0,0:0:0:0:
152,120,144969,2,0,L|280:120,2,120,4|0|0,0:0|0:0|0:0,0:0:0:0:
152,184,145719,2,0,L|152:256|152:256|96:256,2,120,4|0|0,0:0|0:0|0:0,0:0:0:0:
216,184,146469,2,0,L|344:184,2,120,4|0|0,0:0|0:0|0:0,0:0:0:0:
152,184,147219,1,0,0:0:0:0:
