osu file format v14

[General]
AudioFilename: Cross Time.mp3
AudioLeadIn: 3000
PreviewTime: 45219
Countdown: 1
SampleSet: Soft
StackLeniency: 0.3
Mode: 0
LetterboxInBreaks: 1
WidescreenStoryboard: 0

[Editor]
DistanceSpacing: 0.8
BeatDivisor: 4
GridSize: 8
TimelineZoom: 1

[Metadata]
Title:Cross Time !!
TitleUnicode:Cross Time !!
Artist:Brandy
ArtistUnicode:Brandy
Creator:buraimaster1234
Version:Takuma
Source:O2Jam
Tags:o2jam mgame econ djpop FFFanatic DaRRi ignorethis bmin11 Takuma Lesjuh Metroid Luxary DJPop cyanberryio Ain053 video game electronic instrumental
BeatmapID:36054
BeatmapSetID:5918

[Difficulty]
HPDrainRate:6
CircleSize:5
OverallDifficulty:7
ApproachRate:7
SliderMultiplier:1.6
SliderTickRate:2

[Events]
//Background and Video events
0,0,"266_Cross_Time_!!.jpg",0,0
//Break Periods
2,69419,80319
2,94919,96819
//Storyboard Layer 0 (Background)
//Storyboard Layer 1 (Fail)
//Storyboard Layer 2 (Pass)
//Storyboard Layer 3 (Foreground)
//Storyboard Layer 4 (Overlay)
//Storyboard Sound Samples

[TimingPoints]
219,375,4,2,0,100,1,0
6219,-100,4,1,0,70,0,0
19719,-50,4,1,0,100,0,0
19906,-100,4,1,0,70,0,0
25719,-50,4,1,0,100,0,0
25906,-100,4,1,0,100,0,0

[Colours]
Combo1 : 193,0,242
Combo2 : 244,40,11
Combo3 : 11,69,244
Combo4 : 11,244,11

[HitObjects]
184,192,219,1,2,0:0:0:0:
224,128,406,1,0,0:0:0:0:
288,128,594,1,0,0:0:0:0:
328,192,781,1,0,0:0:0:0:
256,192,969,5,4,0:0:0:0:
256,192,1156,1,0,0:0:0:0:
256,192,1344,1,0,0:0:0:0:
256,192,1531,1,0,0:0:0:0:
328,192,1719,5,0,0:0:0:0:
288,256,1906,1,0,0:0:0:0:
224,256,2094,1,0,0:0:0:0:
184,192,2281,1,0,0:0:0:0:
256,192,2469,5,2,0:0:0:0:
256,192,2656,1,0,0:0:0:0:
256,192,2844,1,0,0:0:0:0:
256,192,3031,1,0,0:0:0:0:
328,192,3219,5,0,0:0:0:0:
288,256,3406,1,0,0:0:0:0:
224,128,3594,1,0,0:0:0:0:
184,192,3781,1,0,0:0:0:0:
288,128,3969,5,4,0:0:0:0:
224,256,4156,1,0,0:0:0:0:
328,192,4344,1,0,0:0:0:0:
184,192,4531,1,0,0:0:0:0:
256,192,4719,5,0,0:0:0:0:
256,192,4906,1,0,0:0:0:0:
256,192,5094,1,0,0:0:0:0:
256,192,5281,1,0,0:0:0:0:
224,128,5469,5,2,0:0:0:0:
328,192,5656,1,0,0:0:0:0:
184,192,5844,1,0,0:0:0:0:
288,256,6031,1,0,0:0:0:0:
256,192,6219,5,4,0:0:0:0:
328,192,6406,1,0,0:0:0:0:
336,192,6500,1,0,0:0:0:0:
344,192,6594,1,0,0:0:0:0:
352,192,6687,1,0,0:0:0:0:
360,192,6781,1,0,0:0:0:0:
368,192,6875,1,0,0:0:0:0:
376,192,6969,1,0,0:0:0:0:
456,192,7156,2,0,B|456:104,1,80
456,32,7531,6,0,B|368:32,1,80
296,32,7906,1,0,0:0:0:0:
296,32,8094,1,0,0:0:0:0:
208,112,8281,1,0,0:0:0:0:
296,32,8469,1,0,0:0:0:0:
208,112,8656,6,0,B|144:48,2,80
151,55,9219,5,0,0:0:0:0:
32,56,9406,1,0,0:0:0:0:
136,176,9594,6,0,B|56:176,1,80
32,296,9969,5,0,0:0:0:0:
152,296,10156,1,0,0:0:0:0:
56,176,10344,6,0,B|144:176,1,80
216,176,10719,6,0,B|288:248,2,80
272,120,11281,2,0,B|320:80|392:160|432:104,1,160
424,112,11844,1,0,0:0:0:0:
424,112,12031,1,0,0:0:0:0:
464,264,12219,5,4,0:0:0:0:
384,264,12406,1,0,0:0:0:0:
376,264,12500,1,0,0:0:0:0:
368,264,12594,1,0,0:0:0:0:
360,264,12687,1,0,0:0:0:0:
352,264,12781,1,0,0:0:0:0:
344,264,12875,1,0,0:0:0:0:
336,264,12969,1,0,0:0:0:0:
256,264,13156,2,0,B|160:264,2,80
296,192,13719,5,0,0:0:0:0:
352,136,13906,2,0,B|416:72,2,80
296,192,14469,1,0,0:0:0:0:
256,40,14656,6,0,B|208:40,1,40
64,96,14937,2,0,B|112:96,1,40
112,96,15125,1,0,0:0:0:0:
152,96,15219,1,0,0:0:0:0:
200,160,15406,5,0,0:0:0:0:
224,184,15500,1,0,0:0:0:0:
248,208,15594,1,0,0:0:0:0:
176,240,15781,5,0,0:0:0:0:
144,264,15875,1,0,0:0:0:0:
112,288,15969,1,0,0:0:0:0:
176,336,16156,2,0,B|264:336,2,80
64,224,16719,5,2,0:0:0:0:
64,224,16812,1,2,0:0:0:0:
64,104,17000,5,2,0:0:0:0:
64,224,17187,5,2,0:0:0:0:
64,224,17281,1,2,0:0:0:0:
64,104,17469,5,2,0:0:0:0:
64,224,17656,5,2,0:0:0:0:
64,224,17750,1,2,0:0:0:0:
64,104,17937,5,2,0:0:0:0:
64,104,18031,1,2,0:0:0:0:
168,168,18219,6,0,B|256:168,1,80
328,168,18594,1,0,0:0:0:0:
408,168,18781,1,0,0:0:0:0:
408,248,18969,6,0,B|320:248,1,80
248,248,19344,2,0,B|248:336,1,80
248,168,19719,2,2,B|208:104|112:200|104:104,1,160
56,64,20094,1,0,0:0:0:0:
56,64,20281,1,0,0:0:0:0:
216,64,20469,5,2,0:0:0:0:
216,64,20844,5,2,0:0:0:0:
256,192,21219,12,4,22531,0:0:0:0:
256,192,22719,5,2,0:0:0:0:
256,192,22812,1,2,0:0:0:0:
256,72,23000,5,2,0:0:0:0:
256,192,23187,5,2,0:0:0:0:
256,192,23281,1,2,0:0:0:0:
256,72,23469,5,2,0:0:0:0:
256,192,23656,5,2,0:0:0:0:
256,192,23750,1,2,0:0:0:0:
256,72,23937,5,2,0:0:0:0:
256,72,24031,1,2,0:0:0:0:
376,72,24219,6,0,B|464:72,3,80
456,152,24969,6,0,B|368:152,3,80
376,232,25719,2,2,B|280:336|216:176,1,160
184,168,26094,2,0,B|120:104,3,80,0|0|2|0,0:0|0:0|0:0|0:0,0:0:0:0:
184,168,26844,1,2,0:0:0:0:
256,192,27219,12,0,28719,0:0:0:0:
256,192,28906,5,0,0:0:0:0:
256,192,29094,1,0,0:0:0:0:
256,192,29281,1,0,0:0:0:0:
256,96,29469,5,2,0:0:0:0:
160,264,29750,5,2,0:0:0:0:
352,264,30031,5,2,0:0:0:0:
456,192,30219,2,0,B|456:104|360:64,1,160
296,32,30781,1,0,0:0:0:0:
288,32,30875,1,0,0:0:0:0:
280,32,30969,1,0,0:0:0:0:
200,32,31156,2,0,B|200:120,1,80
152,176,31531,1,0,0:0:0:0:
152,176,31719,2,0,B|88:160|128:264|48:296,1,160
128,336,32281,1,0,0:0:0:0:
128,336,32656,5,0,0:0:0:0:
208,336,32844,2,0,B|296:336,1,80
208,336,33219,5,2,0:0:0:0:
208,256,33406,1,2,0:0:0:0:
264,200,33594,2,0,B|328:136,1,80
368,200,33969,5,2,0:0:0:0:
312,256,34156,1,2,0:0:0:0:
368,200,34344,2,0,B|432:136,1,80
424,64,34719,5,2,0:0:0:0:
424,64,34906,1,2,0:0:0:0:
344,64,35094,1,0,0:0:0:0:
264,64,35281,2,2,B|264:232,1,160
184,224,35844,2,2,B|184:136,1,80
184,136,36125,1,0,0:0:0:0:
184,128,36219,6,0,B|120:64|32:136,1,160,4|0,0:0|0:0,0:0:0:0:
88,192,36781,2,0,B|88:240,2,40
88,296,37156,2,0,B|136:296,2,40
192,296,37531,1,0,0:0:0:0:
200,296,37625,1,0,0:0:0:0:
208,296,37719,1,4,0:0:0:0:
288,296,37906,2,0,B|288:208,2,80
288,296,38469,5,2,0:0:0:0:
424,176,38750,1,2,0:0:0:0:
288,296,39031,1,2,0:0:0:0:
256,192,39219,12,0,40344,0:0:0:0:
256,192,40531,5,0,0:0:0:0:
184,88,40719,5,2,0:0:0:0:
104,88,40906,1,2,0:0:0:0:
184,88,41094,1,2,0:0:0:0:
104,88,41281,1,2,0:0:0:0:
24,88,41469,1,4,0:0:0:0:
64,152,41656,5,0,0:0:0:0:
88,184,41750,1,4,0:0:0:0:
136,248,41937,5,0,0:0:0:0:
112,280,42031,1,4,0:0:0:0:
224,168,42219,5,4,0:0:0:0:
376,168,42500,1,0,0:0:0:0:
456,304,42781,1,0,0:0:0:0:
352,304,42969,5,4,0:0:0:0:
456,192,43250,1,0,0:0:0:0:
352,72,43531,1,0,0:0:0:0:
248,72,43719,2,0,C|224:48|200:72|176:48|152:72|128:48|104:72|80:48,1,240,0|4,0:0|0:0,0:0:0:0:
82,51,44469,5,2,0:0:0:0:
152,192,44750,1,2,0:0:0:0:
80,328,45031,1,2,0:0:0:0:
184,328,45219,6,0,C|312:328,1,120,4|0,0:0|0:0,0:0:0:0:
312,328,45594,1,2,0:0:0:0:
312,248,45781,2,0,C|312:160,1,80,2|2,0:0|0:0,0:0:0:0:
384,200,46156,2,0,C|384:296,2,80,2|2|2,0:0|0:0|0:0,0:0:0:0:
440,144,46719,6,0,B|464:64|392:32,1,120,4|0,0:0|0:0,0:0:0:0:
400,40,47094,2,2,B|360:64|296:32,1,80
312,40,47375,1,0,0:0:0:0:
304,48,47469,1,2,0:0:0:0:
240,96,47656,1,2,0:0:0:0:
232,96,47750,1,0,0:0:0:0:
224,96,47844,1,2,0:0:0:0:
144,96,48031,1,2,0:0:0:0:
144,104,48125,1,0,0:0:0:0:
144,112,48219,6,0,B|144:240,1,120,4|0,0:0|0:0,0:0:0:0:
144,240,48594,1,2,0:0:0:0:
208,192,48781,2,2,B|296:192,3,80
368,192,49531,1,2,0:0:0:0:
464,64,49719,6,0,B|320:64,1,120,4|0,0:0|0:0,0:0:0:0:
336,64,50094,1,0,0:0:0:0:
256,64,50281,1,0,0:0:0:0:
256,144,50469,2,0,B|192:112|128:152,2,120,4|0|0,0:0|0:0|0:0,0:0:0:0:
296,208,51219,6,0,B|360:248|432:192,1,120,4|0,0:0|0:0,0:0:0:0:
409,207,51594,1,2,0:0:0:0:
448,272,51781,5,2,0:0:0:0:
376,304,51969,1,2,0:0:0:0:
296,328,52156,1,2,0:0:0:0:
216,320,52344,1,2,0:0:0:0:
144,288,52531,1,2,0:0:0:0:
80,240,52719,6,4,B|144:176|104:112,1,120,4|0,0:0|0:0,0:0:0:0:
114,132,53094,1,2,0:0:0:0:
176,88,53281,5,2,0:0:0:0:
256,80,53469,1,2,0:0:0:0:
328,104,53656,1,2,0:0:0:0:
400,136,53844,1,2,0:0:0:0:
480,144,54031,1,2,0:0:0:0:
480,224,54219,6,0,B|312:224,1,160,2|2,0:0|0:0,0:0:0:0:
240,224,54781,1,4,0:0:0:0:
240,224,54875,1,0,0:0:0:0:
240,224,54969,1,0,0:0:0:0:
184,280,55156,2,2,B|120:344,1,80
72,280,55531,6,0,B|24:248|72:216,1,80,0|8,0:0|0:0,0:0:0:0:
144,200,55906,2,0,B|192:168|144:128,1,80,0|8,0:0|0:0,0:0:0:0:
144,136,56187,1,0,0:0:0:0:
136,136,56281,1,0,0:0:0:0:
216,136,56469,2,0,B|304:136,3,80,2|0|2|0,0:0|0:0|0:0|0:0,0:0:0:0:
336,64,57219,5,2,0:0:0:0:
408,88,57406,1,2,0:0:0:0:
448,160,57594,1,2,0:0:0:0:
408,232,57781,1,2,0:0:0:0:
336,264,57969,5,0,0:0:0:0:
256,240,58156,1,2,0:0:0:0:
224,168,58344,1,2,0:0:0:0:
256,96,58531,1,2,0:0:0:0:
184,56,58719,5,6,0:0:0:0:
120,104,58906,1,2,0:0:0:0:
104,184,59094,1,2,0:0:0:0:
128,256,59281,1,2,0:0:0:0:
200,288,59469,5,0,0:0:0:0:
280,272,59656,1,2,0:0:0:0:
336,216,59844,1,2,0:0:0:0:
352,136,60031,1,2,0:0:0:0:
384,64,60219,5,6,0:0:0:0:
456,104,60406,1,2,0:0:0:0:
432,176,60594,1,2,0:0:0:0:
360,208,60781,1,0,0:0:0:0:
280,184,60969,5,0,0:0:0:0:
240,112,61156,1,2,0:0:0:0:
192,48,61344,1,2,0:0:0:0:
112,24,61531,1,2,0:0:0:0:
256,192,61578,12,6,63219,0:0:0:0:
216,192,63406,6,0,B|304:192,1,80,2|2,0:0|0:0,0:0:0:0:
352,248,63781,1,0,0:0:0:0:
408,192,63969,2,0,B|408:104,2,80,0|2|2,0:0|0:0|0:0,0:0:0:0:
408,192,64531,1,4,0:0:0:0:
296,192,64719,6,0,B|208:192,1,80,2|2,0:0|0:0,0:0:0:0:
160,136,65094,1,2,0:0:0:0:
104,192,65281,2,0,B|104:280,2,80,2|0|2,0:0|0:0|0:0,0:0:0:0:
104,192,65844,1,2,0:0:0:0:
216,192,66031,6,0,B|312:192,1,80,2|6,0:0|0:0,0:0:0:0:
336,120,66406,1,2,0:0:0:0:
400,72,66594,1,0,0:0:0:0:
480,80,66781,6,2,B|504:160|432:224,1,160
360,264,67344,1,0,0:0:0:0:
288,296,67531,6,2,B|192:312|136:248,1,160
80,200,68094,1,0,0:0:0:0:
136,144,68281,6,4,B|304:144,1,160
296,144,68844,1,8,0:0:0:0:
296,144,69031,1,0,0:0:0:0:
344,208,69219,1,4,0:0:0:0:
56,72,81219,6,0,B|144:72,1,80,4|0,0:0|0:0,0:0:0:0:
144,72,81500,1,0,0:0:0:0:
152,72,81594,1,0,0:0:0:0:
160,72,81687,1,0,0:0:0:0:
168,72,81781,1,0,0:0:0:0:
176,72,81875,1,0,0:0:0:0:
184,72,81969,1,0,0:0:0:0:
264,72,82156,2,0,B|352:72,1,80
264,136,82531,6,0,B|264:224,1,80,0|2,0:0|0:0,0:0:0:0:
264,296,82906,1,0,0:0:0:0:
264,296,83094,1,0,0:0:0:0:
184,296,83281,2,0,B|96:296|48:216,1,160,2|2,0:0|0:0,0:0:0:0:
51,220,83750,1,0,0:0:0:0:
51,220,83844,1,0,0:0:0:0:
51,220,84031,1,4,0:0:0:0:
48,136,84219,6,0,B|136:136,1,80
208,136,84594,1,0,0:0:0:0:
208,136,84781,1,0,0:0:0:0:
128,224,84969,6,0,B|216:224,1,80
288,224,85344,1,0,0:0:0:0:
288,224,85531,1,0,0:0:0:0:
288,144,85719,2,0,B|288:56,2,80
360,104,86281,2,0,B|360:280,1,160
360,344,86844,1,0,0:0:0:0:
280,344,87031,2,0,B|232:344,2,40
280,264,87406,5,0,0:0:0:0:
272,264,87500,1,0,0:0:0:0:
264,264,87594,1,2,0:0:0:0:
184,264,87781,2,2,B|184:176,1,80,0|0,0:0|0:0,0:0:0:0:
104,184,88156,1,0,0:0:0:0:
104,176,88250,1,0,0:0:0:0:
104,168,88344,1,2,0:0:0:0:
104,88,88531,2,2,B|192:88,1,80,0|4,0:0|0:0,0:0:0:0:
264,88,88906,5,0,0:0:0:0:
264,88,89094,1,0,0:0:0:0:
264,88,89281,1,0,0:0:0:0:
304,200,89469,5,2,0:0:0:0:
480,208,89750,1,2,0:0:0:0:
304,200,90031,1,2,0:0:0:0:
296,200,90125,1,0,0:0:0:0:
288,200,90219,5,4,0:0:0:0:
208,200,90406,2,0,B|208:152,2,40
208,280,90781,2,0,B|208:328,2,40
128,280,91156,2,0,B|32:280,1,80
48,200,91531,1,0,0:0:0:0:
48,120,91719,5,0,0:0:0:0:
56,120,91812,1,0,0:0:0:0:
64,120,91906,1,0,0:0:0:0:
72,120,92000,1,0,0:0:0:0:
80,120,92094,1,0,0:0:0:0:
88,120,92187,1,0,0:0:0:0:
96,120,92281,1,0,0:0:0:0:
104,120,92375,1,0,0:0:0:0:
112,120,92469,6,0,B|152:88|208:136,1,80,2|4,0:0|0:0,0:0:0:0:
192,128,92750,2,0,B|232:176|288:136,1,80,2|4,0:0|0:0,0:0:0:0:
272,144,93031,5,2,0:0:0:0:
336,96,93219,2,0,B|368:128,1,40
392,152,93406,2,0,B|360:184,1,40
336,208,93594,2,0,B|368:240,2,40
328,208,93875,1,0,0:0:0:0:
320,208,93969,6,0,B|280:240|232:200,1,80,2|4,0:0|0:0,0:0:0:0:
240,208,94250,2,0,B|200:176|160:208,1,80,2|4,0:0|0:0,0:0:0:0:
160,208,94531,1,4,0:0:0:0:
40,192,97719,5,0,0:0:0:0:
72,144,97906,1,0,0:0:0:0:
128,128,98094,1,0,0:0:0:0:
112,184,98281,5,0,0:0:0:0:
128,240,98469,1,0,0:0:0:0:
176,264,98656,1,0,0:0:0:0:
168,208,98844,5,0,0:0:0:0:
200,160,99031,1,0,0:0:0:0:
248,136,99219,1,0,0:0:0:0:
232,192,99406,5,0,0:0:0:0:
256,240,99594,1,0,0:0:0:0:
304,264,99781,1,0,0:0:0:0:
296,208,99969,5,0,0:0:0:0:
328,160,100156,1,0,0:0:0:0:
376,136,100344,1,0,0:0:0:0:
424,120,100531,1,0,0:0:0:0:
424,64,100719,6,0,B|288:64,1,120
296,64,101094,1,0,0:0:0:0:
216,64,101281,1,0,0:0:0:0:
160,120,101469,6,0,B|104:152|40:120,2,120
200,184,102219,2,0,B|272:208|320:184,2,120
160,248,102969,2,0,B|88:280|40:248,2,120
208,312,103719,5,0,0:0:0:0:
248,280,103906,1,0,0:0:0:0:
304,280,104094,1,0,0:0:0:0:
280,328,104281,5,0,0:0:0:0:
336,328,104469,1,0,0:0:0:0:
368,280,104656,1,0,0:0:0:0:
336,232,104844,5,0,0:0:0:0:
304,184,105031,1,0,0:0:0:0:
248,184,105219,1,0,0:0:0:0:
280,232,105406,5,0,0:0:0:0:
224,232,105594,1,0,0:0:0:0:
192,184,105781,1,0,0:0:0:0:
216,136,105969,5,0,0:0:0:0:
272,136,106156,1,0,0:0:0:0:
272,80,106344,1,0,0:0:0:0:
328,80,106531,1,0,0:0:0:0:
376,136,106719,6,0,B|440:168|496:128,2,120
336,208,107469,2,0,B|264:232|216:208,2,120
376,272,108219,2,0,B|432:304|504:272,2,120
256,192,108969,12,4,109719,0:0:0:0:
256,192,109906,5,0,0:0:0:0:
256,192,110000,1,0,0:0:0:0:
256,192,110094,1,0,0:0:0:0:
192,144,110281,1,0,0:0:0:0:
184,144,110375,1,0,0:0:0:0:
176,144,110469,1,0,0:0:0:0:
96,144,110656,1,0,0:0:0:0:
96,144,110750,1,0,0:0:0:0:
96,144,110844,1,0,0:0:0:0:
96,224,111031,5,0,0:0:0:0:
96,232,111125,1,0,0:0:0:0:
96,240,111219,1,0,0:0:0:0:
136,312,111406,1,0,0:0:0:0:
144,312,111500,1,0,0:0:0:0:
152,312,111594,1,0,0:0:0:0:
232,312,111781,2,0,B|232:264,2,40
312,312,112156,2,0,B|360:312,2,40
312,232,112531,6,0,B|312:144,1,80,0|4,0:0|0:0,0:0:0:0:
312,72,112906,1,0,0:0:0:0:
312,72,113000,1,0,0:0:0:0:
312,72,113094,1,0,0:0:0:0:
232,72,113281,1,0,0:0:0:0:
224,80,113375,1,0,0:0:0:0:
216,88,113469,1,0,0:0:0:0:
160,144,113656,1,0,0:0:0:0:
168,152,113750,1,0,0:0:0:0:
176,160,113844,1,0,0:0:0:0:
224,224,114031,6,0,B|288:272|304:168|400:240,1,160
400,296,114594,1,2,0:0:0:0:
374,224,114781,2,0,B|424:168|320:136|400:48,1,160
304,40,115344,1,2,0:0:0:0:
224,40,115531,1,0,0:0:0:0:
216,40,115625,1,0,0:0:0:0:
208,40,115719,6,0,B|208:88,4,40
128,40,116281,2,0,B|128:128,1,80
48,120,116656,2,0,B|0:120,2,40
48,200,117031,2,0,B|96:200,1,40
96,200,117219,5,0,0:0:0:0:
104,200,117312,1,0,0:0:0:0:
112,200,117406,1,0,0:0:0:0:
120,200,117500,1,0,0:0:0:0:
128,200,117594,1,0,0:0:0:0:
136,280,117781,2,0,B|184:280,2,40
240,280,118156,2,0,B|240:176,2,80
256,192,118719,12,0,120219,0:0:0:0:
256,56,120594,5,0,0:0:0:0:
72,320,120969,5,0,0:0:0:0:
440,320,121344,5,0,0:0:0:0:
336,64,121719,5,2,0:0:0:0:
408,88,121906,1,2,0:0:0:0:
448,160,122094,1,2,0:0:0:0:
408,232,122281,1,2,0:0:0:0:
336,264,122469,5,0,0:0:0:0:
256,240,122656,1,2,0:0:0:0:
224,168,122844,1,2,0:0:0:0:
256,96,123031,1,2,0:0:0:0:
184,56,123219,5,6,0:0:0:0:
120,104,123406,1,2,0:0:0:0:
104,184,123594,1,2,0:0:0:0:
128,256,123781,1,2,0:0:0:0:
200,288,123969,5,0,0:0:0:0:
280,272,124156,1,2,0:0:0:0:
336,216,124344,1,2,0:0:0:0:
352,136,124531,1,2,0:0:0:0:
384,64,124719,5,6,0:0:0:0:
456,104,124906,1,2,0:0:0:0:
432,176,125094,1,2,0:0:0:0:
360,208,125281,1,0,0:0:0:0:
280,184,125469,5,0,0:0:0:0:
240,112,125656,1,2,0:0:0:0:
192,48,125844,1,2,0:0:0:0:
112,32,126031,2,0,B|120:128|24:152,1,160,2|2,0:0|0:0,0:0:0:0:
64,224,126594,5,2,0:0:0:0:
120,280,126781,2,0,B|216:320|280:280,1,160,2|2,0:0|0:0,0:0:0:0:
216,224,127344,2,0,B|168:224|144:168,1,80,2|0,0:0|0:0,0:0:0:0:
104,120,127719,5,6,0:0:0:0:
144,56,127906,1,2,0:0:0:0:
216,32,128094,1,2,0:0:0:0:
296,48,128281,1,2,0:0:0:0:
360,96,128469,5,0,0:0:0:0:
392,168,128656,1,2,0:0:0:0:
368,248,128844,1,2,0:0:0:0:
312,304,129031,1,2,0:0:0:0:
232,288,129219,5,6,0:0:0:0:
192,216,129406,1,2,0:0:0:0:
216,136,129594,1,2,0:0:0:0:
288,104,129781,1,2,0:0:0:0:
368,120,129969,5,0,0:0:0:0:
344,192,130156,1,2,0:0:0:0:
280,240,130344,1,2,0:0:0:0:
200,256,130531,1,2,0:0:0:0:
256,192,130719,12,0,131844,0:0:0:0:
56,48,132219,5,0,0:0:0:0:
456,48,132594,5,0,0:0:0:0:
456,336,132969,5,0,0:0:0:0:
56,336,133344,5,0,0:0:0:0:
56,176,133719,6,0,B|184:176,2,120
56,96,134469,1,0,0:0:0:0:
64,96,134562,1,0,0:0:0:0:
72,96,134656,1,0,0:0:0:0:
80,96,134750,1,0,0:0:0:0:
88,96,134844,1,0,0:0:0:0:
168,96,135031,1,0,0:0:0:0:
248,96,135219,5,0,0:0:0:0:
256,104,135312,1,0,0:0:0:0:
264,112,135406,1,0,0:0:0:0:
272,120,135500,1,0,0:0:0:0:
280,128,135594,1,0,0:0:0:0:
328,184,135781,1,0,0:0:0:0:
304,256,135969,2,0,B|376:288|440:256,2,120
256,320,136719,6,0,B|192:344|128:312,2,120,2|2|0,0:0|0:0|0:0,0:0:0:0:
208,256,137469,1,0,0:0:0:0:
200,248,137562,1,0,0:0:0:0:
192,240,137656,1,0,0:0:0:0:
184,232,137750,1,0,0:0:0:0:
176,224,137844,1,0,0:0:0:0:
120,160,138031,1,0,0:0:0:0:
168,96,138219,2,0,B|216:48|312:72,2,120,2|0|0,0:0|0:0|0:0,0:0:0:0:
232,144,138969,2,0,B|288:184|360:136,2,120,2|0|0,0:0|0:0|0:0,0:0:0:0:
279,66,139719,5,2,0:0:0:0:
280,144,139906,1,0,0:0:0:0:
360,144,140094,1,0,0:0:0:0:
360,64,140281,1,0,0:0:0:0:
440,64,140469,5,2,0:0:0:0:
440,144,140656,1,0,0:0:0:0:
440,224,140844,1,0,0:0:0:0:
440,304,141031,1,0,0:0:0:0:
368,264,141219,5,6,0:0:0:0:
304,312,141406,1,0,0:0:0:0:
240,264,141594,1,0,0:0:0:0:
176,312,141781,1,0,0:0:0:0:
96,312,141969,6,0,B|96:224,1,80,2|0,0:0|0:0,0:0:0:0:
96,152,142344,2,0,B|184:152,1,80
176,72,142719,5,6,0:0:0:0:
256,72,142906,1,0,0:0:0:0:
256,152,143094,1,0,0:0:0:0:
336,160,143281,1,0,0:0:0:0:
336,240,143469,5,2,0:0:0:0:
256,240,143656,1,0,0:0:0:0:
176,240,143844,1,0,0:0:0:0:
96,240,144031,1,0,0:0:0:0:
256,192,144219,12,0,147031,0:0:0:0:
