osu file format v14

[General]
AudioFilename: Cross Time.mp3
AudioLeadIn: 0
PreviewTime: 45219
Countdown: 0
SampleSet: Normal
StackLeniency: 0.5
Mode: 0
LetterboxInBreaks: 1
WidescreenStoryboard: 0

[Editor]
Bookmarks: 6219,147031
DistanceSpacing: 1
BeatDivisor: 4
GridSize: 8
TimelineZoom: 1

[Metadata]
Title:Cross Time !!
TitleUnicode:Cross Time !!
Artist:Brandy
ArtistUnicode:Brandy
Creator:buraimaster1234
Version:StrawberryStyle
Source:O2Jam
Tags:o2jam mgame econ djpop FFFanatic DaRRi ignorethis bmin11 Takuma Lesjuh Metroid Luxary DJPop cyanberryio Ain053 video game electronic instrumental
BeatmapID:38823
BeatmapSetID:5918

[Difficulty]
HPDrainRate:7
CircleSize:5
OverallDifficulty:7
ApproachRate:7
SliderMultiplier:1.6
SliderTickRate:1

[Events]
//Background and Video events
0,0,"266_Cross_Time_!!.jpg",0,0
//Break Periods
//Storyboard Layer 0 (Background)
//Storyboard Layer 1 (Fail)
//Storyboard Layer 2 (Pass)
//Storyboard Layer 3 (Foreground)
//Storyboard Layer 4 (Overlay)
//Storyboard Sound Samples

[TimingPoints]
219,375,4,1,0,80,1,0
57219,-100,4,1,0,80,0,1
69219,-100,4,1,0,80,0,0
94719,-100,4,2,0,100,0,0
109625,-100,4,1,0,70,0,0
121719,-100,4,1,0,80,0,1
133531,-100,4,1,0,80,0,0
147031,-100,4,1,0,80,0,1
147046,-100,4,1,0,80,0,0

[Colours]
Combo1 : 255,255,255
Combo2 : 255,64,0
Combo3 : 0,128,255
Combo4 : 225,145,50

[HitObjects]
128,104,6219,5,4,0:0:0:0:
128,104,6406,1,0,0:0:0:0:
208,104,6594,2,0,B|304:104,1,80
240,168,6969,2,0,B|144:168,2,80,8|0|0,0:0|0:0|0:0,0:0:0:0:
320,168,7531,1,0,0:0:0:0:
400,168,7719,2,0,B|432:256|360:328|264:304,1,240,8|0,0:0|0:0,0:0:0:0:
266,304,8656,1,8,0:0:0:0:
256,64,9219,6,0,B|216:40|176:64,3,80,8|0|0|0,0:0|0:0|0:0|0:0,0:0:0:0:
216,136,9969,2,0,B|176:160|136:136,3,80,8|0|0|0,0:0|0:0|0:0|0:0,0:0:0:0:
176,208,10719,1,0,0:0:0:0:
224,264,10906,1,8,0:0:0:0:
280,320,11094,1,0,0:0:0:0:
336,264,11281,2,0,B|400:184|272:104|336:32,1,240,8|0,0:0|0:0,0:0:0:0:
256,176,12219,5,4,0:0:0:0:
416,176,12594,1,0,0:0:0:0:
416,336,12969,1,0,0:0:0:0:
256,336,13344,1,0,0:0:0:0:
256,176,13719,1,2,0:0:0:0:
416,176,14094,1,0,0:0:0:0:
272,112,14469,1,0,0:0:0:0:
192,112,14656,1,0,0:0:0:0:
160,136,14750,1,0,0:0:0:0:
160,256,15031,1,0,0:0:0:0:
192,280,15125,1,0,0:0:0:0:
224,304,15219,6,0,B|392:304,1,160
432,240,15781,1,0,0:0:0:0:
392,240,15875,1,0,0:0:0:0:
352,240,15969,2,0,B|184:240,1,160
336,176,16719,5,2,0:0:0:0:
296,160,16812,1,0,0:0:0:0:
256,144,16906,1,0,0:0:0:0:
296,72,17094,1,4,0:0:0:0:
216,72,17281,1,2,0:0:0:0:
184,96,17375,1,0,0:0:0:0:
152,120,17469,1,0,0:0:0:0:
152,40,17656,1,4,0:0:0:0:
72,40,17844,1,2,0:0:0:0:
56,80,17937,1,0,0:0:0:0:
40,120,18031,1,0,0:0:0:0:
40,200,18219,6,0,B|40:272|104:296|152:272,1,160,4|0,0:0|0:0,0:0:0:0:
256,152,18969,1,0,0:0:0:0:
256,232,19156,1,0,0:0:0:0:
256,312,19344,1,0,0:0:0:0:
360,192,19719,1,2,0:0:0:0:
376,160,19812,1,0,0:0:0:0:
256,152,20094,1,0,0:0:0:0:
256,152,20281,1,0,0:0:0:0:
312,96,20469,2,2,B|344:56|424:56|456:104,1,160,2|6,0:0|0:0,0:0:0:0:
312,176,21219,5,2,0:0:0:0:
288,208,21312,1,0,0:0:0:0:
264,240,21406,1,0,0:0:0:0:
192,200,21594,1,4,0:0:0:0:
240,136,21781,1,2,0:0:0:0:
200,120,21875,1,0,0:0:0:0:
160,104,21969,1,0,0:0:0:0:
120,88,22062,1,0,0:0:0:0:
80,72,22156,1,0,0:0:0:0:
80,152,22344,1,4,0:0:0:0:
168,280,22719,6,0,B|256:280,1,80,2|0,0:0|0:0,0:0:0:0:
192,216,23094,2,0,B|280:216,1,80,2|0,0:0|0:0,0:0:0:0:
224,152,23469,1,0,0:0:0:0:
264,152,23562,1,0,0:0:0:0:
304,152,23656,1,0,0:0:0:0:
344,152,23750,2,0,B|384:184,1,40
408,200,23937,2,2,B|384:272|312:264,1,120,2|4,0:0|0:0,0:0:0:0:
160,264,24594,5,0,0:0:0:0:
304,200,24969,1,0,0:0:0:0:
264,200,25062,1,0,0:0:0:0:
224,200,25156,1,0,0:0:0:0:
144,200,25344,1,0,0:0:0:0:
288,136,25719,2,0,B|336:136,2,40,2|0|0,0:0|0:0|0:0,0:0:0:0:
208,136,26094,1,0,0:0:0:0:
208,136,26281,1,0,0:0:0:0:
128,136,26469,2,2,B|128:264,1,120,2|0,0:0|0:0,0:0:0:0:
88,256,26844,2,2,B|88:128,1,120,2|0,0:0|0:0,0:0:0:0:
104,104,27219,5,0,0:0:0:0:
136,80,27312,1,0,0:0:0:0:
168,56,27406,1,0,0:0:0:0:
248,56,27594,1,4,0:0:0:0:
208,120,27781,1,0,0:0:0:0:
224,160,27875,1,0,0:0:0:0:
240,200,27969,1,0,0:0:0:0:
320,200,28156,1,4,0:0:0:0:
280,272,28344,1,0,0:0:0:0:
264,312,28437,1,0,0:0:0:0:
248,352,28531,1,0,0:0:0:0:
184,304,28719,6,0,B|128:320|72:256|104:200,1,160
101,205,29469,1,0,0:0:0:0:
176,200,29656,1,0,0:0:0:0:
176,200,29750,1,0,0:0:0:0:
296,184,30031,1,0,0:0:0:0:
296,184,30219,6,0,B|464:184,2,160,2|0|0,0:0|0:0|0:0,0:0:0:0:
256,248,31156,1,0,0:0:0:0:
96,248,31531,1,0,0:0:0:0:
256,248,31906,2,0,B|336:296|416:256,1,160
352,200,32469,1,0,0:0:0:0:
368,128,32656,2,0,B|400:48,1,80,0|0,0:0|0:0,0:0:0:0:
456,104,33031,2,0,B|488:184,1,80,0|4,0:0|0:0,0:0:0:0:
416,320,33594,6,0,B|368:280|312:352|256:320,1,160
184,328,34156,1,0,0:0:0:0:
184,168,34531,2,0,B|16:168,1,160
168,104,35281,1,0,0:0:0:0:
168,104,36219,6,0,B|224:88|280:128|288:184,1,160
288,264,36781,1,0,0:0:0:0:
288,264,36969,1,0,0:0:0:0:
288,344,37156,2,0,B|336:368|408:336|408:272,1,160
408,200,37719,1,0,0:0:0:0:
408,200,37906,1,0,0:0:0:0:
408,120,38094,2,0,B|320:120,1,80
248,120,38469,2,0,B|248:208,1,80,2|0,0:0|0:0,0:0:0:0:
184,144,38844,2,0,B|184:232,1,80,2|0,0:0|0:0,0:0:0:0:
120,176,39219,5,2,0:0:0:0:
112,216,39312,1,0,0:0:0:0:
104,256,39406,1,0,0:0:0:0:
184,256,39594,1,4,0:0:0:0:
184,176,39781,1,2,0:0:0:0:
224,184,39875,1,0,0:0:0:0:
264,192,39969,1,0,0:0:0:0:
264,112,40156,1,4,0:0:0:0:
344,112,40344,1,2,0:0:0:0:
352,152,40437,1,0,0:0:0:0:
360,192,40531,1,0,0:0:0:0:
440,192,40719,5,2,0:0:0:0:
432,232,40812,1,0,0:0:0:0:
424,272,40906,1,0,0:0:0:0:
344,272,41094,1,0,0:0:0:0:
384,336,41281,1,0,0:0:0:0:
344,272,41469,5,4,0:0:0:0:
160,272,41750,1,4,0:0:0:0:
256,120,42031,1,4,0:0:0:0:
336,120,42219,5,0,0:0:0:0:
384,120,42312,1,0,0:0:0:0:
360,192,42500,1,4,0:0:0:0:
360,312,42781,1,4,0:0:0:0:
288,256,42969,5,0,0:0:0:0:
240,256,43062,1,0,0:0:0:0:
264,176,43250,1,4,0:0:0:0:
264,56,43531,1,4,0:0:0:0:
208,112,43719,5,0,0:0:0:0:
160,112,43812,1,0,0:0:0:0:
184,184,44000,1,4,0:0:0:0:
184,304,44281,1,4,0:0:0:0:
120,256,44469,5,0,0:0:0:0:
72,256,44562,1,0,0:0:0:0:
96,176,44750,1,4,0:0:0:0:
96,56,45031,1,4,0:0:0:0:
176,56,45219,6,2,B|336:104,1,160,2|0,0:0|0:0,0:0:0:0:
168,120,45969,1,0,0:0:0:0:
168,120,46344,1,0,0:0:0:0:
328,144,46719,2,2,B|168:192,1,160,2|0,0:0|0:0,0:0:0:0:
336,208,47469,1,0,0:0:0:0:
336,208,47844,1,0,0:0:0:0:
176,232,48219,2,2,B|336:280,1,160,2|0,0:0|0:0,0:0:0:0:
168,296,48969,1,0,0:0:0:0:
168,296,49344,1,0,0:0:0:0:
256,160,49719,6,0,B|256:328,1,160,4|0,0:0|0:0,0:0:0:0:
320,368,50281,1,0,0:0:0:0:
384,320,50469,2,0,B|384:152,1,160,4|0,0:0|0:0,0:0:0:0:
448,112,51031,1,0,0:0:0:0:
384,64,51219,2,0,B|216:64,1,160
64,56,51969,5,0,0:0:0:0:
88,128,52156,1,0,0:0:0:0:
120,200,52344,1,0,0:0:0:0:
152,128,52531,1,0,0:0:0:0:
120,56,52719,2,2,B|288:56,1,160,2|0,0:0|0:0,0:0:0:0:
240,128,53281,1,0,0:0:0:0:
320,128,53469,1,0,0:0:0:0:
280,192,53656,2,0,B|192:192,2,80
328,256,54219,6,0,B|328:344,1,80,6|0,0:0|0:0,0:0:0:0:
176,256,54594,2,0,B|176:168,1,80,6|0,0:0|0:0,0:0:0:0:
256,168,54969,5,0,0:0:0:0:
256,88,55156,1,2,0:0:0:0:
256,168,55344,1,0,0:0:0:0:
256,248,55531,2,2,B|312:272|376:224|368:168,1,160,2|0,0:0|0:0,0:0:0:0:
400,144,56000,1,0,0:0:0:0:
432,120,56094,2,0,B|464:152|448:208,1,80
432,232,56375,1,0,0:0:0:0:
416,272,56469,1,0,0:0:0:0:
304,232,56750,1,0,0:0:0:0:
288,272,56844,1,0,0:0:0:0:
176,232,57125,1,0,0:0:0:0:
160,272,57219,6,6,B|112:288|56:216|88:160,1,160
136,104,57781,1,0,0:0:0:0:
208,64,57969,1,0,0:0:0:0:
208,144,58156,1,0,0:0:0:0:
280,104,58344,1,0,0:0:0:0:
280,184,58531,1,0,0:0:0:0:
352,144,58719,6,2,B|352:312,1,160,2|0,0:0|0:0,0:0:0:0:
280,272,59281,1,0,0:0:0:0:
208,240,59469,1,0,0:0:0:0:
136,208,59656,1,0,0:0:0:0:
56,208,59844,2,0,B|56:120,1,80
136,144,60219,6,2,B|136:56,1,80,2|0,0:0|0:0,0:0:0:0:
208,88,60594,1,0,0:0:0:0:
208,168,60781,1,0,0:0:0:0:
280,128,60969,1,0,0:0:0:0:
280,208,61156,1,0,0:0:0:0:
352,168,61344,1,0,0:0:0:0:
208,88,61719,6,0,L|208:256,1,160,6|0,0:0|0:0,0:0:0:0:
288,240,62281,1,0,0:0:0:0:
368,248,62469,2,0,L|368:80,1,160,6|0,0:0|0:0,0:0:0:0:
288,80,63031,2,0,L|288:160,1,80,6|0,0:0|0:0,0:0:0:0:
224,104,63406,2,2,L|224:24,1,80,6|2,0:0|0:0,0:0:0:0:
160,80,63781,1,0,0:0:0:0:
160,160,63969,5,0,0:0:0:0:
160,160,64156,1,0,0:0:0:0:
176,240,64344,1,0,0:0:0:0:
176,240,64531,1,0,0:0:0:0:
256,240,64719,2,0,L|336:240,1,80,6|0,0:0|0:0,0:0:0:0:
384,176,65094,2,0,L|304:176,1,80,6|0,0:0|0:0,0:0:0:0:
352,112,65469,5,0,0:0:0:0:
280,80,65656,1,2,0:0:0:0:
208,48,65844,2,2,L|152:112,1,80,2|0,0:0|0:0,0:0:0:0:
232,128,66219,2,0,L|176:192,1,80
256,208,66594,2,0,L|200:272,1,80
256,328,66969,6,0,L|336:328,1,80
416,328,67344,1,0,0:0:0:0:
376,256,67531,2,0,L|376:176,1,80
304,216,67906,1,0,0:0:0:0:
304,136,68094,1,0,0:0:0:0:
232,176,68281,2,0,L|152:176,1,80
80,136,68656,1,0,0:0:0:0:
80,216,68844,1,0,0:0:0:0:
80,296,69031,1,0,0:0:0:0:
184,192,69219,5,4,0:0:0:0:
344,192,69594,1,0,0:0:0:0:
144,192,69969,1,0,0:0:0:0:
384,192,70344,1,0,0:0:0:0:
104,192,70719,1,0,0:0:0:0:
424,192,71094,1,0,0:0:0:0:
64,192,71469,1,0,0:0:0:0:
464,192,71844,1,0,0:0:0:0:
256,120,72219,5,4,0:0:0:0:
256,280,72594,1,0,0:0:0:0:
256,80,72969,1,0,0:0:0:0:
256,320,73344,1,0,0:0:0:0:
256,160,73719,5,0,0:0:0:0:
288,136,73812,1,0,0:0:0:0:
352,88,74000,1,0,0:0:0:0:
392,80,74094,1,0,0:0:0:0:
432,72,74187,1,0,0:0:0:0:
472,64,74281,1,0,0:0:0:0:
432,136,74469,2,0,L|472:136,4,40
432,216,75031,1,0,0:0:0:0:
352,216,75219,6,0,B|288:168|200:160,1,160
240,232,75781,1,0,0:0:0:0:
288,296,75969,2,0,B|208:304|136:240,1,160
152,168,76531,1,0,0:0:0:0:
168,88,76719,2,0,B|240:56|328:80,1,160
264,136,77281,1,0,0:0:0:0:
344,136,77469,2,0,B|312:216|216:216,1,160
216,296,78031,1,0,0:0:0:0:
296,296,78219,5,2,0:0:0:0:
328,280,78312,1,0,0:0:0:0:
368,264,78406,1,0,0:0:0:0:
328,192,78594,1,4,0:0:0:0:
248,192,78781,1,2,0:0:0:0:
232,152,78875,1,0,0:0:0:0:
216,112,78969,1,0,0:0:0:0:
152,160,79156,1,4,0:0:0:0:
152,240,79344,1,2,0:0:0:0:
112,256,79437,1,0,0:0:0:0:
72,272,79531,1,0,0:0:0:0:
72,192,79719,6,0,B|48:144|96:72|160:96,1,160
232,96,80281,1,0,0:0:0:0:
312,96,80469,2,0,B|312:184,1,80
344,160,80750,1,0,0:0:0:0:
376,136,80844,2,0,B|376:224,1,80
376,296,81219,5,0,0:0:0:0:
296,296,81406,1,0,0:0:0:0:
216,296,81594,2,0,B|128:296,1,80
184,232,81969,2,0,B|272:232,1,80
216,168,82344,2,0,B|128:168,1,80
184,104,82719,5,0,0:0:0:0:
184,104,82906,1,0,0:0:0:0:
336,64,83281,2,0,B|336:152,1,80
400,96,83656,2,0,B|400:184,1,80
240,192,84219,5,0,0:0:0:0:
240,192,84406,1,0,0:0:0:0:
168,160,84594,1,0,0:0:0:0:
168,160,84781,1,0,0:0:0:0:
96,192,84969,1,0,0:0:0:0:
96,192,85156,1,0,0:0:0:0:
24,160,85344,1,0,0:0:0:0:
24,160,85531,1,0,0:0:0:0:
24,240,85719,2,0,B|24:328,2,80
96,272,86281,2,0,B|96:360,2,80
168,240,86844,1,0,0:0:0:0:
96,192,87031,2,0,B|96:168,5,20,0|0|0|0|0|0,0:0|0:0|0:0|0:0|0:0|0:0,0:0:0:0:
96,32,87594,5,0,0:0:0:0:
168,48,87781,2,0,B|168:136,1,80
232,88,88156,1,0,0:0:0:0:
232,168,88343,2,0,B|232:256,1,80
296,200,88718,1,0,0:0:0:0:
296,280,88906,2,0,B|296:368,1,80
360,312,89281,1,0,0:0:0:0:
440,312,89469,6,0,B|408:280|472:232|440:192,2,120
360,312,90219,1,0,0:0:0:0:
320,296,90312,1,0,0:0:0:0:
320,216,90500,1,0,0:0:0:0:
280,200,90594,1,0,0:0:0:0:
280,120,90781,1,0,0:0:0:0:
240,104,90875,1,0,0:0:0:0:
200,88,90969,1,0,0:0:0:0:
200,168,91156,1,0,0:0:0:0:
160,184,91250,1,0,0:0:0:0:
128,200,91344,5,0,0:0:0:0:
136,240,91437,1,0,0:0:0:0:
96,256,91531,1,0,0:0:0:0:
104,296,91625,1,0,0:0:0:0:
136,312,91719,6,0,B|152:360|208:360|224:304,2,120
352,240,92469,2,0,B|336:192|280:192|264:248,2,120,4|0|0,0:0|0:0|0:0,0:0:0:0:
168,112,93219,2,0,B|120:128|120:184|176:200,2,120,0|0|0,0:0|0:0|0:0,0:0:0:0:
240,328,93969,2,0,B|288:312|288:256|232:240,2,120,4|0|0,0:0|0:0|0:0,0:0:0:0:
256,192,94719,12,0,97344,0:0:0:0:
256,56,97719,5,2,0:0:0:0:
176,56,97906,1,0,0:0:0:0:
216,128,98094,1,0,0:0:0:0:
296,128,98281,5,2,0:0:0:0:
360,168,98469,1,0,0:0:0:0:
296,208,98656,1,0,0:0:0:0:
216,208,98844,1,0,0:0:0:0:
256,280,99031,1,0,0:0:0:0:
176,280,99219,6,0,B|88:280,1,80,2|0,0:0|0:0,0:0:0:0:
176,216,99594,2,0,B|88:216,1,80
176,152,99969,2,0,B|88:152,1,80,2|0,0:0|0:0,0:0:0:0:
176,88,100344,2,0,B|88:88,1,80,0|0,0:0|0:0,0:0:0:0:
240,88,100719,6,0,B|328:88,1,80
240,152,101094,2,0,B|328:152,1,80
240,216,101469,2,0,B|328:216,1,80
240,280,101844,2,0,B|328:280,1,80
240,344,102219,2,0,B|72:344,2,160
320,344,103156,1,0,0:0:0:0:
400,344,103344,1,0,0:0:0:0:
360,272,103531,1,0,0:0:0:0:
280,272,103719,6,0,B|240:248|232:208,2,80,2|0|0,0:0|0:0|0:0,0:0:0:0:
304,192,104281,2,0,B|296:144|248:136,2,80,2|0|0,0:0|0:0|0:0,0:0:0:0:
384,192,104844,1,0,0:0:0:0:
384,192,105031,1,0,0:0:0:0:
344,120,105219,6,0,B|328:80|280:64,1,80
232,120,105594,2,0,B|216:80|168:64,1,80
120,120,105969,2,0,B|104:80|56:64,1,80
120,192,106344,2,0,B|136:232|184:248,1,80,0|0,0:0|0:0,0:0:0:0:
232,192,106719,2,0,B|320:192,2,80,0|0|0,0:0|0:0|0:0,0:0:0:0:
272,256,107281,2,0,B|360:256,2,80
312,320,107844,2,0,B|400:320,2,80
232,320,108406,2,0,B|144:320,2,80
184,256,108969,2,0,B|96:256,2,80
136,192,109531,1,0,0:0:0:0:
216,192,109719,6,0,B|216:24,1,160,4|0,0:0|0:0,0:0:0:0:
280,176,110469,1,0,0:0:0:0:
280,256,110656,1,0,0:0:0:0:
280,336,110844,1,0,0:0:0:0:
344,296,111031,2,0,B|512:296,1,160,4|0,0:0|0:0,0:0:0:0:
504,296,111781,2,0,B|336:296,1,160,4|0,0:0|0:0,0:0:0:0:
16,296,112531,2,0,B|184:296,1,160,4|0,0:0|0:0,0:0:0:0:
176,296,113281,2,0,B|8:296,1,160,4|0,0:0|0:0,0:0:0:0:
240,192,114219,5,2,0:0:0:0:
256,152,114312,1,0,0:0:0:0:
272,112,114406,1,0,0:0:0:0:
192,112,114594,1,4,0:0:0:0:
120,72,114781,1,2,0:0:0:0:
104,112,114875,1,0,0:0:0:0:
88,152,114969,1,0,0:0:0:0:
168,160,115156,1,4,0:0:0:0:
128,232,115344,1,2,0:0:0:0:
168,248,115437,1,0,0:0:0:0:
208,264,115531,1,0,0:0:0:0:
288,264,115719,6,0,B|456:264,1,160,4|0,0:0|0:0,0:0:0:0:
400,200,116281,1,0,0:0:0:0:
320,200,116469,2,0,B|152:200,1,160,4|0,0:0|0:0,0:0:0:0:
208,136,117031,1,0,0:0:0:0:
288,136,117219,2,0,B|456:136,1,160,6|0,0:0|0:0,0:0:0:0:
400,72,117781,1,0,0:0:0:0:
320,72,117969,2,0,B|152:72,1,160,4|0,0:0|0:0,0:0:0:0:
208,136,118531,1,0,0:0:0:0:
256,200,118719,6,0,B|168:216|128:296,1,160,4|0,0:0|0:0,0:0:0:0:
208,296,119281,1,0,0:0:0:0:
288,288,119469,2,0,B|361:213|310:140,1,160,4|0,0:0|0:0,0:0:0:0:
264,208,120031,1,0,0:0:0:0:
184,208,120219,2,2,B|226:112|329:149,1,160,6|0,0:0|0:0,0:0:0:0:
264,208,120781,1,0,0:0:0:0:
344,208,120969,5,6,0:0:0:0:
384,200,121062,1,0,0:0:0:0:
424,184,121156,1,0,0:0:0:0:
448,152,121250,1,0,0:0:0:0:
456,112,121344,1,0,0:0:0:0:
448,72,121437,1,6,0:0:0:0:
416,48,121531,1,0,0:0:0:0:
376,32,121625,1,0,0:0:0:0:
336,40,121719,2,2,B|328:104|200:40|200:112,1,160,2|0,0:0|0:0,0:0:0:0:
136,152,122281,5,0,0:0:0:0:
72,200,122469,1,0,0:0:0:0:
136,248,122656,1,2,0:0:0:0:
136,248,122844,1,0,0:0:0:0:
200,200,123031,1,2,0:0:0:0:
280,200,123219,2,2,B|288:136|416:248|424:184,1,160,2|0,0:0|0:0,0:0:0:0:
424,112,123781,1,0,0:0:0:0:
352,80,123969,5,0,0:0:0:0:
280,48,124156,1,2,0:0:0:0:
240,120,124344,1,0,0:0:0:0:
184,64,124531,1,2,0:0:0:0:
112,104,124719,2,2,B|72:168|152:200|112:264,1,160,2|0,0:0|0:0,0:0:0:0:
32,256,125281,1,0,0:0:0:0:
104,288,125469,5,0,0:0:0:0:
176,320,125656,1,2,0:0:0:0:
208,248,125844,1,0,0:0:0:0:
280,272,126031,2,2,B|368:272|280:160|368:160,1,160,2|0,0:0|0:0,0:0:0:0:
440,160,126594,1,0,0:0:0:0:
360,160,126781,2,2,B|280:160|368:272|280:272,1,160,2|0,0:0|0:0,0:0:0:0:
200,272,127344,1,0,0:0:0:0:
120,272,127531,1,0,0:0:0:0:
160,200,127719,6,2,B|160:32,1,160,2|0,0:0|0:0,0:0:0:0:
224,88,128281,1,0,0:0:0:0:
304,88,128469,1,0,0:0:0:0:
264,160,128656,1,2,0:0:0:0:
344,160,128844,1,0,0:0:0:0:
304,232,129031,1,2,0:0:0:0:
224,232,129219,6,2,B|192:280|112:272|88:224,1,160,2|0,0:0|0:0,0:0:0:0:
88,144,129781,1,0,0:0:0:0:
160,112,129969,1,0,0:0:0:0:
232,88,130156,1,2,0:0:0:0:
304,64,130344,1,0,0:0:0:0:
288,144,130531,1,2,0:0:0:0:
368,144,130719,5,2,0:0:0:0:
360,184,130812,1,0,0:0:0:0:
352,224,130906,1,0,0:0:0:0:
272,224,131094,1,4,0:0:0:0:
208,272,131281,1,2,0:0:0:0:
192,232,131375,1,0,0:0:0:0:
176,192,131469,1,0,0:0:0:0:
96,192,131656,1,4,0:0:0:0:
64,120,131844,1,2,0:0:0:0:
96,96,131937,1,0,0:0:0:0:
128,72,132031,1,0,0:0:0:0:
208,72,132219,5,0,0:0:0:0:
248,72,132312,1,0,0:0:0:0:
288,72,132406,1,0,0:0:0:0:
248,144,132594,1,0,0:0:0:0:
288,144,132687,1,0,0:0:0:0:
328,144,132781,1,0,0:0:0:0:
288,216,132969,1,0,0:0:0:0:
328,216,133062,1,0,0:0:0:0:
368,216,133156,1,0,0:0:0:0:
328,280,133344,2,4,B|496:280,1,160,4|6,0:0|0:0,0:0:0:0:
440,224,133906,5,0,0:0:0:0:
424,184,134000,1,0,0:0:0:0:
408,144,134094,1,0,0:0:0:0:
328,144,134281,1,0,0:0:0:0:
248,144,134469,2,0,B|264:184,2,40
208,136,134750,1,0,0:0:0:0:
168,128,134844,1,0,0:0:0:0:
168,208,135031,2,0,B|80:208,1,80
120,280,135406,5,0,0:0:0:0:
160,280,135500,1,0,0:0:0:0:
200,280,135594,2,0,B|224:240,2,40
280,288,135969,1,0,0:0:0:0:
320,296,136062,1,0,0:0:0:0:
360,304,136156,1,0,0:0:0:0:
320,232,136344,2,0,B|320:144,1,80
304,112,136625,1,0,0:0:0:0:
264,112,136719,6,2,B|176:136|160:224,1,160,2|0,0:0|0:0,0:0:0:0:
240,208,137281,1,0,0:0:0:0:
240,288,137469,2,0,B|216:304|192:288,2,40
280,272,137750,1,0,0:0:0:0:
248,248,137844,2,0,B|232:224|248:200,2,40
216,168,138219,6,2,B|384:168,1,160,2|0,0:0|0:0,0:0:0:0:
432,112,138781,1,0,0:0:0:0:
376,56,138969,2,2,B|208:56,1,160,2|0,0:0|0:0,0:0:0:0:
160,112,139531,1,0,0:0:0:0:
240,112,139719,6,2,B|240:280,1,160,2|0,0:0|0:0,0:0:0:0:
240,352,140281,1,0,0:0:0:0:
160,352,140469,1,0,0:0:0:0:
80,352,140656,1,0,0:0:0:0:
80,272,140844,1,0,0:0:0:0:
80,192,141031,1,0,0:0:0:0:
160,192,141219,6,2,B|328:192,1,160,2|0,0:0|0:0,0:0:0:0:
400,192,141781,1,0,0:0:0:0:
400,112,141969,1,0,0:0:0:0:
400,32,142156,1,0,0:0:0:0:
320,32,142344,1,0,0:0:0:0:
240,32,142531,1,0,0:0:0:0:
240,112,142719,6,2,B|72:112,1,160
48,184,143281,1,0,0:0:0:0:
128,184,143469,1,0,0:0:0:0:
208,184,143656,1,0,0:0:0:0:
288,184,143844,1,0,0:0:0:0:
368,184,144031,1,0,0:0:0:0:
328,112,144219,6,2,B|288:88|248:128|200:112,2,120,2|0|0,0:0|0:0|0:0,0:0:0:0:
368,184,144969,2,2,B|416:192|448:152|432:104,2,120,2|0|0,0:0|0:0|0:0,0:0:0:0:
352,104,145719,2,2,C|264:16,2,120,2|0|0,0:0|0:0|0:0,0:0:0:0:
272,128,146469,1,0,0:0:0:0:
192,40,146750,1,0,0:0:0:0:
200,112,146937,1,0,0:0:0:0:
200,112,147031,1,0,0:0:0:0:
