osu file format v14

[General]
AudioFilename: Cross Time.mp3
AudioLeadIn: 3000
PreviewTime: 45219
Countdown: 1
SampleSet: Normal
StackLeniency: 0.3
Mode: 0
LetterboxInBreaks: 1
WidescreenStoryboard: 0

[Editor]
DistanceSpacing: 1.4
BeatDivisor: 4
GridSize: 8
TimelineZoom: 1

[Metadata]
Title:Cross Time !!
TitleUnicode:Cross Time !!
Artist:Brandy
ArtistUnicode:Brandy
Creator:buraimaster1234
Version:Aoi Kiai
Source:O2Jam
Tags:o2jam mgame econ djpop FFFanatic DaRRi ignorethis bmin11 Takuma Lesjuh Metroid Luxary DJPop cyanberryio Ain053 video game electronic instrumental
BeatmapID:39354
BeatmapSetID:5918

[Difficulty]
HPDrainRate:6
CircleSize:4
OverallDifficulty:7
ApproachRate:7
SliderMultiplier:2
SliderTickRate:2

[Events]
//Background and Video events
0,0,"266_Cross_Time_!!.jpg",0,0
//Break Periods
2,122482,126820
//Storyboard Layer 0 (Background)
//Storyboard Layer 1 (Fail)
//Storyboard Layer 2 (Pass)
//Storyboard Layer 3 (Foreground)
//Storyboard Layer 4 (Overlay)
//Storyboard Sound Samples

[TimingPoints]
219,375,4,1,0,80,1,0
9219,-50,4,1,0,80,0,0
9406,-100,4,1,0,80,0,0
9969,-50,4,1,0,80,0,0
10156,-100,4,1,0,80,0,0
10719,-50,4,1,0,80,0,0
10906,-100,4,1,0,80,0,0
14469,-50,4,1,0,80,0,0
15031,-100,4,1,0,80,0,0
28812,-100,4,2,0,90,0,0
29469,-50,4,1,0,80,0,0
30031,-100,4,1,0,80,0,0
45219,-100,4,1,0,80,0,1
45220,-100,4,1,0,80,0,0
69312,-100,4,2,0,90,0,0
70719,-100,4,1,0,90,0,0
72312,-100,4,2,0,90,0,0
73719,-100,4,1,0,80,0,0
96969,-200,4,2,0,100,0,0
109719,-100,4,1,0,80,0,1
110094,-100,4,2,0,90,0,1
110844,-100,4,1,0,90,0,1
115718,-100,4,1,0,90,0,0
115719,-100,4,1,0,90,0,1
116094,-100,4,2,0,100,0,1
117031,-100,4,1,0,90,0,1
117218,-100,4,1,0,90,0,0
117219,-100,4,1,0,90,0,1
118718,-100,4,1,0,90,0,0
118719,-50,4,1,0,90,0,1
120218,-100,4,1,0,90,0,0
120219,93.75,4,1,0,100,1,1
120220,-100,4,1,0,100,0,0
121718,-100,4,1,0,100,0,0
121719,-100,4,1,0,100,0,0
121720,375,4,1,0,100,1,0
130720,-100,4,1,0,100,0,1
133813,-100,4,1,0,100,0,0

[Colours]
Combo1 : 193,0,242
Combo2 : 244,40,11
Combo3 : 11,69,244
Combo4 : 11,244,11

[HitObjects]
192,208,6219,1,2,0:0:0:0:
192,208,6406,1,2,0:0:0:0:
192,208,6594,1,0,0:0:0:0:
232,208,6687,1,0,0:0:0:0:
272,192,6781,1,0,0:0:0:0:
296,160,6875,1,0,0:0:0:0:
304,120,6969,1,2,0:0:0:0:
392,120,7156,1,0,0:0:0:0:
392,208,7344,1,0,0:0:0:0:
392,296,7531,1,0,0:0:0:0:
352,296,7625,1,0,0:0:0:0:
312,296,7719,6,0,B|240:296|216:248|208:184|216:136,1,200,2|0,0:0|0:0,0:0:0:0:
214,151,8281,2,0,B|208:184|216:248|240:296|312:296,1,200,2|2,0:0|0:0,0:0:0:0:
312,216,8844,1,0,0:0:0:0:
392,216,9031,1,0,0:0:0:0:
392,136,9219,6,2,B|392:80|304:56|248:88|248:144,1,200
248,216,9594,1,0,0:0:0:0:
168,216,9781,1,0,0:0:0:0:
168,136,9969,2,2,B|168:89|216:57|304:80|312:137,1,200
320,216,10344,1,0,0:0:0:0:
400,216,10531,1,0,0:0:0:0:
400,296,10719,6,2,B|400:352|312:376|256:344|256:288,1,200,2|2,0:0|0:0,0:0:0:0:
256,216,11094,1,0,0:0:0:0:
256,136,11281,2,2,B|256:80|344:56|400:88|400:144,1,200,2|2,0:0|0:0,0:0:0:0:
400,216,11844,1,0,0:0:0:0:
480,216,12031,1,0,0:0:0:0:
480,296,12219,6,0,B|336:296|336:168,1,200,6|0,0:0|0:0,0:0:0:0:
336,104,12781,1,0,0:0:0:0:
336,104,12875,1,0,0:0:0:0:
336,104,12969,1,0,0:0:0:0:
256,104,13156,1,0,0:0:0:0:
256,184,13344,1,0,0:0:0:0:
256,264,13531,1,0,0:0:0:0:
256,344,13719,6,0,B|168:344|144:296|144:256|144:208,1,200,2|0,0:0|0:0,0:0:0:0:
200,152,14281,1,0,0:0:0:0:
120,128,14469,2,2,B|328:352,2,300
120,48,15219,6,2,B|160:-8|200:48,1,100
200,128,15594,1,0,0:0:0:0:
280,128,15781,1,0,0:0:0:0:
280,128,15875,1,0,0:0:0:0:
280,128,15969,1,0,0:0:0:0:
280,208,16156,2,2,B|320:264|360:208,1,100,2|0,0:0|0:0,0:0:0:0:
360,128,16531,1,0,0:0:0:0:
440,128,16719,5,0,0:0:0:0:
440,208,16906,2,0,B|440:264|416:312|352:344|296:344,3,200,2|2|2|2,0:0|0:0|0:0|0:0,0:0:0:0:
232,344,18219,5,6,0:0:0:0:
224,24,18594,1,0,0:0:0:0:
232,344,18969,1,0,0:0:0:0:
224,24,19344,1,0,0:0:0:0:
232,344,19719,6,0,B|176:344,2,50,2|2|2,0:0|0:0|0:0,0:0:0:0:
232,264,20094,1,0,0:0:0:0:
232,264,20187,1,0,0:0:0:0:
232,264,20281,1,0,0:0:0:0:
160,304,20469,1,2,0:0:0:0:
432,136,20844,1,2,0:0:0:0:
160,304,21219,6,0,B|160:248,3,50
160,216,21594,2,0,B|224:216,3,50
248,216,21969,2,0,B|248:144,3,50
248,128,22344,2,0,B|312:128,3,50
336,128,22719,5,2,0:0:0:0:
16,128,23094,1,2,0:0:0:0:
336,128,23469,1,2,0:0:0:0:
336,128,23562,1,0,0:0:0:0:
336,128,23656,1,0,0:0:0:0:
336,288,23844,1,2,0:0:0:0:
16,288,24219,5,2,0:0:0:0:
16,288,24406,1,2,0:0:0:0:
96,288,24594,1,0,0:0:0:0:
176,288,24781,2,2,B|272:288|312:224|304:144,1,200
224,168,25344,1,0,0:0:0:0:
144,168,25531,1,0,0:0:0:0:
144,88,25719,6,2,B|224:88,2,50
64,88,26094,1,0,0:0:0:0:
64,88,26187,1,0,0:0:0:0:
64,88,26281,1,0,0:0:0:0:
64,168,26469,1,2,0:0:0:0:
384,168,26844,1,2,0:0:0:0:
64,168,27219,6,0,B|64:224,3,50
64,248,27594,2,0,B|160:248,3,50
152,248,27969,2,0,B|152:304,3,50
152,336,28344,2,0,B|216:336,3,50
240,336,28719,5,0,0:0:0:0:
320,336,28906,1,0,0:0:0:0:
320,296,29000,1,2,0:0:0:0:
320,256,29094,1,4,0:0:0:0:
320,256,29281,1,4,0:0:0:0:
320,176,29469,2,2,B|16:176,2,300
400,176,30219,5,6,0:0:0:0:
400,336,30594,1,8,0:0:0:0:
240,336,30969,1,2,0:0:0:0:
240,336,31156,1,0,0:0:0:0:
240,256,31344,1,8,0:0:0:0:
240,176,31531,1,2,0:0:0:0:
80,176,31906,1,2,0:0:0:0:
80,256,32094,1,8,0:0:0:0:
80,336,32281,1,0,0:0:0:0:
160,336,32469,1,2,0:0:0:0:
160,256,32656,1,0,0:0:0:0:
80,256,32844,1,10,0:0:0:0:
80,176,33031,1,2,0:0:0:0:
160,176,33219,5,6,0:0:0:0:
320,176,33594,1,8,0:0:0:0:
320,336,33969,1,2,0:0:0:0:
320,336,34156,1,0,0:0:0:0:
240,336,34344,1,8,0:0:0:0:
160,336,34531,1,2,0:0:0:0:
160,176,34906,1,2,0:0:0:0:
240,176,35094,1,8,0:0:0:0:
320,176,35281,1,2,0:0:0:0:
320,16,35656,1,4,0:0:0:0:
320,16,35844,1,12,0:0:0:0:
320,16,36031,1,4,0:0:0:0:
320,96,36219,5,6,0:0:0:0:
160,96,36594,1,8,0:0:0:0:
160,256,36969,1,2,0:0:0:0:
240,256,37156,1,0,0:0:0:0:
320,256,37344,1,8,0:0:0:0:
400,256,37531,1,2,0:0:0:0:
400,96,37906,1,2,0:0:0:0:
400,176,38094,1,8,0:0:0:0:
320,176,38281,1,0,0:0:0:0:
320,96,38469,1,2,0:0:0:0:
240,96,38656,1,0,0:0:0:0:
240,136,38750,1,0,0:0:0:0:
240,176,38844,1,10,0:0:0:0:
160,176,39031,1,2,0:0:0:0:
160,96,39219,6,0,B|88:96,3,50
72,96,39594,2,0,B|72:168,3,50
72,184,39969,2,0,B|136:184,3,50
160,184,40344,2,0,B|160:128,3,50
160,96,40719,1,2,0:0:0:0:
240,96,40906,1,2,0:0:0:0:
320,96,41094,1,10,0:0:0:0:
400,96,41281,1,2,0:0:0:0:
400,176,41469,5,0,0:0:0:0:
400,296,41750,1,0,0:0:0:0:
280,296,42031,1,0,0:0:0:0:
280,216,42219,5,12,0:0:0:0:
200,216,42406,1,0,0:0:0:0:
200,256,42500,1,8,0:0:0:0:
200,336,42687,1,0,0:0:0:0:
160,336,42781,1,8,0:0:0:0:
160,256,42969,5,12,0:0:0:0:
160,176,43156,1,0,0:0:0:0:
200,176,43250,1,8,0:0:0:0:
280,176,43437,1,0,0:0:0:0:
240,176,43531,1,8,0:0:0:0:
240,256,43719,5,8,0:0:0:0:
320,256,43906,1,0,0:0:0:0:
320,296,44000,1,8,0:0:0:0:
376,352,44187,1,0,0:0:0:0:
416,352,44281,1,8,0:0:0:0:
496,352,44469,5,6,0:0:0:0:
256,32,44750,5,6,0:0:0:0:
16,344,45031,5,6,0:0:0:0:
256,192,45219,5,4,0:0:0:0:
416,192,45594,5,2,0:0:0:0:
416,352,45969,1,2,0:0:0:0:
256,352,46344,1,2,0:0:0:0:
256,192,46719,1,2,0:0:0:0:
256,272,46906,1,2,0:0:0:0:
336,272,47094,1,2,0:0:0:0:
336,192,47281,1,0,0:0:0:0:
176,192,47656,1,2,0:0:0:0:
256,192,48031,12,2,49156,0:0:0:0:
320,192,49531,5,2,0:0:0:0:
320,112,49719,2,0,B|320:56,3,50
280,64,50094,2,0,B|280:128,3,50
240,112,50469,2,0,B|240:48,3,50
200,64,50844,2,0,B|200:128,3,50
200,152,51219,5,4,0:0:0:0:
200,312,51594,1,2,0:0:0:0:
360,312,51969,1,2,0:0:0:0:
360,152,52344,1,2,0:0:0:0:
280,288,52719,1,2,0:0:0:0:
236,220,52906,1,2,0:0:0:0:
200,152,53094,1,0,0:0:0:0:
280,152,53281,2,2,B|352:168|368:224|344:264|240:304,1,200
440,280,54031,1,2,0:0:0:0:
256,192,54219,12,2,55156,0:0:0:0:
256,192,55531,12,2,56844,0:0:0:0:
456,192,57219,5,4,0:0:0:0:
256,192,57594,5,2,0:0:0:0:
64,272,57969,1,0,0:0:0:0:
64,192,58156,1,2,0:0:0:0:
64,32,58531,2,0,B|168:56|216:184,1,200,2|2,0:0|0:0,0:0:0:0:
64,288,59281,2,0,B|168:264|216:136,1,200,2|2,0:0|0:0,0:0:0:0:
288,160,59844,1,0,0:0:0:0:
206,158,60031,1,0,0:0:0:0:
288,160,60219,5,4,0:0:0:0:
448,160,60594,5,0,0:0:0:0:
360,296,60969,1,0,0:0:0:0:
280,296,61156,1,2,0:0:0:0:
120,296,61531,2,2,B|184:296|272:232|280:184,1,200,2|0,0:0|0:0,0:0:0:0:
200,192,62094,1,2,0:0:0:0:
279,191,62281,2,2,B|273:150|185:86|121:86,1,200
40,88,62844,1,2,0:0:0:0:
40,248,63219,5,0,0:0:0:0:
168,336,63594,5,2,0:0:0:0:
328,256,63969,1,0,0:0:0:0:
328,336,64156,1,2,0:0:0:0:
168,256,64531,2,2,B|112:256|72:216|80:152|168:144,1,200
328,256,65281,2,2,B|384:256|424:216|416:152|328:144,1,200
248,144,65844,1,0,0:0:0:0:
248,224,66031,1,0,0:0:0:0:
248,304,66219,5,6,0:0:0:0:
408,304,66594,1,2,0:0:0:0:
408,224,66781,1,2,0:0:0:0:
248,224,67156,1,6,0:0:0:0:
88,224,67531,1,6,0:0:0:0:
88,304,67719,2,4,B|168:200,1,100
152,224,68094,2,4,B|232:328,1,100
216,304,68469,2,4,B|296:200,1,100
280,224,68844,2,4,B|360:328,1,100
408,224,69219,6,2,B|408:152,3,50,2|0|2|0,0:0|0:0|0:0|0:0,0:0:0:0:
408,136,69594,2,0,B|344:136,3,50
360,176,69969,2,0,B|360:232,3,50
360,264,70344,2,0,B|416:264,3,50
448,264,70719,5,0,0:0:0:0:
448,264,71094,5,0,0:0:0:0:
448,264,71469,5,0,0:0:0:0:
448,264,71844,5,0,0:0:0:0:
104,160,72219,6,2,B|104:232,3,50,2|0|2|0,0:0|0:0|0:0|0:0,0:0:0:0:
104,248,72594,2,0,B|168:248,3,50
152,208,72969,2,0,B|152:152,3,50
152,120,73344,2,0,B|96:120,3,50
64,120,73719,5,0,0:0:0:0:
64,120,74094,5,0,0:0:0:0:
64,120,74469,5,0,0:0:0:0:
64,120,74844,5,0,0:0:0:0:
64,280,75219,6,2,B|112:320|160:272,1,100
232,280,75594,1,0,0:0:0:0:
232,200,75781,2,0,B|280:136|288:96|264:48|208:0,2,200,2|2|2,0:0|0:0|0:0,0:0:0:0:
192,200,76625,1,2,0:0:0:0:
152,200,76719,1,2,0:0:0:0:
112,200,76812,1,2,0:0:0:0:
72,200,76906,1,2,0:0:0:0:
72,280,77094,1,0,0:0:0:0:
152,280,77281,2,0,B|200:360|208:376|248:176|296:376,2,200,2|2|2,0:0|0:0|0:0,0:0:0:0:
256,192,78219,12,2,79719,0:0:0:0:
32,344,80469,5,2,0:0:0:0:
256,32,80750,5,2,0:0:0:0:
480,344,81031,5,2,0:0:0:0:
400,344,81219,6,0,B|288:344|256:280|256:208,1,200,2|0,0:0|0:0,0:0:0:0:
336,232,81781,1,0,0:0:0:0:
257,234,81969,2,0,B|259:189|227:125|115:125,1,200,2|0,0:0|0:0,0:0:0:0:
112,48,82531,1,0,0:0:0:0:
116,125,82719,2,0,B|48:152|32:176|40:264|152:256,1,200,2|0,0:0|0:0,0:0:0:0:
120,256,83281,2,0,B|188:229|208:200|196:117|84:125,1,200,2|2,0:0|0:0,0:0:0:0:
112,48,83844,1,0,0:0:0:0:
272,48,84219,5,2,0:0:0:0:
272,128,84406,2,0,B|400:152|464:208|344:264|272:272,1,300,2|2,0:0|0:0,0:0:0:0:
272,272,85156,2,0,B|144:248|80:192|200:136|272:128,1,300,2|2,0:0|0:0,0:0:0:0:
270,48,85906,2,0,B|270:266,1,200,2|2,0:0|0:0,0:0:0:0:
272,272,86469,1,0,0:0:0:0:
272,272,86656,1,0,0:0:0:0:
272,272,86844,1,2,0:0:0:0:
272,272,87031,1,0,0:0:0:0:
272,272,87125,1,0,0:0:0:0:
272,272,87219,6,0,B|392:272|400:192,1,150,2|0,0:0|0:0,0:0:0:0:
396,209,87594,1,0,0:0:0:0:
392,48,87969,2,0,B|264:48|256:96|240:136,1,150,2|0,0:0|0:0,0:0:0:0:
257,96,88344,1,2,0:0:0:0:
256,256,88719,1,2,0:0:0:0:
480,40,89469,5,2,0:0:0:0:
256,352,89750,5,2,0:0:0:0:
32,40,90031,5,2,0:0:0:0:
112,40,90219,6,2,B|216:40,1,100
232,72,90500,1,0,0:0:0:0:
256,40,90594,1,0,0:0:0:0:
272,72,90687,1,0,0:0:0:0:
296,40,90781,1,0,0:0:0:0:
312,72,90874,1,0,0:0:0:0:
336,40,90969,1,0,0:0:0:0:
416,40,91156,1,2,0:0:0:0:
416,280,91719,6,2,B|360:280|336:224,1,100,2|0,0:0|0:0,0:0:0:0:
336,184,92000,6,2,B|336:112|400:80,1,100,2|0,0:0|0:0,0:0:0:0:
416,96,92281,5,2,0:0:0:0:
415,175,92469,6,2,B|383:221|323:208,1,100,2|0,0:0|0:0,0:0:0:0:
291,185,92750,6,2,B|232:144|242:73,1,100,2|0,0:0|0:0,0:0:0:0:
265,69,93031,5,2,0:0:0:0:
328,112,93219,6,2,B|232:160,1,100
208,176,93500,5,2,0:0:0:0:
168,192,93594,5,2,0:0:0:0:
128,208,93687,5,0,0:0:0:0:
88,224,93781,5,0,0:0:0:0:
48,240,93875,5,0,0:0:0:0:
80,264,93969,6,2,B|80:376,1,100,2|0,0:0|0:0,0:0:0:0:
120,360,94250,6,2,B|120:256,1,100,2|0,0:0|0:0,0:0:0:0:
160,261,94531,5,2,0:0:0:0:
256,192,94719,12,0,96969,0:0:0:0:
48,192,97719,6,0,B|48:288,1,50,4|2,0:0|0:0,0:0:0:0:
96,240,98094,1,0,0:0:0:0:
144,240,98281,6,2,B|216:240,1,50,4|2,0:0|0:0,0:0:0:0:
192,192,98656,1,0,0:0:0:0:
192,144,98844,6,0,B|192:88,1,50,4|2,0:0|0:0,0:0:0:0:
144,96,99219,1,0,0:0:0:0:
96,96,99406,6,4,B|40:96,1,50,4|2,0:0|0:0,0:0:0:0:
48,144,99781,1,2,0:0:0:0:
80,184,99969,6,4,B|136:184,1,50,4|2,0:0|0:0,0:0:0:0:
16,184,100344,2,0,B|16:240,1,50,6|0,0:0|0:0,0:0:0:0:
64,232,100719,5,2,0:0:0:0:
112,232,100906,1,0,0:0:0:0:
160,232,101094,5,2,0:0:0:0:
208,232,101281,1,0,0:0:0:0:
184,184,101469,5,2,0:0:0:0:
232,184,101656,1,0,0:0:0:0:
280,184,101844,5,2,0:0:0:0:
328,184,102031,1,0,0:0:0:0:
328,280,102406,6,4,B|384:248|384:192,1,100
408,104,103156,2,0,B|424:168|464:192,1,100,4|0,0:0|0:0,0:0:0:0:
464,192,103719,6,0,B|464:288,1,50,4|2,0:0|0:0,0:0:0:0:
416,240,104094,1,0,0:0:0:0:
368,240,104281,6,2,B|296:240,1,50,4|2,0:0|0:0,0:0:0:0:
320,192,104656,1,0,0:0:0:0:
320,144,104844,6,0,B|320:88,1,50,4|2,0:0|0:0,0:0:0:0:
368,96,105219,1,0,0:0:0:0:
416,96,105406,6,4,B|472:96,1,50,4|2,0:0|0:0,0:0:0:0:
464,144,105781,1,2,0:0:0:0:
432,184,105969,6,4,B|376:184,1,50,4|2,0:0|0:0,0:0:0:0:
496,184,106344,2,0,B|496:240,1,50,6|0,0:0|0:0,0:0:0:0:
448,232,106719,5,2,0:0:0:0:
400,232,106906,1,0,0:0:0:0:
352,232,107094,5,2,0:0:0:0:
304,232,107281,1,0,0:0:0:0:
328,184,107469,5,2,0:0:0:0:
280,184,107656,1,0,0:0:0:0:
232,184,107844,5,2,0:0:0:0:
184,184,108031,1,0,0:0:0:0:
184,280,108406,6,4,B|128:248|168:176,1,100
176,112,109156,2,4,B|104:144|176:208,1,100
256,192,109719,5,4,0:0:0:0:
416,192,110094,1,8,0:0:0:0:
336,328,110469,1,0,0:0:0:0:
336,328,110656,1,8,0:0:0:0:
176,328,111031,2,8,B|112:240|184:128,1,200
336,328,111781,2,8,B|400:240|328:128,1,200
176,328,112531,6,8,B|112:240|184:128,1,200
336,328,113281,2,8,B|400:240|328:128,1,200
256,280,114031,2,8,B|256:72,1,200,8|0,0:0|0:0,0:0:0:0:
256,80,114594,1,8,0:0:0:0:
256,80,114781,2,8,B|256:288,1,200
256,280,115344,1,8,0:0:0:0:
96,280,115719,5,4,0:0:0:0:
96,280,116094,1,8,0:0:0:0:
96,120,116469,1,0,0:0:0:0:
96,120,116656,1,8,0:0:0:0:
256,120,117031,2,8,B|464:120,1,200
256,280,117781,2,8,B|464:280,1,200
32,192,118719,6,2,B|208:304|440:176,1,400
412,193,119281,6,2,B|208:80|32:192,1,400
33,191,120031,5,2,0:0:0:0:
33,191,120219,6,4,B|472:192,1,400,6|4,0:0|0:0,0:0:0:0:
479,191,120594,6,4,B|40:192,1,400,6|4,0:0|0:0,0:0:0:0:
33,191,120969,6,4,B|472:192,1,400,6|4,0:0|0:0,0:0:0:0:
479,191,121344,6,4,B|40:192,1,400,6|4,0:0|0:0,0:0:0:0:
256,32,121719,5,6,0:0:0:0:
256,192,121813,12,0,122282,0:0:0:0:
40,192,127720,6,2,B|160:192|176:72,1,200
96,72,128282,1,0,0:0:0:0:
256,72,128657,1,2,0:0:0:0:
256,152,128845,1,2,0:0:0:0:
256,232,129032,1,0,0:0:0:0:
256,312,129220,6,2,B|360:312|408:240|408:168,1,200
320,200,129782,1,0,0:0:0:0:
160,200,130157,1,2,0:0:0:0:
160,280,130345,1,2,0:0:0:0:
80,280,130532,1,0,0:0:0:0:
80,200,130720,5,0,0:0:0:0:
80,120,130907,5,0,0:0:0:0:
120,120,131001,1,0,0:0:0:0:
160,120,131095,1,0,0:0:0:0:
208,184,131282,5,0,0:0:0:0:
248,184,131376,1,0,0:0:0:0:
288,184,131470,1,0,0:0:0:0:
328,256,131657,5,0,0:0:0:0:
368,256,131751,1,0,0:0:0:0:
408,256,131845,1,0,0:0:0:0:
464,312,132032,5,2,0:0:0:0:
48,312,132407,5,2,0:0:0:0:
48,72,132782,5,2,0:0:0:0:
464,72,133157,5,2,0:0:0:0:
256,192,133345,5,6,0:0:0:0:
256,192,133720,5,6,0:0:0:0:
256,192,133813,12,0,139345,0:0:0:0:
64,232,139720,5,4,0:0:0:0:
200,232,139907,1,0,0:0:0:0:
336,232,140095,2,2,B|400:232|400:160,1,100
400,32,140470,1,2,0:0:0:0:
256,32,140657,1,2,0:0:0:0:
112,32,140845,2,0,B|56:32|40:32|40:88,1,100,2|0,0:0|0:0,0:0:0:0:
48,216,141220,5,4,0:0:0:0:
184,216,141407,1,0,0:0:0:0:
320,216,141595,2,2,B|392:216|392:280,1,100
248,272,141970,1,2,0:0:0:0:
104,272,142157,1,2,0:0:0:0:
104,128,142345,2,0,B|104:64|40:64,1,100,2|0,0:0|0:0,0:0:0:0:
48,200,142720,5,0,0:0:0:0:
184,200,142907,1,0,0:0:0:0:
320,200,143095,2,2,B|320:136|392:136,1,100
384,272,143470,1,2,0:0:0:0:
240,272,143657,1,2,0:0:0:0:
96,272,143845,2,0,B|96:336|16:336,1,100,2|0,0:0|0:0,0:0:0:0:
256,192,144220,12,2,147032,0:0:0:0:
