osu file format v9

[General]
AudioFilename: 05_-_Brad_Sucks_-_Sick_As_A_Dog.mp3
AudioLeadIn: 3000
PreviewTime: 41706
Countdown: 2
SampleSet: Normal
StackLeniency: 0.7
Mode: 0
LetterboxInBreaks: 1

[Editor]
DistanceSpacing: 0.5
BeatDivisor: 4
GridSize: 4

[Metadata]
Title:Sick as a Dog
Artist:Brad Sucks
Creator:kikoredog
Version:Easy
Source:brad sucks
Tags:brad sucks sick as a dog kikoredog

[Difficulty]
HPDrainRate:4
CircleSize:3
OverallDifficulty:0
ApproachRate:2
SliderMultiplier:1.2
SliderTickRate:2

[Events]
//Background and Video events
0,0,"1.0.jpg"
//Break Periods
2,82184,98992
2,150457,153838
//Storyboard Layer 0 (Background)
//Storyboard Layer 1 (Fail)
//Storyboard Layer 2 (Pass)
//Storyboard Layer 3 (Foreground)
//Storyboard Sound Samples
//Background Colour Transformations
3,100,163,162,255

[TimingPoints]
0,571.319748619311,4,1,0,55,1,0
45705,-100,4,1,0,55,0,1
63987,-100,4,1,0,55,0,0
100552,-100,4,1,0,55,0,1
118834,-100,4,1,0,55,0,0

[HitObjects]
32,72,0,2,0,B|144:-4|264:80,1,240
304,112,1713,1,2
264,160,2285,6,0,B|376:236|496:152,1,240
480,96,3999,1,2
432,64,4570,6,0,B|352:64|376:192|328:200|288:192|238:185,1,240
200,160,6284,1,2
140,168,6855,6,0,B|135:201|127:241|135:289|263:265|263:345,1,240
324,344,8569,1,2
376,312,9141,5,8
376,252,9712,1,10
344,200,10283,2,8,B|208:288|208:288|262:363,1,240
312,344,11997,5,10
372,340,12569,2,8,B|398:179|398:179|322:159,1,240
264,152,14282,5,10
208,136,14854,1,8
196,196,15425,1,10
256,208,15996,1,8
260,148,16568,6,8,B|156:236,2,120,10|8|10
304,108,18282,5,8
352,144,18853,1,10
400,184,19424,6,8,B|309:305|199:181,1,240
152,152,21138,1,10
200,120,21710,6,8,B|310:-4|407:135,1,240
400,184,23424,5,8
400,244,23995,1,10
340,244,24566,1,8
344,184,25138,1,10
284,180,25709,1,8
228,196,26280,2,8,B|170:213,1,60
112,236,26852,1,10
80,152,27994,5,8
96,96,28565,2,8,B|160:32|208:111,1,120
232,144,29708,1,0
292,144,30279,5,8
296,84,30851,2,8,B|360:20|408:99,1,120
400,144,31993,5,2
400,204,32565,1,8
352,240,33136,1,2
300,268,33707,1,8
240,260,34279,6,8,B|200:332|200:332|144:280|128:264|128:264|56:332|56:332|8:244,1,360
16,200,36564,1,2
16,140,37135,5,8
76,140,37707,1,2
76,199,38278,2,8,B|127:261|192:186,1,120
200,144,39421,6,10,B|296:60,1,120
340,98,40563,2,8,B|281:216,1,120
336,240,41706,6,8,B|454:157,1,120
448,112,42848,1,10
388,112,43420,6,8,B|252:112,1,120
208,116,44562,2,10,B|247:162|247:162|207:206,1,120
204,268,45705,6,8,B|240:304|240:304|272:260|272:260|308:304|308:304|348:260|348:260|367:281|367:281|380:273,1,240
420,268,47419,1,0
420,208,47990,6,8,B|420:80,1,120
372,124,49133,1,2
328,168,49704,1,8
288,124,50276,6,8,B|263:95|263:95|223:139|223:139|187:95|187:95|155:139|155:139|119:103,2,240
288,184,53132,5,8
288,244,53704,2,8,B|347:306|400:236,1,120
396,188,54846,6,8,B|440:169|452:151|460:127|460:106|455:84|447:64|430:48|410:37|393:34|367:32|343:35|318:47|301:61|309:96|334:117|364:120|381:113,2,360
336,192,58845,5,8
280,204,59417,2,0,B|200:228,2,60
320,224,60559,6,0,B|348:290,2,60
296,168,61702,6,0,B|256:100,2,60
336,184,62845,6,0,B|412:144,2,60
280,208,63987,6,8,B|229:232|165:164,1,120
116,184,65130,2,8,B|98:126|146:50,1,120
152,128,66273,2,8,B|213:120|257:59,1,120
308,52,67415,5,8
364,52,67987,2,8,B|396:176,1,120
376,224,69129,6,0,B|292:224,2,60
364,284,70272,2,8,B|344:328|344:328|252:296,1,120
216,292,71414,1,8
156,284,71986,2,8,B|90:237|169:181,2,120
216,288,73700,5,2
216,288,73985,1,2
216,288,74271,2,8,B|340:288,1,120
396,184,75985,5,2
396,184,76271,1,2
396,184,76556,2,8,B|472:133|380:82,1,120
336,88,77699,5,2
336,148,78270,1,8
284,116,78842,1,2
280,176,79413,2,8,B|276:244|280:244,2,60
236,132,80556,1,8
176,132,81127,5,8
176,132,81413,1,8
176,132,81698,1,8
176,132,81984,1,8
348,232,100552,6,8,B|433:217|448:303,2,120
296,260,102266,1,8
240,280,102837,1,8
180,276,103408,6,8,B|38:207|123:77,1,240
176,60,105122,2,8,B|296:60,1,120
320,116,106265,6,8,B|260:116,2,60
364,156,107408,2,8,B|448:136|428:51,2,120
320,196,109122,5,8
260,204,109693,2,8,B|235:175|235:175|195:219|195:219|159:175|159:175|127:219|127:219|91:183,2,240
308,240,112549,5,8
308,240,112835,1,8
308,240,113121,2,8,B|384:240,2,60
248,244,114263,6,8,B|204:284|204:284|156:236,1,120
128,192,115406,2,8,B|172:152|172:152|220:200,1,120
180,244,116549,2,8,B|224:284|224:284|272:236,1,120
308,196,117691,5,8
308,196,117977,1,8
308,196,118263,1,8
308,196,118548,1,8
220,196,119405,5,0
160,196,119977,2,0,B|105:244|37:181,1,120
48,132,121119,1,0
48,72,121691,5,0
108,60,122262,2,0,B|147:107|147:107|96:158,1,120
144,196,123405,1,0
196,168,123976,5,0
264,196,124547,1,0
324,196,125119,1,0
324,136,125690,2,0,B|282:94|282:94|322:47,1,120
380,60,126832,5,0
380,120,127404,1,0
364,180,127975,2,0,B|287:301,1,120
239,281,129118,6,0,B|162:160,1,120
116,172,130260,1,0
56,172,130832,5,0
40,228,131403,2,0,B|99:293|156:215,1,120
196,208,132546,2,0,B|320:264,1,120
364,260,133688,6,0,B|483:211,1,120
464,156,134831,2,0,B|348:100,1,120
296,104,135974,2,0,B|177:154,1,120
180,212,137116,6,0,B|179:336,1,120
240,336,138259,2,0,B|383:336,1,120
400,288,139402,1,0
360,240,139973,5,0
360,120,141115,1,0
240,120,142258,1,0
120,116,143401,5,0
120,236,144543,1,0
240,240,145686,1,0
360,240,146829,5,0
240,240,147971,1,0
360,236,149114,5,0
356,116,150257,1,0
452,280,155398,6,8,B|412:236|412:236|364:288,1,120
312,280,156541,1,8
288,224,157112,1,8
248,268,157684,6,8,B|108:268,1,120
88,224,158826,1,8
140,196,159398,1,8
200,180,159969,6,8,B|336:224,1,120
368,240,161112,1,8
396,188,161683,6,8,B|456:172|456:172|424:119,1,120
368,100,162826,2,8,B|308:116|308:116|340:169,1,120
284,192,163968,1,8
256,192,164254,12,0,166825
252,72,168539,2,8,B|195:23|135:82,1,120
140,132,169681,1,8
136,192,170253,6,8,B|255:193,1,120
255,193,171395,6,8,B|136:192,1,120
132,252,172538,1,8
176,292,173109,5,8
176,292,173395,1,8
176,292,173681,1,12
