osu file format v14

[General]
AudioFilename: Boxplot - Escape With The Clouds.mp3
AudioLeadIn: 0
PreviewTime: -1
Countdown: 1
SampleSet: Soft
StackLeniency: 0.7
Mode: 0
LetterboxInBreaks: 1
WidescreenStoryboard: 0

[Editor]
Bookmarks: 22957,44530,55317,87676,130822,152395,173969,217115,238688,244081,249474,254867,260261,300710,303407,324980,346553,389699
DistanceSpacing: 1.5
BeatDivisor: 4
GridSize: 4
TimelineZoom: 1

[Metadata]
Title:Escape With The Clouds
TitleUnicode:Escape With The Clouds
Artist:Boxplot
ArtistUnicode:Boxplot
Creator:Tyl
Version:Celestial Departure
Source:
Tags:
BeatmapID:962270
BeatmapSetID:448329

[Difficulty]
HPDrainRate:7
CircleSize:4
OverallDifficulty:8.5
ApproachRate:9.3
SliderMultiplier:1.90000000596046
SliderTickRate:1

[Events]
//Background and Video events
//Break Periods
2,55517,65549
//Storyboard Layer 0 (Background)
//Storyboard Layer 1 (Fail)
//Storyboard Layer 2 (Pass)
//Storyboard Layer 3 (Foreground)
//Storyboard Sound Samples

[TimingPoints]
1384.66332537016,337.078852459017,4,2,0,100,1,0
22957,-125,4,2,0,100,0,0
27676,-99.9999999999999,4,2,0,100,0,0
28013,-83.3333333333333,4,2,0,100,0,0
28350,-125,4,2,0,100,0,0
33070,-100,4,2,0,100,0,0
33407,-83.3333333333333,4,2,0,100,0,0
33744,-111.111111111111,4,2,0,100,0,0
38463,-90.9090909090909,4,2,0,100,0,0
38800,-76.9230769230769,4,2,0,100,0,0
40148,-100,4,2,0,100,0,0
43856,-83.3333333333333,4,2,0,100,0,0
44193,-71.4285714285714,4,2,0,100,0,0
44867,-200,4,2,0,100,0,0
66103,-125,4,2,0,100,0,0

[HitObjects]
256,192,20261,12,0,22789,0:0:0:0:
110,276,22957,6,0,P|108:317|100:355,1,76.0000002384184
200,290,23294,2,0,P|193:252|192:214,1,76.0000002384184
296,180,23631,2,0,P|284:216|280:253,1,76.0000002384184
390,201,23968,2,0,P|388:155|376:110,1,76.0000002384184
303,89,24306,6,0,P|265:102|206:107,1,76.0000002384184
239,193,24643,2,0,P|204:180|166:175,1,76.0000002384184
149,86,24980,2,0,P|110:83|53:49,1,76.0000002384184
87,161,25317,2,0,P|51:173|22:197,1,76.0000002384184
302,89,25654,6,0,P|291:151|298:196,1,76.0000002384184
203,157,25991,2,0,P|226:232|221:257,1,76.0000002384184
307,241,26328,2,0,P|293:307|303:336,1,76.0000002384184
213,311,26665,2,0,P|177:346|137:356,1,76.0000002384184
135,257,27002,6,0,L|135:151,1,76.0000002384184
147,166,27255,1,0,0:0:0:0:
160,152,27339,2,0,P|191:95|160:37,1,114.000000357628
113,94,27676,2,0,P|76:204|106:237,1,142.500000447034
147,166,28013,2,0,P|262:154|277:101,1,170.999995317936
239,42,28350,6,0,P|206:66|201:123,1,76.0000002384184
255,245,28688,2,0,P|315:204|332:171,1,76.0000002384184
113,93,29025,2,0,P|123:160|141:183,1,76.0000002384184
322,102,29362,2,0,P|321:42|306:16,1,76.0000002384184
194,299,29699,6,0,P|263:327|294:314,1,76.0000002384184
258,139,30036,2,0,P|182:132|155:147,1,76.0000002384184
110,262,30373,2,0,P|117:342|128:358,1,76.0000002384184
309,275,30710,2,0,P|320:223|310:192,1,76.0000002384184
144,48,31047,6,0,P|123:101|132:143,1,76.0000002384184
208,224,31384,2,0,P|220:188|219:151,1,76.0000002384184
110,231,31721,2,0,P|111:297|126:331,1,76.0000002384184
298,150,32058,2,0,P|290:116|241:78,1,76.0000002384184
182,355,32395,6,0,L|293:354,1,76.0000002384184
271,341,32648,1,0,0:0:0:0:
285,328,32732,2,0,P|344:317|375:246,1,114.000000357628
289,234,33070,2,0,P|295:145|358:98,1,142.500000447034
389,191,33407,2,0,P|423:63|390:37,1,170.999995317936
334,115,33744,6,0,P|271:140|228:121,1,85.4999976589678
161,82,34081,1,0,0:0:0:0:
174,235,34249,1,0,0:0:0:0:
174,235,34334,1,0,0:0:0:0:
174,235,34418,1,0,0:0:0:0:
277,65,34586,1,0,0:0:0:0:
71,215,34755,2,0,P|85:295|106:320,1,85.4999976589678
261,213,35092,6,0,P|326:209|362:233,1,85.4999976589678
422,316,35429,1,0,0:0:0:0:
454,162,35598,1,0,0:0:0:0:
454,162,35682,1,0,0:0:0:0:
454,162,35766,1,0,0:0:0:0:
291,299,35935,1,0,0:0:0:0:
222,130,36103,2,0,P|177:180|169:224,1,85.4999976589678
348,181,36440,6,0,P|375:126|364:68,1,85.4999976589678
264,30,36777,1,0,0:0:0:0:
255,209,36946,1,0,0:0:0:0:
255,209,37030,1,0,0:0:0:0:
255,209,37115,1,0,0:0:0:0:
55,99,37283,1,0,0:0:0:0:
135,250,37452,2,0,P|146:300|140:346,1,85.4999976589678
174,154,37789,6,0,L|175:52,1,85.4999976589678
186,50,38041,1,0,0:0:0:0:
201,35,38126,2,0,P|270:56|348:17,1,128.249996488452
404,75,38463,2,0,P|341:125|232:128,1,156.750005275368
202,203,38800,2,0,B|263:261|387:177|387:279,1,185.249992101073
328,315,39137,5,0,0:0:0:0:
435,172,39306,1,0,0:0:0:0:
432,335,39474,1,0,0:0:0:0:
237,268,39643,1,0,0:0:0:0:
237,268,39727,1,0,0:0:0:0:
237,268,39811,1,0,0:0:0:0:
464,239,39980,1,0,0:0:0:0:
265,161,40148,2,0,P|196:158|155:185,1,95.000000298023
148,331,40485,5,0,0:0:0:0:
314,283,40654,1,0,0:0:0:0:
95,187,40822,1,0,0:0:0:0:
275,74,40991,1,0,0:0:0:0:
275,74,41075,1,0,0:0:0:0:
275,74,41159,1,0,0:0:0:0:
227,235,41328,1,0,0:0:0:0:
387,132,41497,2,0,P|403:99|395:42,1,95.000000298023
362,302,41834,5,0,0:0:0:0:
362,302,42002,1,0,0:0:0:0:
284,153,42171,1,0,0:0:0:0:
230,358,42339,1,0,0:0:0:0:
230,358,42424,1,0,0:0:0:0:
230,358,42508,1,0,0:0:0:0:
168,107,42676,1,0,0:0:0:0:
130,261,42845,2,0,P|119:331|95:366,1,95.000000298023
271,230,43182,6,0,P|313:227|360:157,1,95.000000298023
361,171,43435,1,0,0:0:0:0:
358,147,43519,2,0,P|390:72|452:58,1,142.500000447034
452,192,43856,2,0,P|392:273|313:235,1,170.999995317936
278,144,44193,2,0,B|210:100|143:186|131:159|131:159|111:168|111:168|45:133,1,199.499994537592
142,50,44530,5,0,0:0:0:0:
341,107,44867,2,0,B|385:210|256:204|304:329|304:329|271:329|271:329|280:368|280:368|265:288|171:286|171:286|194:232|152:219|184:180,1,570.000001788138
337,97,47227,5,0,0:0:0:0:
360,261,47564,2,0,B|297:239|244:287|244:287|274:219|274:219|181:333|19:283|48:148|63:119|114:88,1,570.000001788138
207,48,49924,5,0,0:0:0:0:
160,228,50261,2,0,B|177:277|124:332|124:332|174:375|253:252|348:331|348:331|340:263|379:246|379:246|354:218|354:218|505:244|504:51|466:0|254:-9|271:131|304:175,1,950.00000298023
375,133,53968,6,0,P|401:179|396:221,1,95.000000298023
296,288,54643,2,0,P|306:325|322:345,2,47.5000001490115
315,193,55317,5,0,0:0:0:0:
256,192,66103,6,0,L|348:201,2,76.0000002384184
316,296,66777,2,0,L|414:318,2,76.0000002384184
136,168,67452,6,0,L|128:264,2,76.0000002384184
256,92,68126,2,0,L|249:167,2,76.0000002384184
352,240,68800,6,0,L|344:328,1,76.0000002384184
352,332,69137,1,0,0:0:0:0:
388,136,69474,2,0,L|396:48,1,76.0000002384184
408,48,69811,1,0,0:0:0:0:
208,216,70148,6,0,L|120:224,1,76.0000002384184
120,236,70485,1,0,0:0:0:0:
192,100,70654,2,0,L|216:40,2,38.0000001192092
92,132,70991,1,0,0:0:0:0:
276,164,71159,1,0,0:0:0:0:
276,164,71244,1,0,0:0:0:0:
188,292,71412,1,0,0:0:0:0:
188,292,71496,6,0,P|184:332|192:384,2,76.0000002384184
328,256,72170,2,0,P|372:265|436:260,2,76.0000002384184
