osu file format v7

[General]
AudioFilename: Endless Possibilities.mp3
AudioLeadIn: 0
PreviewTime: 55381
Countdown: 1
SampleSet: Soft
StackLeniency: 0.7
Mode: 0
LetterboxInBreaks: 1

[Editor]
Bookmarks: 18413,36827,49486,73797,82861,101274,110481
DistanceSpacing: 0.800000011920929
BeatDivisor: 4
GridSize: 8

[Metadata]
Title:Endless Possibility
Artist:Bowling for Soup
Creator:Umbaupause
Version:Easy
Source:Sonic Unleashed
Tags:Sega Jaret Reddick Chris Burney Gary Wiseman Erik Chandler

[Difficulty]
HPDrainRate:3
CircleSize:5
OverallDifficulty:3
SliderMultiplier:1.2
SliderTickRate:2

[Events]
//Background and Video events
0,0,"Sonic_Unleashed.jpg"
//Break Periods
2,14002,16966
2,73852,81421
//Storyboard Layer 0 (Background)
//Storyboard Layer 1 (Fail)
//Storyboard Layer 2 (Pass)
//Storyboard Layer 3 (Foreground)
//Storyboard Sound Samples
//Background Colour Transformations
3,100,163,162,255

[TimingPoints]
8336,575.484366008057,4,2,0,100,1,0

[HitObjects]
256,144,8336,1,0
224,208,8623,2,0,B|312:208,2,60
256,352,10062,1,8
224,288,10494,1,8
200,224,10925,1,0
256,224,11213,2,0,B|320:224,1,60
456,192,12364,1,8
384,176,12796,1,8
312,160,13227,1,0
256,160,13515,2,0,B|192:160,1,60
40,160,18406,6,0,B|136:64,1,120,0|2
192,64,19557,2,0,B|320:64,1,120,0|8
377,76,20708,2,0,B|473:172,1,120,0|2
461,223,21859,6,0,B|377:308,1,120,0|8
312,328,23010,2,0,B|168:328,1,120,0|2
128,312,24161,2,0,B|83:243|131:171,1,120,0|8
224,160,25312,6,0,B|288:160,2,60
224,224,26463,2,0,B|288:224,2,60,0|0|8
64,224,27614,5,0
160,256,28190,1,0
256,288,28765,1,0
256,192,29341,1,8
256,96,29916,1,0
352,128,30492,1,0
448,160,31067,1,0
384,232,31643,1,8
296,240,32218,6,0,B|296:176,3,60,0|0|0|0
296,136,33369,1,2
256,64,33945,1,8
208,136,34520,2,0,B|208:200,3,60,0|0|0|0
208,240,35671,1,2
304,240,36246,1,8
312,160,36822,5,0
192,160,37397,2,0,B|120:160,1,60
256,88,38548,1,8
256,184,39124,1,0
256,280,39699,2,0,B|256:344,1,60
384,296,40850,1,8
384,224,41426,1,0
312,264,42001,2,0,B|184:264,5,120,0|0|0|0|0|6
256,192,45454,5,8
256,96,46030,1,0
160,96,46605,1,0
160,192,47181,1,0
160,288,47756,1,8
256,288,48332,1,0
352,288,48907,1,0
352,192,49483,1,0
256,192,50058,1,8
184,128,50634,6,0,B|176:32|264:48,1,120
256,144,51785,1,0
256,240,52360,1,8
256,336,52936,2,0,B|176:352|184:248,1,120
256,208,54087,1,0
256,112,54662,2,0,B|256:96,8,15,0|0|0|0|0|0|0|0|8
176,168,55813,5,0
208,256,56388,1,0
304,256,56964,1,0
336,168,57539,1,8
256,112,58115,1,0
160,120,58690,6,0,B|199:257|352:256,1,240,0|8
408,192,60417,2,0,B|280:192,2,120,0|2|0
335,128,62143,2,0,B|199:126|160:264,1,240,0|8
144,232,65021,5,0
216,280,65596,1,0
296,280,66172,1,0
360,232,66747,1,8
312,152,67323,1,0
256,72,67898,1,0
224,176,68474,1,0
256,264,69049,1,8
288,176,69625,1,0
312,80,70200,6,0,B|256:40|192:88,2,120,0|0|8
264,192,72502,2,0,B|232:192,8,30,0|0|0|0|4|4|4|4|6
96,64,82861,5,0
96,160,83436,2,0,B|80:248|120:296|264:280,1,240,0|8
256,192,85163,1,0
264,96,85738,2,0,B|391:81|431:129|415:217,1,240,0|8
376,304,87465,5,0
280,304,88040,2,0,B|224:320|192:272|224:224,1,120
176,152,89191,1,8
128,72,89767,1,0
224,80,90342,2,0,B|280:64|312:112|280:160,1,120
304,232,91493,1,8
304,136,92068,5,0
400,168,92644,2,0,B|415:254|375:302|247:287,1,240,8|8
256,192,94370,1,0
184,128,94946,2,0,B|56:113|16:161|32:247,1,240,8|8
120,216,96672,1,0
112,120,97248,5,0
184,64,97823,1,0
208,152,98399,2,0,B|256:80|312:160,1,120,8|0
256,232,99550,1,0
160,224,100125,2,0,B|200:304|136:336,1,120,0|8
64,288,101276,6,0,B|64:32,1,240,0|8
192,64,103578,2,0,B|192:320,1,240,0|8
320,320,105880,6,0,B|320:64,1,240,0|8
448,64,108182,2,0,B|448:320,1,240,0|8
416,328,110484,5,0
360,248,111059,1,0
312,336,111635,1,0
264,248,112210,1,8
216,336,112786,1,0
168,248,113361,1,0
120,336,113937,1,0
72,256,114512,1,8
64,160,115088,6,0,B|168:72,1,120,0|8
160,160,116239,2,0,B|264:80,1,120,0|8
256,168,117390,2,0,B|360:88,1,120,0|8
360,168,118541,2,0,B|392:168,8,30,0|0|0|0|0|0|0|0|8
456,200,120267,6,0,B|392:296,1,60
384,280,120843,1,8
288,304,121418,2,0,B|224:304,1,60
184,312,121994,1,8
88,320,122569,2,0,B|8:272|112:200,1,120,0|0
176,192,123720,2,0,B|256:192,2,60,0|0|8
88,232,124871,1,0
32,160,125447,6,0,B|256:0|512:192,1,480
256,160,129475,6,0,B|256:192|272:224,1,60
312,232,130050,1,8
400,272,130626,2,0,B|381:300|352:320,1,60,0|0
312,320,131201,1,8
216,320,131777,2,0,B|152:336|104:248,1,120
96,120,133503,1,8
216,184,134654,6,0,B|216:128|344:128|344:264|216:264|216:200,1,240,0|8
256,192,136669,12,0,138107
