osu file format v7

[General]
AudioFilename: Endless Possibilities.mp3
AudioLeadIn: 0
PreviewTime: 55381
Countdown: 1
SampleSet: Soft
StackLeniency: 0.7
Mode: 0
LetterboxInBreaks: 1

[Editor]
Bookmarks: 18413,36827,49486,73797,82861,101274,110481
DistanceSpacing: 0.800000011920929
BeatDivisor: 4
GridSize: 8

[Metadata]
Title:Endless Possibility
Artist:Bowling for Soup
Creator:Umbaupause
Version:Normal
Source:Sonic Unleashed
Tags:Sega Jaret Reddick Chris Burney Gary Wiseman Erik Chandler

[Difficulty]
HPDrainRate:4
CircleSize:5
OverallDifficulty:3
SliderMultiplier:1.2
SliderTickRate:2

[Events]
//Background and Video events
0,0,"Sonic_Unleashed.jpg"
//Break Periods
2,59753,63005
2,73853,81421
//Storyboard Layer 0 (Background)
//Storyboard Layer 1 (Fail)
//Storyboard Layer 2 (Pass)
//Storyboard Layer 3 (Foreground)
//Storyboard Sound Samples
//Background Colour Transformations
3,100,163,162,255

[TimingPoints]
8336,575.484366008057,4,2,0,100,1,0

[HitObjects]
192,96,18406,1,0
256,96,18694,1,0
320,96,18982,2,2,B|320:64,2,30
384,128,19557,5,0
384,192,19845,1,0
384,256,20133,2,2,B|416:256,2,30
320,288,20708,5,0
256,288,20996,1,0
192,288,21284,2,2,B|192:320,2,30
160,224,21859,5,0
160,160,22147,1,0
160,96,22435,2,2,B|128:96,2,30
192,32,23010,5,0
224,96,23298,1,2
224,160,23586,2,0,B|192:224|320:160|288:224,1,120
336,272,24449,1,4
288,320,24737,1,0
224,352,25025,1,0
160,320,25312,1,0
224,288,25600,1,2
224,224,25888,2,0,B|192:160|320:224|288:160,1,120
288,96,26751,1,4
64,352,27614,5,0
64,288,27902,1,0
128,288,28190,2,0,B|192:288,1,60,0|8
256,288,28765,2,0,B|256:224,1,60,0|8
256,160,29341,2,0,B|192:160,1,60,0|8
192,96,29916,5,0
256,96,30204,1,0
320,96,30492,2,0,B|384:96,1,60,0|8
448,96,31067,2,0,B|448:176,1,60,0|8
448,224,31643,2,0,B|384:224,1,60,0|8
320,224,32218,6,0,B|256:224,3,60
216,200,33369,1,2
216,200,33657,1,2
216,200,33945,1,2
216,200,34232,1,2
160,232,34520,6,0,B|160:168,3,60
144,120,35671,1,2
144,120,35959,1,2
144,120,36246,1,2
144,120,36534,1,2
112,64,36822,5,0
176,64,37110,2,8,B|336:64,1,150
400,64,38261,1,8
432,208,39124,1,0
352,208,39412,2,8,B|192:208,1,150
128,208,40563,1,8
96,352,41426,5,0
160,352,41714,2,8,B|320:352,1,150
384,352,42865,1,8
384,208,43728,1,0
320,208,44016,2,8,B|160:208,1,150
96,208,45166,1,8
240,192,45742,6,0,B|272:192,2,30
192,144,46317,1,8
256,48,47037,2,8,B|320:48|320:112,1,90
288,192,48044,2,0,B|256:192,2,30
336,240,48619,1,8
256,336,49339,2,8,B|192:336|192:272,1,90
160,112,50634,5,0
160,160,50921,1,8
160,304,51641,1,8
224,304,52072,1,8
320,296,52648,1,0
352,256,52936,1,0
352,208,53223,1,8
352,80,53943,1,8
288,80,54374,1,8
256,80,55813,6,0,B|256:48,2,30
368,192,56964,2,0,B|400:192,2,30
256,304,58115,6,0,B|256:336,2,30
160,192,59266,2,0,B|128:192,2,30
192,288,64445,6,0,B|128:240,1,60,0|8
176,192,65021,1,0
240,160,65308,1,0
304,160,65596,2,0,B|368:208,1,60,0|8
320,256,66172,1,0
320,320,66459,1,0
256,288,66747,2,0,B|256:224,1,60,0|8
256,160,67323,2,0,B|256:128,2,30,0|0|0
288,288,68474,6,0,B|224:288,2,60,0|0|0
256,192,69625,5,8
224,96,70200,2,0,B|288:96,4,60
256,208,71927,12,6,73653
80,192,82861,5,0
96,144,83148,1,0
208,96,83868,2,0,B|256:64|304:96,1,90
384,128,84875,1,0
400,176,85163,5,0
384,224,85450,1,0
288,304,86170,2,0,B|240:336|192:304,1,90
128,256,87177,1,0
256,208,87465,12,0,88903
256,208,89767,12,0,91205
400,192,92068,6,0,B|336:192,1,60
224,160,93076,1,0
288,224,93507,1,0
104,192,94370,2,0,B|168:192,1,60
224,224,95378,1,0
288,160,95809,1,0
256,336,96672,6,0,B|256:272,1,60
288,160,97679,1,0
224,160,98111,1,0
256,48,98974,2,0,B|256:112,1,60
224,224,99981,1,0
288,224,100413,1,0
448,288,101276,6,0,B|448:48,1,210,0|0
400,32,102715,1,0
256,48,103578,2,0,B|256:288,1,210
208,304,105017,1,0
64,288,105880,6,0,B|64:48,1,210
112,32,107319,1,0
256,48,108182,2,0,B|256:288,1,210
320,240,109621,1,0
256,304,110196,5,0
208,304,110484,1,0
176,272,110772,1,0
112,160,111491,1,0
144,96,111923,1,0
256,80,112498,1,0
304,80,112786,1,0
336,112,113074,1,0
336,240,113793,1,0
288,288,114225,1,0
208,256,114800,6,0,B|208:320,1,60
272,320,115376,2,0,B|368:320|384:208,1,150
384,160,116527,1,0
368,64,117102,2,0,B|288:64,1,60
240,64,117678,2,0,B|144:64|128:176,1,150
128,224,118828,2,0,B|160:224,6,30
224,160,120267,6,0,B|304:160,1,60
352,160,120843,2,0,B|400:208,1,60
432,272,121418,2,0,B|352:272,1,60
304,240,121994,2,0,B|304:304,1,60
240,320,122569,2,0,B|240:256,1,60
176,288,123145,2,0,B|176:352,1,60
112,336,123720,2,0,B|112:256,1,60
112,208,124296,5,0
112,112,124871,1,0
208,112,125447,1,0
208,208,126022,1,0
304,208,126598,1,0
304,112,127173,1,0
400,112,127749,1,0
400,208,128324,1,0
480,256,129187,5,0
464,320,129475,2,0,B|416:320,2,30
352,256,130338,1,0
336,320,130626,2,0,B|288:320,2,30
224,256,131489,1,0
208,320,131777,2,0,B|176:320,2,30
96,256,132640,1,0
80,320,132928,2,0,B|48:320,2,30
112,224,133791,5,0
176,224,134079,2,0,B|176:256,2,30
288,224,134942,1,0
352,224,135230,2,0,B|352:256,2,30,0|0|0
320,128,136093,2,0,B|128:128,1,180
256,208,137244,12,0,138107
