osu file format v5

[General]
AudioFilename: Bowling For Soup- High School Never Ends.mp3
AudioLeadIn: 0
PreviewTime: -1
Countdown: 1
SampleSet: Normal
EditorBookmarks: 5734,12390,17637,20543,23448,26166,29822,32640,35914,41444,47443,53441,63939,77998,83153,89620,95525,101805,110053,114365,121301,126831,130046,137609

[Metadata]
Title:High School Never Ends
Artist:Bowling For Soup
Creator:MaybeLater_x
Version:Normal

[Difficulty]
HPDrainRate:5
CircleSize:5
OverallDifficulty:5
SliderMultiplier:1.4
SliderTickRate:1

[Events]
//Background and Video events
//Break Periods
2,23461,29184
2,35458,40806
2,53454,63301
2,83306,89264
2,110840,114315
//Storyboard Layer 0 (Background)
//Storyboard Layer 1 (Failing)
//Storyboard Layer 2 (Passing)
//Storyboard Layer 3 (Foreground)
//Storyboard Sound Samples
//Background Colour Transformations
3,100,163,162,255

[TimingPoints]
6109,375,4,1,0,100

[HitObjects]
160,64,6390,5,0
224,64,6765,1,0
288,160,7890,5,0
352,160,8265,1,0
288,288,9390,5,0
224,288,9765,1,0
128,288,10327,5,0
128,224,10702,1,0
128,160,11077,1,0
128,128,11265,1,0
128,288,12390,5,0
128,224,12765,1,0
224,160,13890,5,0
224,96,14265,1,0
352,160,15390,5,0
352,224,15765,1,0
352,320,16327,5,0
288,320,16702,1,0
224,320,17077,1,0
192,320,17265,1,0
416,256,18390,6,0,C|416:96,1,140
352,64,19515,1,0
288,64,19890,1,0
224,64,20265,1,0
160,160,21202,6,0,C|352:288,1,210
352,160,22515,1,0
288,160,22890,1,0
224,160,23265,1,0
256,96,30391,5,0
320,96,30766,1,0
416,96,31328,6,0,L|416:256|64:256,1,490
160,192,33391,1,0
224,192,33766,1,0
288,192,34141,1,0
352,192,34516,1,0
320,256,34891,5,2
256,256,35266,5,2
256,192,42016,5,0
320,128,42766,1,0
192,128,43516,5,0
128,192,44266,1,0
192,256,45016,5,0
256,192,45766,1,0
320,128,46516,5,2
288,96,46891,1,2
256,64,47266,1,6
256,192,48016,5,0
192,256,48766,1,0
128,192,49516,5,0
64,128,50266,1,0
128,64,51016,5,0
192,128,51766,1,0
256,192,52516,5,2
224,224,52891,1,2
192,256,53266,1,6
128,192,64517,5,0
192,192,64892,5,0
256,192,65267,5,0
320,192,65642,5,0
384,192,66015,5,0
160,256,67327,6,0,L|256:256,5,70
320,256,68827,6,0,L|320:160,5,70
320,96,70327,6,0,L|224:96,5,70
192,96,71640,5,4
192,224,73327,6,0,L|192:320,5,70
128,288,74827,6,0,L|32:288,5,70
64,224,76327,6,0,L|64:128,5,70
128,160,77642,5,4
224,192,78392,5,0
288,192,78767,1,0
352,192,79140,1,0
352,128,79517,1,0
352,96,79705,1,0
352,64,79892,1,0
352,32,80080,1,0
256,192,81015,5,0
320,192,81390,1,0
384,192,81762,1,0
448,192,82142,1,0
448,128,82517,2,4,C|352:128,3,70
192,128,90393,6,4,C|352:128,1,140
320,192,91143,2,0,C|160:192,1,140
192,256,91893,2,0,C|352:256,1,140
320,320,92643,1,0
288,320,92830,1,0
192,256,93393,6,4,C|352:256,1,140
320,192,94143,2,0,C|160:192,1,140
192,128,94893,2,0,C|352:128,1,140
320,64,95643,1,0
288,64,95830,1,0
288,160,96390,6,0,C|288:320,1,140
224,320,97140,2,0,C|224:160,1,140
160,160,97890,2,0,C|160:320,1,140
256,288,98640,6,0,L|352:288,14,70
288,192,102390,5,6
224,192,102765,1,2
192,192,102952,1,2
160,192,103140,1,2
384,96,105390,5,2
320,160,105765,1,6
192,128,107827,5,0
256,128,108202,1,0
320,128,108577,1,0
352,128,108765,1,0
352,256,109327,5,0
288,256,109702,1,0
224,256,110077,1,0
192,256,110265,1,0
160,256,110452,1,0
128,256,110640,1,0
384,96,115515,6,0,C|384:256,1,140
320,224,116265,2,0,C|160:224,1,140
160,160,117015,6,0,C|320:160,1,140
384,128,117765,2,0,C|384:288,1,140
320,288,118515,6,0,C|224:160,1,140
320,192,119265,2,0,C|224:64,1,140
160,128,120015,6,0,C|160:288,1,140
160,320,120765,1,0
384,128,121515,6,0,C|224:128,1,140
320,192,122265,2,0,C|160:192,1,140
256,256,123015,2,0,C|96:256,1,140
192,320,123765,2,0,C|32:320,1,140
64,256,124515,2,6,L|138:138|224:256|320:128,2,420
128,96,127515,6,0,L|288:96,1,140
256,192,128265,6,0,L|96:192,1,140
128,96,129015,6,0,L|288:96,1,140
256,192,129765,6,0,L|96:192,1,140
96,288,130515,6,0,L|95:158|190:274|190:134|341:134,2,560
256,192,133796,12,0,137640
128,192,138015,5,0
192,192,138390,5,0
256,192,138765,5,0
320,192,139140,5,0
352,192,139327,5,0
