osu file format v5

[General]
AudioFilename: Bowling For Soup- High School Never Ends.mp3
AudioLeadIn: 0
PreviewTime: -1
Countdown: 1
SampleSet: Normal
EditorBookmarks: 5734,17637,20543,23448,26166,29822,35914,41444,47443,53441,59534,63939,77998,83153,89620,92807,95525,101805,104992,110053,114365,119801,121301,126831,137609

[Metadata]
Title:High School Never Ends
Artist:Bowling For Soup
Creator:MaybeLater_x
Version:Insane

[Difficulty]
HPDrainRate:7
CircleSize:7
OverallDifficulty:7
SliderMultiplier:1.4
SliderTickRate:1

[Events]
//Background and Video events
//Break Periods
//Storyboard Layer 0 (Background)
//Storyboard Layer 1 (Failing)
//Storyboard Layer 2 (Passing)
//Storyboard Layer 3 (Foreground)
//Storyboard Sound Samples
//Background Colour Transformations
3,100,163,162,255

[TimingPoints]
6111,374.913367500002,4,1,0,100

[HitObjects]
256,192,5640,1,4
64,320,6392,5,0
192,320,6767,1,0
64,256,7329,5,0
64,128,7704,1,0
192,128,8079,1,0
160,128,8266,1,0
192,256,8829,5,0
256,192,9204,1,0
192,96,9578,1,0
160,128,9766,1,0
192,256,10328,5,0
256,192,10703,1,0
192,192,11078,1,0
224,224,11266,1,0
320,128,11640,5,4
160,64,12391,5,0
160,192,12766,1,0
352,192,13328,5,0
224,192,13703,1,0
288,96,14078,1,0
288,160,14265,1,0
288,64,14828,5,0
288,160,15203,1,0
192,160,15577,1,0
192,96,15765,1,0
288,64,16327,5,0
358,64,16702,2,0,B|198:64,1,140
176,64,17264,1,0
256,128,17639,5,4
64,224,18389,5,0
96,224,18576,1,0
128,224,18764,1,0
192,128,19326,5,0
224,128,19514,2,0,B|224:224,1,70
256,192,19889,2,0,B|256:96,1,70
422,320,21201,6,0,B|326:320,2,70
352,320,21763,1,0
230,96,22513,1,0
198,96,22700,1,0
134,96,23075,1,0
262,160,23638,5,0
262,224,23825,1,0
230,192,24013,1,0
294,192,24200,1,0
262,320,24575,2,2,B|262:160,1,140
230,192,25137,5,0
262,224,25324,1,0
262,160,25512,1,0
294,192,25699,1,0
262,64,26075,2,2,B|262:224,1,140
262,192,26637,5,0
262,256,27012,1,0
230,256,27199,1,0
198,192,27574,1,0
230,128,27949,1,0
262,128,28137,1,0
326,160,28512,1,0
326,192,28699,1,0
294,256,29074,1,0
70,64,30386,5,0
102,128,30761,1,0
198,64,31323,2,0,B|198:160,4,70
230,64,32261,6,0,B|230:160,2,70
262,64,32823,6,0,B|262:160,5,70
294,134,33948,6,0,B|294:38,3,70
262,192,34885,5,4
262,128,35260,1,4
128,96,36010,5,2
192,96,36197,1,2
128,160,36385,1,2
192,160,36572,1,2
144,256,36947,1,2
192,304,37135,1,2
240,256,37322,1,2
320,160,37697,1,2
320,256,38072,1,2
416,160,38447,1,4
256,192,38822,12,0,41353
128,192,41821,5,0
176,192,42008,1,0
80,192,42383,1,0
80,96,42758,1,4
176,96,43133,1,0
128,96,43321,1,0
128,192,43696,1,0
176,192,43883,1,0
176,96,44258,1,4
256,96,44633,5,0
304,96,44820,1,0
304,192,45195,1,0
256,192,45383,1,0
256,96,45758,1,4
256,192,46133,1,0
256,240,46320,1,0
352,240,46695,1,0
352,192,46882,1,0
352,96,47257,1,4
464,0,47820,5,0
448,144,48195,1,0
448,240,48569,1,0
448,192,48757,1,2
352,192,49132,1,2
304,192,49319,1,0
304,96,49695,1,0
400,96,50069,1,0
400,144,50257,1,2
400,240,50632,1,2
400,288,50819,5,0
304,288,51194,1,0
304,192,51569,1,0
256,192,51757,1,0
160,192,52132,1,0
160,240,52319,1,0
160,144,52694,1,0
160,48,53068,1,0
160,96,53256,1,0
224,192,53631,5,0
192,192,53818,1,0
160,192,54006,1,0
160,272,54349,1,0
256,272,54756,1,0
256,192,55130,1,0
304,192,55318,1,0
400,192,55693,1,0
160,288,56443,5,0
208,288,56630,1,0
160,288,56818,1,0
160,96,57380,1,0
256,96,57755,1,0
208,96,57942,1,0
208,192,58317,1,0
256,192,59442,12,0,64128
256,192,64503,5,2
224,160,64878,1,2
288,160,65253,1,2
288,224,65628,1,2
224,224,65815,1,2
160,96,66378,5,0
224,32,66753,1,0
384,192,67315,5,0
352,256,67690,1,0
256,288,68065,1,0
224,288,68252,1,0
256,192,68815,5,0
256,128,69190,1,0
192,64,69564,1,0
160,64,69752,1,0
352,64,70314,5,0
352,64,70689,1,0
352,64,71064,1,0
352,64,71252,1,0
256,128,71626,5,4
160,32,72377,5,0
160,192,72752,1,0
224,32,73314,5,0
224,192,73689,1,0
224,352,74064,1,0
224,272,74251,1,0
288,32,74814,5,0
288,192,75189,1,0
288,352,75563,1,0
384,352,75751,1,0
352,192,76313,5,0
352,32,76688,1,0
352,192,77063,1,0
352,288,77250,1,0
256,192,77625,5,4
288,288,78375,5,0
224,224,78750,1,0
224,96,79312,1,0
288,96,79500,1,0
352,96,79687,1,0
416,96,79875,1,0
480,96,80062,1,0
448,192,80437,6,0,L|160:192,1,280
160,256,81374,5,0
192,256,81562,1,0
224,256,81749,1,0
224,128,82124,1,0
352,128,82499,1,0
384,128,82687,1,0
384,160,82874,1,0
352,160,83108,1,0
112,160,83811,5,0
128,96,83999,1,0
144,160,84186,1,0
160,96,84374,1,0
176,160,84561,1,0
192,96,84749,1,0
224,160,85123,1,0
256,96,85498,1,0
272,160,85686,1,0
304,96,86061,1,0
32,352,86811,1,0
80,320,86998,1,0
128,288,87186,1,0
176,256,87373,1,0
224,224,87560,1,0
272,192,87748,1,0
320,160,87935,1,0
368,128,88123,1,0
416,96,88310,1,0
464,64,88498,1,0
464,64,88873,1,0
464,64,89248,1,0
64,96,90372,5,0
128,96,90560,1,0
96,160,90747,1,0
64,288,91122,1,0
192,256,91497,1,0
256,256,91684,1,0
352,192,92059,1,0
256,128,92434,1,0
256,304,93184,6,0,B|336:304,2,70
256,304,93746,2,0,B|256:160,1,140
151,163,94496,2,0,B|263:163,2,105
256,160,95434,1,0
305,162,95621,5,0
352,160,95996,1,0
352,192,96183,1,0
352,224,96371,1,0
352,256,96558,1,0
352,288,96746,1,0
288,288,97121,1,0
256,288,97308,1,0
224,288,97496,1,0
224,256,97683,1,0
224,192,98058,1,0
256,192,98620,12,0,101807
64,64,102370,5,2
64,224,102744,1,2
128,256,102932,1,2
192,224,103119,1,2
128,224,103682,5,0
256,240,104057,1,0
256,208,104244,1,0
384,224,104619,1,0
400,64,105369,5,2
144,64,105744,1,2
256,176,106306,5,0
160,176,106681,1,0
112,176,106868,1,0
112,224,107056,1,0
160,224,107243,1,0
160,288,107618,1,0
160,288,107806,5,2
320,288,108181,1,2
320,144,108556,5,0
240,144,108743,1,0
336,48,109305,5,2
176,48,109680,1,2
256,48,110055,1,0
256,80,110243,1,0
256,112,110430,1,0
256,144,110618,1,0
256,192,110993,5,0
224,224,111180,1,0
288,160,111367,1,0
224,160,111555,1,0
288,224,111742,1,0
256,192,112680,5,0
192,192,112867,1,0
256,128,113055,1,0
256,256,113242,1,0
320,192,113429,1,0
256,192,113617,1,0
368,304,113993,5,0
368,80,114367,1,0
144,80,114742,1,0
144,304,115117,1,0
30,342,115491,6,0,C|52:200|153:323|211:313|109:81|260:224|64:304,1,1050
32,288,118678,6,0,B|169:320|237:288|288:180|170:99|400:288,1,420
352,240,120178,2,0,B|288:176,1,70
256,192,120740,1,0
128,192,121303,5,0
128,64,121678,1,0
256,64,122052,1,0
320,64,122240,1,0
384,128,122615,1,0
384,192,122802,1,0
320,256,123177,1,0
256,192,123552,1,0
192,192,123740,1,0
96,320,124302,5,0
96,224,124677,1,0
128,128,125052,1,0
160,96,125239,1,0
224,64,125614,1,0
288,64,125802,1,0
352,128,126177,1,0
384,192,126364,1,0
384,288,126739,1,0
256,192,127208,12,0,130207
256,192,130582,12,0,133112
256,192,133300,12,0,136112
400,96,136487,1,0
304,96,136862,1,0
208,96,137236,1,0
112,96,137611,1,0
64,96,137986,5,0
160,96,138361,5,0
256,96,138736,5,0
352,96,139111,5,0
448,96,139298,5,0
