osu file format v6

[General]
AudioFilename: Almost.mp3
AudioLeadIn: 0
PreviewTime: 41804
Countdown: 0
SampleSet: Normal
StackLeniency: 0.2
Mode: 0
LetterboxInBreaks: 1

[Editor]
Bookmarks: 7517,21231,41802,55517,62374,82945,105231,112088,132660,146374,166945,182374,192660
DistanceSpacing: 1
BeatDivisor: 3
GridSize: 32

[Metadata]
Title:Almost
Artist:Bowling For Soup
Creator:DJPop
Version:Hard
Source:Toradora!
Tags:amv zomba recording LLC

[Difficulty]
HPDrainRate:6
CircleSize:4
OverallDifficulty:8
SliderMultiplier:1.9
SliderTickRate:1

[Events]
//Background and Video events
Video,285,"Almost.avi"
0,0,"Almost.png"
//Break Periods
2,55717,61481
2,105431,111338
//Storyboard Layer 0 (Background)
//Storyboard Layer 1 (Fail)
//Storyboard Layer 2 (Pass)
//Storyboard Layer 3 (Foreground)
Sprite,Foreground,Centre,"star2.png",320,240 F,0,205090,205519,0
//Storyboard Sound Samples
//Background Colour Transformations
3,100,0,0,0

[TimingPoints]
660,428.571428571429,4,1,1,80,1,0
41802,-200,4,1,1,80,0,1
53802,-100,4,1,1,80,0,1
55945,-100,4,1,1,80,0,0
82945,-200,4,1,1,80,0,1
94945,-100,4,1,1,80,0,1
96802,-100,4,1,1,80,0,0
103660,-100,4,2,1,80,0,0
104945,-100,4,1,1,80,0,0
130945,-200,4,1,2,80,0,0
132088,-200,4,1,2,0,0,0
132374,-200,4,2,1,80,0,0
142874,-200,4,1,1,80,0,0
142945,-100,4,1,1,80,0,0
165231,-200,4,1,2,80,0,0
165874,-200,4,1,2,0,0,0
166017,-200,4,1,1,80,0,0
166088,-100,4,1,1,80,0,0
166945,-100,4,1,1,80,0,1
182088,-100,4,1,1,80,0,0
192660,-100,4,1,1,80,0,1
192802,-100,4,1,1,0,0,1

[Colours]
Combo1 : 0,255,0
Combo2 : 0,255,255
Combo3 : 255,0,255
Combo4 : 255,255,0

[HitObjects]
256,192,6945,5,2
256,192,7088,1,2
32,192,7517,5,4
64,64,7802,1,0
128,32,7945,1,8
128,224,8374,1,0
160,96,8660,1,0
224,64,8802,2,0,B|416:64,1,190,8|0
448,192,9517,5,0
480,256,9660,1,8
320,160,10088,1,0
352,288,10374,1,0
320,352,10517,2,0,B|128:352,1,190,8|0
96,224,11231,5,0
32,256,11374,1,8
192,160,11802,1,0
64,160,12088,1,0
32,96,12231,2,0,B|224:96,1,190,8|0
352,96,12945,5,0
384,32,13088,1,8
480,192,13517,1,0
384,288,13802,1,4
320,256,13945,1,8
384,224,14088,1,4
256,192,14374,5,4
160,32,14802,1,8
64,192,15231,1,0
64,320,15517,1,0
128,352,15660,2,0,B|160:304|208:301|256:304|288:355,1,190,8|0
416,320,16374,5,0
480,352,16517,1,8
480,160,16945,1,0
384,256,17231,1,0
416,192,17374,2,0,B|368:160|362:112|368:64|417:32,1,190,8|0
288,32,18088,5,0
224,32,18231,1,8
32,32,18660,1,0
160,32,18945,1,0
96,32,19088,1,8
64,224,19517,5,8
96,160,19660,1,8
128,224,19802,1,8
160,160,19945,1,8
224,181,20088,1,8
288,203,20231,1,8
352,224,20374,1,8
384,160,20517,1,8
416,224,20660,1,8
448,160,20802,1,4
480,288,21088,5,0
448,352,21231,1,4
320,352,21517,1,0
288,288,21660,1,8
96,320,22088,2,0,B|26:302|32:224,1,126.666666666667
64,160,22517,1,8
96,32,22802,6,0,B|214:32|192:160,1,190
160,224,23374,1,8
256,64,23802,2,0,B|256:192,1,126.666666666667
256,256,24231,1,8
352,352,24517,5,0
384,288,24660,1,0
480,192,24945,1,0
416,224,25088,1,8
448,32,25517,2,0,B|320:32,1,126.666666666667
256,64,25945,1,8
256,192,26231,5,0
256,256,26374,1,0
160,352,26660,1,0
160,288,26802,1,8
64,352,27088,2,0,B|16:320|12:272|16:224|66:192,1,190
128,160,27660,1,8
128,32,27945,5,0
64,64,28088,1,0
192,64,28374,1,0
256,32,28517,1,8
448,32,28945,2,0,B|480:40|496:81|480:120|447:128,1,126.666666666667
384,128,29374,1,8
288,224,29660,6,0,B|96:224,1,190
32,224,30231,1,8
96,320,30517,2,0,B|288:320,1,190
352,320,31088,1,8
480,288,31374,5,0
480,224,31517,1,0
480,96,31802,1,0
480,160,31945,1,8
352,192,32231,1,0
288,176,32374,2,0,B|288:48,1,126.666666666667
224,32,32802,1,8
96,32,33088,5,0
32,64,33231,1,0
96,176,33517,1,0
32,208,33660,1,8
96,320,33945,2,0,B|160:320,1,63.3333333333333
288,352,34374,2,0,B|352:352,1,63.3333333333333,0|8
480,352,34802,5,8
480,288,34945,1,0
352,256,35231,1,0
288,256,35374,1,8
96,224,35802,2,0,B|96:96,1,126.666666666667
128,32,36231,1,8
256,32,36517,6,0,B|448:32,1,190
480,96,37088,1,8
288,96,37517,1,0
192,192,37802,1,0
224,256,37945,1,8
320,160,38231,5,0
352,224,38374,1,0
192,320,38802,1,8
384,352,39231,1,0
480,256,39517,1,0
448,192,39660,1,8
352,32,40088,5,0
224,32,40374,1,0
160,64,40517,1,8
32,32,40802,1,0
64,224,41231,1,8
128,192,41374,1,8
192,160,41517,1,8
256,192,41660,1,8
320,224,41802,6,0,B|448:251|480:160,2,190,4|8|0
160,320,43945,1,0
352,320,44374,1,8
32,96,45231,6,0,B|32:288,1,190,0|8
128,192,46374,1,0
192,192,46517,1,0
320,192,46802,1,0
160,64,47230,5,8
224,32,47373,1,0
352,64,47659,1,0
416,32,47802,1,8
448,160,48088,1,0
288,352,48660,6,0,B|320:256|192:288|224:192,2,190,4|8|0
320,224,50660,1,8
352,288,50802,1,0
160,320,51231,1,8
480,96,52088,6,0,B|384:128|416:0|320:32,1,190,0|8
192,32,53231,1,0
128,32,53374,1,0
32,128,53660,1,0
96,128,53802,1,0
192,224,54088,5,0
128,224,54231,1,0
32,320,54517,1,0
96,320,54660,2,8,B|224:320,1,126.666666666667,8|8
288,320,55088,2,0,B|416:320,1,126.666666666667,8|8
480,320,55517,1,4
32,32,62231,5,0
64,96,62374,1,4
176,32,62660,1,0
208,96,62803,1,8
384,32,63231,2,0,B|502:32|480:160,1,190,0|8
480,288,63945,5,0
480,352,64088,1,0
384,256,64374,1,0
384,192,64517,1,8
288,288,64802,2,0,B|256:336|207:342|160:336|128:287,1,190
96,224,65374,1,8
64,352,65660,5,0
32,288,65802,1,0
32,160,66088,1,0
64,96,66231,1,8
256,32,66660,2,0,B|384:32,1,126.666666666667
448,32,67088,1,8
480,160,67374,5,0
416,160,67517,1,0
288,160,67803,1,0
224,160,67945,1,8
192,288,68231,2,0,B|231:383|352:352,1,190
416,336,68802,1,8
352,224,69088,5,0
352,160,69231,1,0
256,64,69517,1,0
192,32,69660,1,8
32,128,70088,2,0,B|32:256,1,126.666666666667
64,320,70517,1,8
96,192,70803,5,0
128,256,70945,1,0
160,128,71231,1,0
192,192,71374,1,8
160,320,71660,2,0,B|352:320,1,190
416,320,72231,1,8
448,192,72517,5,0
384,192,72660,1,0
256,192,72945,1,0
320,192,73088,1,8
480,96,73517,2,0,B|462:26|384:32,1,126.666666666667
320,32,73945,1,8
192,32,74231,5,0
160,96,74374,1,0
32,96,74660,1,0
64,160,74803,1,8
32,288,75088,2,0,B|64:336|113:342|160:336|192:287,1,190
224,224,75660,1,8
256,352,75945,5,0
256,288,76088,1,0
384,288,76374,1,0
384,352,76517,1,8
480,192,76945,2,0,B|352:192,1,126.666666666667
288,192,77374,1,8
384,96,77660,5,0
448,128,77802,1,0
352,32,78088,1,0
288,64,78231,1,8
160,32,78517,2,0,B|208:64|214:112|208:160|159:192,1,190
96,224,79088,1,8
192,320,79374,5,0
128,352,79517,1,0
32,256,79802,1,0
32,192,79945,1,8
32,64,80231,1,0
96,32,80374,1,0
96,160,80660,1,0
160,128,80803,1,8
256,32,81088,5,0
288,96,81231,1,0
416,96,81517,1,0
384,32,81660,1,8
384,160,81945,2,0,B|501:159|480:288,1,190
448,352,82517,2,0,B|320:352,1,126.666666666667,8|8
256,352,82945,6,0,B|224:256|352:288|320:192,2,190,4|8|0
64,352,85088,1,0
160,192,85517,1,8
32,32,86374,6,0,B|224:32,1,190,0|8
352,32,87517,1,0
368,96,87660,1,0
480,32,87945,1,0
480,224,88373,5,8
416,240,88516,1,0
480,352,88802,1,0
416,336,88945,1,8
288,288,89231,1,0
32,192,89802,6,0,B|5:64|96:32,2,190,4|8|0
32,320,91802,1,8
96,352,91945,1,0
192,192,92374,1,8
480,352,93231,6,0,B|480:160,1,190,0|8
480,32,94374,1,0
480,96,94517,1,0
352,96,94803,1,0
160,96,95231,5,0
224,64,95374,1,0
96,64,95660,1,0
160,32,95803,1,8
32,32,96088,2,0,B|32:96,1,63.3333333333333,0|8
32,224,96517,5,8
96,192,96660,1,4
192,352,97088,1,8
288,192,97517,1,0
384,352,97945,1,8
448,248,98231,5,0
480,192,98374,1,0
384,32,98802,1,8
288,192,99231,1,0
192,32,99660,1,8
128,136,99945,5,0
96,192,100088,1,0
32,96,100374,1,0
32,32,100517,1,8
32,224,100945,1,0
32,352,101231,2,0,B|32:288,1,63.3333333333333,0|8
224,288,101802,6,0,B|224:96,2,190,0|8|0
352,320,102945,1,0
416,352,103088,1,8
416,224,103374,1,0
480,256,103517,1,0
480,128,103802,5,0
416,160,103945,1,0
416,32,104231,1,0
352,64,104374,2,0,B|239:64|256:195,1,190
32,192,105231,5,4
480,192,112088,6,0,B|352:192,1,126.666666666667,4|0
288,192,112517,1,8
96,192,112945,1,0
64,64,113231,1,0
32,128,113374,1,8
32,320,113802,6,0,B|160:320,1,126.666666666667
224,320,114231,1,8
352,352,114517,2,0,B|480:374|480:256,1,190
480,192,115088,1,8
480,64,115374,5,0
416,32,115517,2,0,B|288:32,1,126.666666666667
224,64,115945,1,8
32,32,116374,1,0
32,160,116660,2,0,B|96:160,1,63.3333333333333,0|8
224,192,117088,6,0,B|416:192,1,190
480,192,117660,1,8
480,320,117945,2,0,B|416:320,1,63.3333333333333,0|0
288,352,118374,2,0,B|224:352,1,63.3333333333333,0|8
96,320,118802,5,8
32,288,118945,2,0,B|32:160,1,126.666666666667
96,128,119374,1,8
192,32,119660,1,0
256,32,119802,1,0
384,32,120088,1,0
448,32,120231,1,8
480,160,120517,5,0
416,192,120660,2,0,B|288:192,1,126.666666666667
224,224,121088,1,8
32,192,121517,2,0,B|160:192,1,126.666666666667
224,160,121945,1,8
128,256,122231,5,0
176,304,122374,2,0,B|304:304,1,126.666666666667
352,352,122802,1,8
480,320,123088,1,0
480,256,123231,1,0
480,64,123660,1,8
352,32,123945,6,0,B|288:32,1,63.3333333333333,8|0
160,32,124374,1,0
96,32,124517,1,8
64,160,124802,1,0
128,160,124945,2,0,B|256:160,1,126.666666666667
320,160,125374,1,8
448,160,125660,5,8
448,224,125802,2,0,B|457:298|384:320,1,126.666666666667,4|0
320,352,126231,1,8
192,352,126517,1,0
128,352,126660,2,0,B|50:358|32:288,1,126.666666666667
32,224,127088,1,8
32,32,127517,6,0,B|32:160,1,126.666666666667
96,192,127945,1,8
192,32,128374,2,0,B|192:160,1,126.666666666667
256,192,128802,1,8
288,64,129088,5,0
352,32,129231,2,0,B|421:20|448:96,1,126.666666666667
480,160,129660,1,8
352,160,129945,1,0
288,128,130088,2,0,B|160:128,1,126.666666666667,0|8
96,160,130517,1,8
64,224,130660,1,8
96,288,130802,1,8
128,352,130945,6,0,B|176:304|256:271|336:304|384:354,1,285,4|0
480,256,132517,5,0
416,256,132660,1,0
480,160,132945,1,0
416,160,133088,1,0
480,64,133374,2,0,B|352:64,1,126.666666666667
224,64,134231,6,0,B|128:64,1,95,0|0
64,64,134802,1,0
32,192,135088,2,0,B|32:288,1,95
32,352,135660,1,0
128,288,135945,5,0
192,288,136088,2,0,B|288:288,1,95
416,288,136802,1,0
480,256,136945,1,0
352,224,137231,1,0
416,192,137374,1,0
288,160,137660,5,0
352,128,137802,1,0
224,96,138088,1,0
288,64,138231,1,0
160,32,138517,2,0,B|32:32,1,126.666666666667
32,160,139374,5,0
32,224,139517,1,0
32,352,139802,1,0
96,352,139945,2,0,B|160:352,1,63.3333333333333
224,352,140374,2,0,B|320:352,1,95
448,352,141088,5,0
480,288,141231,1,0
480,160,141517,1,0
480,96,141660,1,0
384,32,141945,2,0,B|256:32,1,126.666666666667
288,160,142802,5,0
352,192,142945,1,4
224,192,143231,1,0
288,224,143374,1,8
160,224,143660,1,0
224,256,143802,1,0
96,256,144088,1,0
160,288,144231,1,8
32,288,144517,5,0
96,320,144660,1,0
224,352,144945,1,8
288,352,145088,1,8
416,320,145374,1,4
448,192,145660,1,8
384,160,145802,1,8
320,128,145945,1,8
256,160,146088,1,8
192,192,146231,1,8
128,160,146374,6,0,B|64:176|48:144|48:93,1,126.666666666667,4|0
48,32,146802,1,8
240,32,147231,2,0,B|297:86|352:31,1,126.666666666667,0|0
416,32,147660,1,8
448,224,148088,6,0,B|470:352|352:352,1,190,0|8
160,352,148945,2,0,B|288:352,1,126.666666666667
320,288,149374,1,8
192,288,149660,5,8
128,288,149802,1,0
32,192,150088,1,0
64,128,150231,2,0,B|114:54|224:32,1,190,8|0
352,32,150945,1,0
352,96,151088,1,8
480,96,151374,6,0,B|480:288,1,190
448,352,151945,1,8
416,224,152231,1,0
384,160,152374,1,0
352,288,152660,2,0,B|352:352,1,63.3333333333333,0|8
224,352,153088,5,8
160,352,153231,2,0,B|32:352,1,126.666666666667
32,288,153660,2,0,B|32:96,1,190,8|0
160,64,154374,1,0
96,32,154517,1,8
288,32,154945,6,0,B|416:32,1,126.666666666667
480,32,155374,1,8
480,224,155802,2,0,B|352:224,1,126.666666666667
288,224,156231,1,8
384,128,156517,5,8
320,128,156660,2,0,B|192:128,1,126.666666666667
128,128,157088,2,0,B|80:160|76:208|80:256|130:288,1,190,8|0
224,352,157802,1,0
288,320,157945,1,8
416,352,158231,6,0,B|472:344|498:288|472:232|414:224,1,190
352,224,158802,1,8
448,128,159088,1,8
480,64,159231,1,0
352,32,159517,1,0
320,96,159660,2,0,B|192:96,1,126.666666666667,8|8
160,32,160088,5,4
64,192,160517,1,8
160,352,160945,1,0
256,192,161374,1,8
128,192,161660,5,0
192,192,161802,1,0
288,32,162231,1,8
384,192,162660,1,0
288,352,163088,1,8
416,352,163374,5,0
480,352,163517,1,0
480,224,163802,1,0
480,160,163945,1,8
352,32,164374,1,0
480,32,164660,2,0,B|416:32,1,63.3333333333333,0|8
224,32,165231,6,0,B|200:96|312:96|288:163,1,158.333333333333
256,224,166088,5,8
224,288,166231,1,8
192,352,166374,1,8
128,352,166517,1,8
96,288,166660,1,8
64,224,166802,1,8
32,160,166945,5,4
32,32,167231,1,0
64,96,167374,1,8
224,32,167802,1,0
224,160,168088,1,0
192,96,168231,1,8
384,96,168660,5,0
480,192,168945,1,0
416,224,169088,1,8
256,320,169517,1,0
384,288,169802,1,0
384,352,169945,1,8
288,192,170374,5,0
192,288,170660,1,0
160,224,170802,1,8
32,352,171231,1,0
64,224,171517,1,0
32,160,171660,1,8
160,32,172088,5,0
33,32,172374,1,0
96,64,172517,1,8
288,64,172945,1,0
192,160,173231,1,0
224,224,173374,1,8
352,352,173802,5,0
480,320,174088,1,0
448,256,174231,1,8
480,64,174660,1,0
448,192,174945,1,0
480,128,175088,1,8
320,32,175517,5,0
352,160,175802,1,0
288,160,175945,1,8
128,256,176374,1,0
224,352,176660,1,0
288,320,176802,1,8
224,128,177231,5,0
128,32,177517,1,0
64,32,177660,1,8
32,224,178088,1,0
64,96,178374,1,0
128,96,178517,1,8
160,224,178802,1,0
96,224,178945,5,0
64,352,179231,1,0
128,352,179374,1,8
256,352,179660,1,0
256,288,179802,2,0,B|256:160,1,126.666666666667
256,96,180231,1,8
448,32,180660,5,0
480,160,180945,1,0
448,224,181088,1,8
480,288,181231,1,8
448,352,181374,1,8
384,352,181517,1,8
352,288,181660,1,8
384,224,181802,1,0
352,160,181945,1,12
192,32,182374,5,4
64,32,182660,1,0
32,96,182802,1,8
224,96,183231,1,0
128,192,183517,1,0
64,224,183660,2,0,B|72:280|128:307|184:280|192:223,1,190,8|0
320,224,184374,5,0
384,224,184517,1,8
320,32,184945,1,0
448,32,185231,1,0
480,96,185374,2,0,B|480:288,1,190,8|0
352,320,186088,5,0
288,352,186231,1,8
96,352,186660,1,0
224,320,186945,1,0
160,288,187088,2,0,B|53:224|32:152,1,190,8|0
96,32,187802,5,0
32,32,187945,1,8
224,32,188374,1,0
352,32,188660,1,4
416,64,188802,1,8
352,96,188945,1,4
224,96,189231,5,4
320,192,189517,1,0
384,192,189660,1,8
480,32,190088,1,0
480,160,190374,1,0
480,224,190517,1,8
320,352,190945,5,0
192,352,191231,1,8
320,288,191517,5,0
256,256,191660,1,8
192,288,191802,1,8
256,160,192088,5,8
192,64,192374,5,8
256,32,192517,1,8
320,64,192660,1,4
256,192,192731,12,0,196088
