osu file format v5

[General]
AudioFilename: 01 - Boston - More Than A Feeling - Boston - 320kbps.mp3
AudioLeadIn: 0
PreviewTime: -1
Countdown: 1
SampleSet: Normal
StackLeniency: 0.7
Mode: 0
LetterboxInBreaks: 1

[Metadata]
Title:More Than A Feeling
Artist:Boston
Creator:MrDoodlo
Version:
Source:
Tags:

[Difficulty]
HPDrainRate:2
CircleSize:2
OverallDifficulty:3
SliderMultiplier:0.5
SliderTickRate:1

[Events]
//Background and Video events
0,0,"How To Build.jpg"
//Break Periods
//Storyboard Layer 0 (Background)
//Storyboard Layer 1 (Failing)
//Storyboard Layer 2 (Passing)
//Storyboard Layer 3 (Foreground)
//Storyboard Sound Samples
//Background Colour Transformations
3,100,0,255,128

[TimingPoints]
16920,533.610017136514,4,1,0,100,1

[HitObjects]
128,160,22789,1,0
160,160,23323,1,0
192,160,23856,1,0
224,160,24390,1,0
256,160,24924,1,0
320,160,25457,1,0
384,160,25991,1,0
416,160,26524,1,0
448,160,27058,1,0
448,224,27592,1,0
448,256,28125,1,0
416,320,28659,1,0
288,320,29193,1,0
224,320,29726,1,0
128,64,31327,1,0
160,64,31861,1,0
192,64,32394,1,0
224,64,32928,1,0
256,64,33461,1,0
288,64,33995,1,0
320,64,34529,1,0
352,64,35062,1,0
384,64,35596,1,0
96,192,37197,5,0
128,192,37730,1,0
160,192,38264,1,0
192,192,38798,1,0
224,160,39331,1,0
224,128,39865,1,0
224,96,40398,1,0
224,64,40932,1,0
256,64,41466,1,0
288,64,41999,1,0
320,64,42533,1,0
352,64,43066,1,0
384,64,43600,1,0
416,64,44134,1,0
416,96,44667,1,0
416,128,45201,1,0
416,160,45734,1,0
416,192,46268,1,0
416,256,46802,1,0
320,288,47335,5,0
256,288,47869,1,0
192,288,48402,1,0
160,288,48936,1,0
128,256,49470,1,0
128,224,50003,1,0
128,192,50537,1,0
128,160,51071,1,0
128,160,52138,1,0
192,128,52671,1,0
256,128,53739,1,0
320,128,54806,1,0
320,160,55339,1,0
320,192,55873,1,0
320,224,56407,1,0
288,224,56940,1,0
224,224,57474,1,0
192,224,58007,1,0
128,256,58541,1,0
96,256,59075,1,0
64,256,59608,1,0
64,224,60142,1,0
64,192,60676,1,0
224,96,61209,1,0
320,96,61743,1,0
384,96,62276,1,0
448,96,62810,1,0
448,160,63344,1,0
128,256,66012,2,0,B|288:96|416:160|-32:160,1,450
128,224,73482,1,0
192,192,74549,1,0
224,128,75617,1,0
288,96,76150,1,0
352,96,76684,1,0
384,128,77217,1,0
416,160,77751,1,0
416,192,78285,1,0
416,256,78818,1,0
160,256,80953,5,0
160,224,81486,1,0
160,192,82020,1,0
160,160,82554,1,0
192,160,83087,1,0
224,160,83621,1,0
288,160,84154,1,0
160,224,90558,1,0
160,160,91091,1,0
192,160,91625,1,0
256,160,92159,1,0
320,160,92692,1,0
384,224,93226,1,0
384,288,94293,1,0
352,288,94827,1,0
288,288,95360,1,0
256,288,95894,1,0
224,288,96427,1,0
192,288,96961,1,0
160,288,98028,1,0
160,256,98562,1,0
160,160,99095,1,0
160,96,99629,1,0
160,64,100163,1,0
320,32,100696,1,0
352,160,101763,1,0
352,192,102297,1,0
352,256,102831,1,0
288,320,103364,1,0
256,320,103898,1,0
192,288,104432,1,0
128,288,104965,1,0
128,256,106566,1,0
128,224,107100,1,0
128,192,107633,1,0
192,224,109234,1,0
128,288,109768,1,0
64,288,110301,1,0
64,192,110835,1,0
128,64,111368,1,0
256,64,111902,1,0
352,96,112436,1,0
384,192,112969,1,0
384,256,113503,1,0
384,288,114037,1,0
224,256,116705,1,0
224,192,117238,1,0
224,160,117772,1,0
256,128,120440,1,0
288,128,120973,1,0
352,128,121507,1,0
160,288,125242,1,0
160,256,125776,1,0
160,192,126310,1,0
160,160,126843,1,0
160,128,127377,1,0
160,64,127910,1,0
224,256,128978,5,0
160,256,129511,1,0
96,288,130045,1,0
128,320,130578,1,0
160,320,131112,1,0
224,320,131646,1,0
256,320,132179,1,0
288,320,132713,1,0
320,320,133246,1,0
352,320,133780,1,0
416,288,134314,1,0
384,224,134847,1,0
416,192,135381,1,0
352,96,135915,1,0
288,160,136448,1,0
288,256,136982,1,0
192,320,137515,1,0
96,288,138049,1,0
64,224,138583,1,0
128,160,139116,1,0
224,128,139650,5,0
352,128,140183,1,0
384,160,140717,1,0
416,224,141251,1,0
384,256,141784,1,0
352,352,142318,1,0
320,320,142851,1,0
256,352,143385,1,0
160,352,143919,1,0
96,320,144452,1,0
32,256,144986,1,0
32,224,145520,1,0
64,160,146053,1,0
64,128,146587,1,0
96,64,147120,1,0
224,64,147654,1,0
288,64,148188,1,0
96,96,167398,5,0
160,96,167931,1,0
224,96,168465,1,0
288,96,168998,1,0
384,96,169532,1,0
384,160,170066,1,0
384,256,170599,1,0
320,256,171133,1,0
320,256,171666,1,0
256,256,172200,1,0
192,256,172734,1,0
192,256,173267,1,0
224,192,173801,1,0
192,128,174334,1,0
224,96,174868,1,0
288,96,175402,1,0
288,96,175935,1,0
352,96,176469,1,0
352,96,177003,1,0
352,160,177536,1,0
320,192,178070,1,0
256,192,178603,1,0
256,192,179137,1,0
192,192,179671,1,0
192,192,180204,1,0
128,192,180738,1,0
96,160,181271,1,0
96,160,181805,1,0
128,96,182339,1,0
128,96,182872,1,0
224,96,183406,1,0
224,96,183939,1,0
288,128,184473,1,0
320,160,185007,1,0
288,192,185540,1,0
256,224,186074,1,0
256,224,186607,1,0
192,224,187141,1,0
128,224,187675,1,0
64,192,188208,1,0
64,128,189276,1,0
128,128,189809,1,0
192,128,190343,1,0
256,128,190876,1,0
320,128,191410,1,0
352,160,191944,1,0
352,160,192477,1,0
288,288,193011,1,0
224,320,193544,1,0
160,320,194078,1,0
128,288,194612,1,0
128,224,195145,1,0
128,160,195679,1,0
224,96,196212,1,0
256,128,196746,1,0
384,192,197280,1,0
384,256,197813,1,0
320,352,198347,1,0
192,288,199414,1,0
192,288,199948,1,0
224,192,200481,1,0
192,128,201015,1,0
192,64,201549,1,0
320,32,202082,1,0
320,32,202616,1,0
320,160,203149,1,0
288,224,203683,1,0
256,256,204217,1,0
224,320,204750,1,0
224,320,205284,1,0
128,320,205817,1,0
96,288,206351,1,0
96,160,206885,1,0
128,128,207418,1,0
192,160,207952,1,0
256,160,208485,1,0
320,128,209553,1,0
352,160,210086,1,0
320,224,210620,1,0
256,256,211154,1,0
192,288,211687,1,0
128,288,212221,1,0
64,224,212754,1,0
160,128,213288,1,0
192,96,213822,1,0
352,64,214355,1,0
352,192,214889,1,0
320,256,215422,1,0
256,288,215956,1,0
256,288,216490,1,0
192,320,217023,1,0
96,288,217557,1,0
96,224,218090,1,0
64,160,218624,1,0
160,96,219158,1,0
288,96,219691,1,0
352,128,220225,1,0
352,192,220759,1,0
288,288,221292,1,0
160,288,221826,1,0
32,256,222359,1,0
32,96,222893,1,0
192,96,223427,1,0
224,64,223960,1,0
320,96,224494,5,0
384,160,225027,1,0
384,288,225561,1,0
256,320,226095,1,0
192,320,226628,1,0
64,288,227162,1,0
64,160,227695,1,0
128,96,228229,1,0
256,96,228763,1,0
256,96,229296,1,0
352,192,229830,1,0
256,224,230364,1,0
160,256,230897,1,0
64,192,231431,1,0
96,96,231964,1,0
192,64,232498,1,0
288,128,233032,1,0
256,288,233565,1,0
160,288,235166,1,0
192,96,237834,1,0
192,96,238368,1,0
224,192,238901,1,0
192,224,239435,1,0
64,224,239968,1,0
32,160,240502,1,0
64,32,241036,1,0
160,64,241569,1,0
192,96,242103,1,0
288,128,242637,1,0
256,192,243170,1,0
96,256,243704,1,0
64,160,244771,1,0
128,160,245838,1,0
192,128,246372,1,0
256,128,246905,1,0
320,160,247439,1,0
320,224,248506,1,0
256,256,249040,1,0
256,256,249573,1,0
160,256,250107,1,0
96,256,250641,1,0
64,224,251174,1,0
64,160,251708,1,0
96,96,252242,1,0
160,96,253309,1,0
224,96,253842,1,0
288,128,254376,1,0
288,128,254910,1,0
256,224,255443,1,0
160,256,255977,1,0
128,224,256510,1,0
128,224,257044,1,0
128,160,257578,1,0
128,96,258111,1,0
192,64,258645,1,0
192,64,259178,1,0
288,96,259712,5,0
288,160,260246,1,0
288,224,260779,1,0
288,224,261313,1,0
128,256,261846,1,0
96,192,262380,1,0
96,192,262914,1,0
96,128,263447,1,0
160,96,263981,1,0
256,128,264515,1,0
288,160,265048,1,0
256,256,265582,1,0
160,288,266115,1,0
64,288,266649,1,0
32,256,267183,1,0
64,192,267716,1,0
64,192,268250,1,0
64,128,268783,1,0
128,32,269317,1,0
192,96,269851,1,0
288,192,270384,1,0
256,288,270918,1,0
160,320,271451,1,0
96,320,271985,1,0
64,256,272519,1,0
32,160,273052,1,0
64,32,273586,1,0
160,32,274120,1,0
288,128,274653,1,0
288,192,275187,1,0
288,256,275720,1,0
256,288,276254,1,0
192,320,276788,1,0
128,288,277321,1,0
96,256,277855,1,0
64,160,278388,1,0
160,96,278922,1,0
256,96,279456,1,0
384,192,280523,1,0
352,288,281056,1,0
352,288,281590,1,0
224,288,282124,1,0
128,288,282657,1,0
96,224,283191,1,0
224,160,284258,1,0
384,96,284792,1,0
416,192,285325,1,0
320,288,285859,1,0
288,320,286393,1,0
224,320,286926,1,0
160,288,287993,1,0
96,224,288527,1,0
96,128,289061,1,0
256,160,289594,1,0
320,224,290128,1,0
256,288,290661,1,0
160,288,291729,1,0
64,288,292262,1,0
64,192,292796,1,0
160,160,293329,1,0
288,192,293863,1,0
384,160,299733,1,4
