osu file format v5

[General]
AudioFilename: 01 - More Than A Feeling.mp3
AudioLeadIn: 0
PreviewTime: -1
Countdown: 0
SampleSet: Soft
StackLeniency: 0.7
Mode: 0
LetterboxInBreaks: 1
EditorBookmarks: 15798

[Metadata]
Title:More Than A Feeling
Artist:Boston
Creator:Jordo
Version:Normal
Source:
Tags:

[Difficulty]
HPDrainRate:5
CircleSize:5
OverallDifficulty:5
SliderMultiplier:1.4
SliderTickRate:1

[Events]
//Background and Video events
0,0,"11603119.jpg"
//Break Periods
2,34132,36465
2,66105,66900
2,72475,78705
2,102807,104945
2,134714,136351
2,143596,146011
2,147964,153758
2,172350,182165
2,199911,202875
2,209753,212459
//Storyboard Layer 0 (Background)
//Storyboard Layer 1 (Failing)
//Storyboard Layer 2 (Passing)
//Storyboard Layer 3 (Foreground)
//Storyboard Sound Samples
//Background Colour Transformations
3,100,163,162,255

[TimingPoints]
17882,543.476446370814,4,2,0,100,1
36466,555.556446370811,4,2,0,100,1
42005,543.281419775444,4,1,0,100,1
68100,556.846446370807,4,2,0,100,1
79262,572.13644637081,4,2,0,100,1
86038,558.555203872649,4,2,0,100,1
110586,543.821239407762,4,1,0,100,1
136716,556.791239407763,4,2,0,100,1
143338,553.351239407761,4,1,0,100,1
169908,560.747663551402,4,2,0,100,1
187810,555.864369093941,4,2,0,100,1
196712,545.454545454545,4,1,0,100,1
211994,555.041239407762,4,1,0,100,1
225318,530.971239407764,4,1,0,100,1
227430,550.711239407767,4,1,0,100,1
236208,547.695116385212,4,1,0,100,1
253680,543.773790103317,4,2,0,100,1

[HitObjects]
96,160,15708,1,0
224,160,16523,1,0
256,64,17881,5,0
416,160,18697,1,0
320,224,19240,1,0
160,224,20055,5,0
256,96,20871,1,0
288,352,22229,5,0
288,192,23045,1,0
192,192,23588,1,0
128,128,24403,6,0,B|224:128|224:96,1,105
288,32,25218,1,0
256,160,26577,5,0
160,96,26939,1,0
96,32,27392,1,0
256,160,28140,5,0
224,256,28751,1,0
288,256,29023,1,0
160,288,30925,5,0
160,224,31197,1,0
160,128,31740,1,0
256,224,33099,5,0
256,160,33371,1,0
256,64,33914,1,0
192,160,37577,5,0
224,256,38688,1,0
128,224,39243,1,0
96,128,39799,1,0
256,192,40910,12,8,42005
160,352,42548,5,8
160,288,43091,1,8
160,224,43635,1,8
160,160,44178,1,8
160,96,44721,1,8
224,96,45265,5,8
224,160,45808,1,8
224,224,46351,1,8
224,288,46895,1,8
288,288,47438,5,8
288,224,47982,1,8
288,160,48525,1,8
288,96,49068,1,8
352,96,49612,5,8
352,160,50155,1,8
320,288,50697,5,0
256,288,50969,1,0
160,288,51512,2,0,B|160:192|64:160,1,140
64,128,52803,5,0
64,64,53075,1,0
160,64,53618,2,0,B|235:68|256:160,1,140
160,192,55043,5,0
288,192,55588,1,0
384,192,56130,2,0,B|384:96|384:128,2,70
256,96,57218,5,0
192,96,57489,1,0
96,96,58033,2,0,B|32:128|96:224,1,140
224,96,59391,6,0,B|320:96,3,70
416,96,60750,1,0
416,192,61563,5,0
416,256,61834,1,0
416,352,62312,2,0,B|320:320|320:256,1,140
256,192,63467,12,0,65905
256,192,68100,5,0
352,192,68657,1,0
352,288,69214,1,0
288,288,69492,1,0
160,288,70049,1,0
160,192,70606,2,0,B|160:96,1,70
160,32,71441,5,0
256,64,71997,2,0,B|320:64|320:128,1,70
128,192,79262,5,0
256,192,80120,1,0
384,192,80979,1,0
384,96,81551,1,0
384,192,83839,5,0
256,192,84697,1,0
128,192,85555,1,0
128,96,86038,1,0
192,96,86318,1,0
320,96,86875,2,0,B|384:128|384:192,1,105
256,256,87992,5,0
288,160,88271,2,0,B|192:160,2,70
256,128,90227,5,0
256,32,90506,2,0,B|128:64|128:192|128:192|128:192,1,210
128,256,91902,2,0,B|192:320,1,70
256,352,92461,1,0
256,192,93019,1,0
256,32,93578,1,0
160,160,94695,5,0
192,192,94974,1,0
288,160,95533,1,0
320,96,95812,1,0
224,224,97209,5,0
96,224,97768,1,0
128,160,98047,1,0
288,96,99164,5,0
352,96,99443,2,0,B|352:224|256:224|256:352|288:320,1,233.333333333333
192,320,101398,5,0
128,320,101677,1,0
64,320,102049,2,0,B|64:160,1,140
192,128,106145,5,0
320,128,107262,1,0
256,256,108380,1,0
256,192,109497,12,8,110580
160,352,111129,5,8
160,288,111673,1,8
160,224,112216,1,8
160,160,112760,1,8
160,96,113304,1,8
224,96,113848,5,8
224,160,114392,1,8
224,224,114936,1,8
224,288,115479,1,8
288,288,116023,5,8
288,224,116567,1,8
288,160,117111,1,8
288,96,117655,1,8
352,96,118198,5,8
352,160,118742,1,8
352,224,119286,1,0
352,288,119558,1,0
224,288,120102,2,0,B|160:288|160:160,1,140
160,64,121462,5,0
96,64,121734,1,0
0,64,122278,2,0,B|0:160|96:160,1,140
224,160,123637,5,0
352,160,124180,1,0
352,288,124724,1,0
224,288,125269,1,0
96,288,125812,5,0
96,224,126084,1,0
96,96,126628,2,0,B|96:0|192:0,1,140
288,96,127988,5,0
288,160,128260,1,0
288,224,128532,1,0
352,160,128804,1,0
448,160,129347,1,0
448,256,130163,5,0
448,320,130435,1,0
320,320,130979,2,0,B|224:288|256:192|224:192,1,140
256,192,132338,12,0,134514
256,192,137551,5,0
320,192,137830,1,0
448,192,138664,2,0,B|416:96|256:96,1,210
96,96,140056,5,0
96,288,140891,2,0,B|206:412|500:402|489:53|288:64,1,630
192,64,147211,5,0
64,64,147764,1,0
224,160,154958,5,2
256,224,156065,1,2
288,160,157171,1,2
320,224,158278,1,2
352,160,159385,5,2
384,224,160491,1,2
352,288,161598,1,2
320,224,162705,1,2
288,288,163811,5,2
256,224,164918,1,2
224,288,166025,1,2
192,224,167132,1,2
160,288,168238,1,2
128,224,168792,5,2
192,160,169908,1,0
256,320,170749,1,0
320,160,171590,1,0
256,64,172150,1,0
256,32,183365,5,0
320,32,183646,1,0
352,128,184207,1,0
352,256,185328,1,0
352,320,185608,1,0
288,320,185889,1,0
192,320,187571,5,0
160,288,187849,1,0
64,192,188365,1,0
64,96,188643,2,0,B|192:76|224:64,1,140
352,64,189755,5,0
352,64,190033,1,0
352,64,190311,1,0
352,160,190867,1,0
256,320,191978,5,0
128,320,192256,2,0,B|129:252|128:224,3,70
128,96,194212,1,0
192,96,194485,1,0
256,96,194758,1,0
288,96,194897,1,0
160,288,196712,5,0
160,224,196985,1,0
160,96,197531,1,0
352,288,198893,5,0
352,224,199166,1,0
352,96,199711,1,0
256,192,204075,5,0
256,160,204211,1,0
256,64,204530,1,0
352,64,204893,1,0
352,160,205439,1,0
320,288,207893,5,0
192,288,208439,1,0
192,224,208712,1,0
192,160,208998,1,0
192,32,209553,1,0
288,64,213659,6,0,B|288:224,1,140
288,288,215879,1,0
288,288,216156,1,0
288,288,216434,1,0
128,288,218654,1,0
128,96,220874,5,0
352,96,221984,1,0
288,192,222539,2,0,B|224:256,2,70
128,288,225037,2,0,B|64:288,2,35
96,224,226379,5,0
96,128,226910,1,0
96,32,227430,1,8
192,32,227980,1,8
192,96,228531,5,8
192,160,229082,1,8
192,224,229633,1,8
192,288,230183,1,8
256,288,230734,5,8
256,224,231285,1,8
256,160,231835,1,8
256,96,232386,1,8
320,96,232901,5,8
320,160,233449,1,8
320,224,233997,1,8
320,288,234544,1,8
384,288,235092,5,8
384,224,235640,1,8
384,96,236187,1,0
320,96,236461,1,0
192,96,237029,2,0,B|128:160|192:224,1,140
352,160,238398,5,0
352,224,238672,1,0
352,320,239220,2,0,B|256:320|256:224,1,140
256,64,240589,5,0
128,64,241137,1,0
128,160,241684,2,0,B|128:256,2,70
192,224,242780,5,0
256,256,243054,1,0
384,320,243601,2,0,B|384:192|352:160,1,140
256,32,244971,6,0,B|160:32,1,70
192,96,245518,2,0,B|192:192,1,70
192,320,246340,1,0
416,320,247161,1,0
416,256,247435,1,0
416,128,247983,2,0,B|320:128|287:32|287:32,1,140
256,192,249078,12,4,251543
