osu file format v5

[General]
AudioFilename: 01 - More Than A Feeling.mp3
AudioLeadIn: 0
PreviewTime: -1
Countdown: 0
SampleSet: Soft
StackLeniency: 0.7
Mode: 0
LetterboxInBreaks: 1
EditorBookmarks: 15798

[Metadata]
Title:More Than A Feeling
Artist:Boston
Creator:Jordo
Version:Hard
Source:
Tags:

[Difficulty]
HPDrainRate:7
CircleSize:7
OverallDifficulty:7
SliderMultiplier:1.4
SliderTickRate:1

[Events]
//Background and Video events
0,0,"11603119.jpg"
//Break Periods
2,34132,36465
2,66105,66900
2,72475,78705
2,134714,136351
2,147964,153758
2,172350,182165
2,199911,202875
2,209753,212459
//Storyboard Layer 0 (Background)
//Storyboard Layer 1 (Failing)
//Storyboard Layer 2 (Passing)
//Storyboard Layer 3 (Foreground)
//Storyboard Sound Samples
//Background Colour Transformations
3,100,163,162,255

[TimingPoints]
17882,543.476446370814,4,2,0,100,1
36466,555.556446370811,4,2,0,100,1
42005,543.281419775444,4,1,0,100,1
68100,556.846446370807,4,2,0,100,1
79262,572.13644637081,4,2,0,100,1
86038,558.555203872649,4,2,0,100,1
110586,543.821239407762,4,1,0,100,1
136716,556.791239407763,4,2,0,100,1
143338,553.351239407761,4,1,0,100,1
169908,560.747663551402,4,2,0,100,1
187810,555.864369093941,4,2,0,100,1
196712,545.454545454545,4,1,0,100,1
211994,555.041239407762,4,1,0,100,1
225318,530.971239407764,4,1,0,100,1
227430,550.711239407767,4,1,0,100,1
236208,547.695116385212,4,1,0,100,1
253680,543.773790103317,4,2,0,100,1

[HitObjects]
256,352,15708,1,0
256,288,15979,1,0
256,160,16432,2,0,C|256:96,4,35
256,32,17610,5,0
320,32,17881,1,0
352,64,18153,1,0
352,128,18425,1,0
320,160,18697,2,0,C|160:160,1,140
32,160,19784,5,0
64,224,20055,1,0
96,160,20327,1,0
128,224,20599,1,0
160,160,20871,1,0
352,256,21958,5,0
352,192,22229,1,0
288,192,22501,1,0
224,192,22773,1,0
160,192,23045,2,0,L|160:128|256:128,1,140
288,32,24131,5,0
320,96,24403,1,0
256,96,24675,1,0
288,192,25218,1,0
64,192,26305,5,0
128,192,26577,1,0
192,192,26849,2,0,L|256:64,1,140
416,64,28208,5,0
416,128,28479,1,0
352,160,28751,1,0
288,160,29023,1,0
256,224,30653,5,0
256,160,30925,1,0
256,96,31197,1,0
256,0,31740,1,2
128,96,32555,6,0,L|128:160,1,46.6666666666667
128,224,33099,1,0
128,288,33461,1,0
224,288,33914,1,2
256,192,37577,5,0
32,192,38688,1,0
128,128,39243,1,0
160,96,39521,1,0
192,96,39799,1,0
256,192,40910,12,8,42005
160,352,42548,5,8
160,224,43091,2,8,L|224:224,1,35
256,224,43363,1,8
256,160,43634,1,8
256,32,44178,5,8
288,64,44449,2,8,L|320:96,2,35
320,128,44993,2,8,L|320:192,2,35
320,224,45536,1,8
256,224,45807,1,8
192,224,46079,1,8
192,160,46351,6,8,L|352:160,1,140
320,64,47437,2,8,L|160:64,1,140
64,128,48524,2,8,L|64:288,1,140
160,288,49610,2,8,L|320:288,1,140
352,288,50425,5,0
384,256,50697,1,0
416,224,50969,1,0
448,192,51240,1,0
480,160,51512,2,2,C|416:128|352:160,1,140
224,256,52803,5,0
192,224,53142,1,0
160,192,53413,1,0
128,160,53685,2,2,B|64:96|160:32,1,140
224,96,54636,5,0
256,128,54907,1,0
288,160,55179,2,0,B|288:288,1,105
288,320,55858,1,0
256,320,56130,1,2
224,320,56537,1,0
192,288,56809,5,0
160,256,57081,1,0
128,224,57352,1,0
96,192,57624,1,0
64,160,57895,2,2,B|128:96|32:0,1,175
160,32,59118,5,0
192,96,59390,1,0
224,160,59661,1,0
256,224,59933,1,0
288,288,60204,2,0,B|448:288,1,140
416,128,61563,5,0
384,160,61834,1,0
352,192,62106,1,0
320,224,62378,2,2,B|224:224|224:128,1,140
256,64,63192,5,0
192,64,63464,1,0
64,64,64007,2,0,B|64:160,2,70
256,192,65094,12,4,65909
256,192,68100,5,0
320,192,68378,1,0
320,256,68656,1,0
256,256,68935,1,0
192,256,69213,2,0,B|192:160,1,70
288,96,70048,5,0
288,160,70327,1,0
288,224,70605,1,0
288,288,70884,1,0
192,224,71441,5,0
192,160,71719,1,0
192,96,71997,2,0,B|288:96,1,70
32,352,79262,6,0,B|512:0,1,560
480,352,83839,6,0,B|32:32,1,525
32,96,86317,1,0
32,160,86596,1,0
32,224,86875,1,0
32,288,87294,1,0
160,256,87992,5,0
224,224,88272,1,0
224,224,88551,1,0
224,224,88691,1,0
352,224,90227,5,0
352,288,90506,2,0,B|256:288,1,70
160,288,91344,1,2
96,192,91902,1,0
128,160,92182,1,0
192,160,92461,2,0,B|192:0,2,140
192,384,94695,5,0
224,320,94974,1,0
256,256,95254,1,0
288,320,95533,1,0
320,384,95812,1,0
320,0,96929,5,0
288,64,97209,1,0
256,128,97488,1,0
192,128,97767,1,0
160,128,97907,1,0
96,192,99164,5,0
160,192,99443,2,2,B|224:128,3,70
416,96,101398,5,0
416,96,101537,1,0
416,192,101956,1,0
416,192,102096,1,0
416,192,102515,2,0,B|352:352|96:288|64:160|224:32|224:64,1,490
288,64,105028,2,0,B|288:160,2,70
192,128,106145,5,0
320,128,107262,1,0
256,224,107821,2,0,B|224:256,1,35
192,256,108100,1,0
128,256,108380,1,0
256,192,109497,12,8,110580
224,192,111129,5,8
320,192,111673,2,8,B|416:192,1,70
416,256,112217,2,8,B|320:256,1,70
288,256,112761,2,8,B|288:352,1,70
224,320,113305,2,8,B|160:320,2,35
192,256,113848,5,8
192,192,114120,1,8
192,128,114392,2,8,B|192:64,2,35
256,96,114936,2,8,B|256:160,2,35
256,192,115480,5,8
256,192,115616,1,8
256,192,115752,1,8
192,192,116024,5,8
192,192,116160,1,8
192,192,116296,1,8
192,128,116568,5,8
192,128,116703,1,8
192,128,116839,1,8
192,64,117111,2,8,L|416:64|416:288,1,420
384,288,119015,5,0
352,320,119287,1,0
320,352,119559,1,0
288,320,119830,1,0
256,288,120102,2,2,C|256:224|160:224,1,140
32,160,121462,5,0
64,128,121734,1,0
96,96,122006,1,0
128,64,122278,2,2,L|224:64|256:128,1,140
256,192,123229,5,0
256,256,123501,2,0,L|160:256|160:128|256:128|256:128,1,315
320,128,124997,1,0
320,192,125269,1,0
288,256,125541,5,0
256,224,125812,1,0
224,192,126084,1,0
192,160,126356,1,0
160,128,126628,2,2,B|224:96|320:96,1,140
416,64,127716,5,2
384,96,127988,1,2
352,64,128260,1,2
320,96,128532,1,2
352,128,128804,2,0,B|352:288,1,140
192,320,130163,5,0
160,288,130435,1,0
128,256,130707,1,0
96,224,130979,2,2,B|160:192|160:96,1,140
224,96,131795,5,0
320,96,132202,1,0
320,192,132610,1,0
320,256,132882,1,0
256,256,133154,1,0
256,192,133698,12,4,134514
256,32,137551,5,0
256,96,137830,1,0
256,160,138107,1,0
256,256,138664,2,0,B|128:256|64:160,1,210
96,96,140056,5,0
160,96,140335,1,0
224,96,140613,1,0
224,96,140891,2,0,B|128:256|288:352|448:224|416:64,1,490
320,32,143338,6,0,B|128:64|64:288|288:288,1,420
384,288,145551,1,0
384,192,146104,1,0
384,96,146658,1,0
256,96,147211,1,0
128,96,147764,1,0
256,192,154405,5,0
256,128,154681,2,2,B|160:128,2,70
256,64,155511,1,0
320,64,155788,2,2,B|320:160,2,70
384,64,156618,1,0
416,128,156895,1,0
384,192,157171,1,0
416,256,157448,1,2
320,288,158001,5,0
224,256,158555,2,0,B|224:160,1,70
224,32,159661,1,0
256,64,159938,1,0
224,96,160215,1,0
192,64,160491,1,0
128,64,160768,1,0
128,128,161045,2,2,B|128:288|352:224,1,280
384,192,162428,5,0
384,128,162705,1,0
384,128,162843,1,0
384,128,162981,1,0
320,128,163258,1,2
160,192,164088,5,0
192,128,164365,1,0
224,192,164642,1,0
192,256,164918,2,0,B|192:320,2,35
192,352,165472,1,0
352,352,166302,5,0
352,288,166578,1,0
352,224,166855,1,0
288,224,167132,1,0
288,288,167408,1,0
288,352,167685,1,2
160,352,168238,2,2,B|160:192,1,140
256,192,169898,5,0
256,192,170749,1,0
256,192,171590,1,0
256,192,172150,1,0
128,192,183365,5,0
192,160,183646,1,0
288,128,184207,2,0,B|288:224|384:224,1,140
480,224,185328,1,0
480,128,185608,1,0
480,32,185889,1,0
160,64,187571,5,0
192,128,187849,1,0
128,128,188087,1,0
160,192,188365,1,0
160,288,188643,2,0,L|257:271|320:256,1,140
352,160,189755,5,0
384,96,190033,1,0
416,32,190311,2,0,L|512:160,1,140
320,256,191978,5,0
128,320,192256,2,0,B|129:252|128:224,1,70
128,192,192812,2,0,L|224:192,1,70
416,192,194212,1,0
416,128,194485,1,0
352,128,194758,1,0
320,128,194897,1,0
160,288,196425,5,0
160,224,196712,1,0
160,160,196984,1,0
160,32,197530,1,0
352,288,198348,5,0
352,224,198621,1,0
352,160,198893,1,0
352,96,199166,1,0
352,0,199711,1,0
256,192,204075,5,0
256,128,204211,1,0
352,128,204530,1,0
352,192,204893,2,0,L|352:352,1,140
320,288,207893,5,0
192,288,208439,1,0
192,224,208712,1,0
192,160,208998,1,0
192,32,209553,1,0
288,64,213659,6,0,B|192:192,1,140
256,288,215879,1,0
224,288,216156,1,0
192,288,216434,2,0,L|64:288|64:160|224:160|224:0,1,560
352,96,220874,5,0
160,96,221984,1,0
224,160,222539,2,0,B|256:192,2,35
256,224,223094,2,0,B|160:288|64:192|96:64|256:32|352:96|384:192,1,490
378,177,225176,1,0
378,177,225314,1,0
128,160,226379,5,0
128,96,226645,1,0
128,32,226910,1,0
192,32,227176,1,0
256,32,227430,5,8
288,64,227705,1,8
256,96,227980,1,8
288,128,228256,1,8
256,160,228531,5,8
224,128,228806,1,8
192,160,229082,1,8
160,128,229357,1,8
128,160,229632,5,8
96,192,229908,1,8
128,224,230183,1,8
96,256,230458,1,8
128,288,230734,5,8
160,320,231009,1,8
192,288,231284,1,8
224,320,231560,1,8
256,288,231835,5,8
288,256,232111,1,8
256,224,232386,1,8
288,192,232661,1,8
320,224,232937,5,8
352,192,233212,1,8
384,224,233487,1,8
416,192,233763,1,8
384,160,234038,5,8
416,128,234313,1,8
384,96,234589,1,8
416,64,234864,1,8
384,32,235139,5,8
352,64,235415,1,8
320,32,235690,5,8
288,64,235966,5,8
256,96,236208,5,0
224,128,236481,1,0
192,160,236755,1,0
160,192,237029,2,0,B|96:256|160:320,1,140
320,256,238398,5,0
352,224,238672,1,0
384,192,238946,1,0
416,160,239220,2,0,B|431:74|320:64,1,140
288,64,240041,5,0
128,64,240589,1,0
128,160,240863,2,0,B|128:256,5,70
192,224,242780,5,0
224,256,243054,1,0
256,288,243328,1,0
288,320,243601,2,0,B|353:224|320:160,1,140
160,160,244971,6,0,B|64:160,1,70
128,128,245518,2,0,B|128:224,1,70
128,320,246340,1,0
288,320,247161,5,0
320,288,247435,1,0
352,256,247709,1,0
384,224,247983,2,0,B|374:152|255:128|255:128,1,140
256,192,249078,12,4,251543
