osu file format v13

[General]
AudioFilename: ++().mp3
AudioLeadIn: 0
PreviewTime: -1
Countdown: 1
SampleSet: Soft
StackLeniency: 0.7
Mode: 1
LetterboxInBreaks: 1
WidescreenStoryboard: 1

[Editor]
Bookmarks: 44742
DistanceSpacing: 1.2
BeatDivisor: 4
GridSize: 32
TimelineZoom: 1.9

[Metadata]
Title:The Maze of Mayonnaise
TitleUnicode:The Maze of Mayonnaise
Artist:BossFight
ArtistUnicode:BossFight
Creator:[ J i n ]
Version:Inner Oni
Source:Open_hexagon
Tags:introduce dubstep superhexagon taiko videogame
BeatmapID:389674
BeatmapSetID:159518

[Difficulty]
HPDrainRate:8
CircleSize:7
OverallDifficulty:8
ApproachRate:8
SliderMultiplier:1.49999990463257
SliderTickRate:1

[Events]
//Background and Video events
0,0,"Taiko_BG.png",0,0
//Break Periods
2,121844,125740
2,180511,186055
//Storyboard Layer 0 (Background)
//Storyboard Layer 1 (Fail)
//Storyboard Layer 2 (Pass)
//Storyboard Layer 3 (Foreground)
//Storyboard Sound Samples

[TimingPoints]
13200,444.444444444444,4,2,0,100,1,0
13200,-100,4,2,0,100,0,0
36311,-100,4,2,0,100,0,1
50533,-100,4,2,0,100,0,0
52311,-100,4,2,0,100,0,1
59376,-100,4,2,0,100,0,0
59422,-100,4,2,0,100,0,1
64708,-100,4,2,0,100,0,0
64755,-100,4,2,0,100,0,1
78977,-100,4,2,0,100,0,0
134088,-100,4,2,0,100,0,1
135422,-100,4,2,0,100,0,0
135866,-100,4,2,0,100,0,1
137199,-100,4,2,0,100,0,0
137644,-100,4,2,0,100,0,1
148311,-100,4,2,0,100,0,0
150088,-100,4,2,0,100,0,1
150977,-100,4,2,0,100,0,0
151866,-100,4,2,0,100,0,1
180311,-100,4,2,0,100,0,0
187366,-100,4,2,0,100,0,1
187422,-100,4,2,0,100,0,0

[HitObjects]
192,192,13199,5,0,0:0:0:0:
192,192,13421,1,0,0:0:0:0:
192,192,13532,1,0,0:0:0:0:
192,192,13754,1,0,0:0:0:0:
192,192,13977,1,0,0:0:0:0:
320,192,14088,1,8,0:0:0:0:
320,192,14310,1,8,0:0:0:0:
320,192,14421,1,8,0:0:0:0:
192,192,14532,1,0,0:0:0:0:
192,192,14643,1,0,0:0:0:0:
192,192,14755,1,0,0:0:0:0:
192,192,14977,1,0,0:0:0:0:
192,192,15199,1,0,0:0:0:0:
192,192,15310,1,0,0:0:0:0:
320,192,15422,1,8,0:0:0:0:
192,192,15533,1,0,0:0:0:0:
192,192,15644,1,0,0:0:0:0:
320,192,15866,1,8,0:0:0:0:
320,192,15977,1,8,0:0:0:0:
192,192,16088,1,0,0:0:0:0:
192,192,16200,1,0,0:0:0:0:
320,192,16311,1,8,0:0:0:0:
320,192,16422,1,8,0:0:0:0:
320,192,16533,1,8,0:0:0:0:
192,192,16754,1,0,0:0:0:0:
192,192,16866,1,0,0:0:0:0:
320,192,16977,1,8,0:0:0:0:
192,192,17199,1,0,0:0:0:0:
192,192,17310,1,0,0:0:0:0:
320,192,17421,1,8,0:0:0:0:
192,192,17532,1,0,0:0:0:0:
320,192,17644,1,8,0:0:0:0:
192,224,17755,1,0,0:0:0:0:
192,192,17866,1,0,0:0:0:0:
192,192,18087,1,0,0:0:0:0:
192,192,18310,1,0,0:0:0:0:
192,192,18421,1,0,0:0:0:0:
192,192,18532,1,0,0:0:0:0:
192,192,18754,1,0,0:0:0:0:
192,192,18976,1,0,0:0:0:0:
192,192,19088,1,0,0:0:0:0:
192,192,19310,1,0,0:0:0:0:
192,192,19421,1,0,0:0:0:0:
192,192,19643,1,0,0:0:0:0:
320,192,19755,1,8,0:0:0:0:
192,192,19976,1,0,0:0:0:0:
320,192,20087,1,8,0:0:0:0:
192,192,20309,1,0,0:0:0:0:
192,192,20532,1,0,0:0:0:0:
320,192,20643,1,8,0:0:0:0:
192,192,20865,1,0,0:0:0:0:
320,192,20976,1,8,0:0:0:0:
192,192,21087,1,0,0:0:0:0:
192,192,21199,1,0,0:0:0:0:
192,192,21310,1,0,0:0:0:0:
320,192,21421,1,8,0:0:0:0:
320,192,21532,1,8,0:0:0:0:
192,192,21643,1,0,0:0:0:0:
192,192,21754,1,0,0:0:0:0:
288,192,21865,1,0,0:0:0:0:
192,192,21977,1,0,0:0:0:0:
320,192,22088,1,8,0:0:0:0:
320,192,22310,1,8,0:0:0:0:
192,192,22532,1,0,0:0:0:0:
192,192,22644,1,0,0:0:0:0:
320,192,22755,1,8,0:0:0:0:
192,192,22866,1,0,0:0:0:0:
320,192,22977,1,8,0:0:0:0:
320,192,23199,1,8,0:0:0:0:
192,192,23422,1,0,0:0:0:0:
192,192,23533,1,0,0:0:0:0:
192,192,23644,1,0,0:0:0:0:
192,192,23866,1,0,0:0:0:0:
192,192,24089,1,0,0:0:0:0:
192,192,24311,1,0,0:0:0:0:
192,192,24532,1,0,0:0:0:0:
192,192,24643,1,0,0:0:0:0:
192,192,24754,1,0,0:0:0:0:
192,192,24977,1,0,0:0:0:0:
192,192,25088,1,0,0:0:0:0:
192,192,25199,1,0,0:0:0:0:
192,192,25421,1,0,0:0:0:0:
320,192,25644,1,12,0:0:0:0:
320,192,25866,1,12,0:0:0:0:
192,192,26088,1,0,0:0:0:0:
320,192,26199,1,8,0:0:0:0:
192,192,26421,1,0,0:0:0:0:
320,192,26532,1,8,0:0:0:0:
192,192,26754,1,0,0:0:0:0:
320,192,26865,1,8,0:0:0:0:
192,192,27088,1,0,0:0:0:0:
320,192,27199,1,8,0:0:0:0:
320,192,27310,1,8,0:0:0:0:
192,192,27421,1,0,0:0:0:0:
192,192,27643,1,0,0:0:0:0:
192,192,27755,1,0,0:0:0:0:
320,192,27866,1,8,0:0:0:0:
192,192,28088,1,0,0:0:0:0:
192,192,28199,1,0,0:0:0:0:
192,192,28310,1,0,0:0:0:0:
192,192,28533,1,0,0:0:0:0:
320,192,28644,1,8,0:0:0:0:
320,192,28866,1,8,0:0:0:0:
192,192,28977,1,0,0:0:0:0:
192,192,29088,1,0,0:0:0:0:
320,192,29200,1,8,0:0:0:0:
192,192,29422,1,0,0:0:0:0:
192,192,29533,1,0,0:0:0:0:
192,192,29644,1,0,0:0:0:0:
192,192,29866,1,0,0:0:0:0:
192,192,29978,1,0,0:0:0:0:
320,192,30089,1,8,0:0:0:0:
192,192,30200,1,0,0:0:0:0:
192,192,30311,1,0,0:0:0:0:
320,192,30422,1,8,0:0:0:0:
192,192,30533,1,0,0:0:0:0:
320,192,30755,1,8,0:0:0:0:
192,192,30977,1,0,0:0:0:0:
192,192,31088,1,0,0:0:0:0:
192,192,31199,1,0,0:0:0:0:
192,192,31422,1,0,0:0:0:0:
192,192,31533,1,0,0:0:0:0:
192,192,31755,1,0,0:0:0:0:
192,192,31866,1,0,0:0:0:0:
192,192,32089,1,0,0:0:0:0:
192,192,32200,1,0,0:0:0:0:
192,192,32422,1,0,0:0:0:0:
192,192,32533,1,0,0:0:0:0:
192,192,32755,1,0,0:0:0:0:
320,192,32977,1,8,0:0:0:0:
192,192,33199,1,0,0:0:0:0:
320,192,33310,1,8,0:0:0:0:
192,192,33533,1,0,0:0:0:0:
320,192,33644,1,8,0:0:0:0:
192,192,33866,1,0,0:0:0:0:
320,192,33977,1,8,0:0:0:0:
192,192,34422,1,0,0:0:0:0:
192,192,34533,1,0,0:0:0:0:
192,192,34644,1,0,0:0:0:0:
192,192,34755,1,0,0:0:0:0:
320,192,34866,1,8,0:0:0:0:
192,192,34978,1,0,0:0:0:0:
192,192,35089,1,0,0:0:0:0:
192,192,35200,1,0,0:0:0:0:
320,192,35311,1,8,0:0:0:0:
192,192,35422,1,0,0:0:0:0:
320,192,35644,1,8,0:0:0:0:
192,192,35867,1,0,0:0:0:0:
192,192,36089,1,0,0:0:0:0:
192,192,36311,1,0,0:0:0:0:
192,192,36643,1,0,0:0:0:0:
320,192,36754,1,8,0:0:0:0:
192,192,36976,1,0,0:0:0:0:
192,192,37087,1,0,0:0:0:0:
192,192,37199,1,0,0:0:0:0:
192,192,37310,1,0,0:0:0:0:
192,192,37421,1,0,0:0:0:0:
320,192,37532,1,8,0:0:0:0:
160,192,37643,1,0,0:0:0:0:
192,192,37754,1,0,0:0:0:0:
320,192,37866,1,8,0:0:0:0:
192,192,38088,1,0,0:0:0:0:
192,192,38199,1,0,0:0:0:0:
192,192,38310,1,0,0:0:0:0:
320,192,38421,1,8,0:0:0:0:
192,192,38532,1,0,0:0:0:0:
320,192,38755,1,8,0:0:0:0:
320,192,38866,1,8,0:0:0:0:
192,192,38977,1,0,0:0:0:0:
320,192,39088,1,8,0:0:0:0:
320,192,39199,1,8,0:0:0:0:
192,192,39311,1,0,0:0:0:0:
320,192,39422,1,8,0:0:0:0:
192,192,39644,1,0,0:0:0:0:
192,192,39718,1,0,0:0:0:0:
192,192,39792,1,0,0:0:0:0:
320,192,39866,1,8,0:0:0:0:
192,192,40089,1,0,0:0:0:0:
192,192,40311,1,0,0:0:0:0:
192,192,40422,1,0,0:0:0:0:
320,192,40533,1,8,0:0:0:0:
192,192,40755,1,0,0:0:0:0:
192,192,40867,1,0,0:0:0:0:
320,192,40978,1,8,0:0:0:0:
192,192,41089,1,0,0:0:0:0:
192,192,41200,1,0,0:0:0:0:
192,192,41311,1,0,0:0:0:0:
320,192,41422,1,8,0:0:0:0:
192,192,41644,1,0,0:0:0:0:
192,192,41866,1,0,0:0:0:0:
320,192,41977,1,8,0:0:0:0:
192,192,42199,1,0,0:0:0:0:
320,192,42311,1,8,0:0:0:0:
320,192,42422,1,8,0:0:0:0:
192,192,42533,1,0,0:0:0:0:
192,192,42755,1,0,0:0:0:0:
192,192,42866,1,0,0:0:0:0:
320,192,42978,1,8,0:0:0:0:
192,192,43089,1,0,0:0:0:0:
320,192,43200,1,8,0:0:0:0:
320,192,43311,1,8,0:0:0:0:
192,192,43422,1,0,0:0:0:0:
192,192,43533,1,0,0:0:0:0:
192,192,43644,1,0,0:0:0:0:
320,192,43866,1,8,0:0:0:0:
192,192,44088,1,0,0:0:0:0:
192,192,44199,1,0,0:0:0:0:
192,192,44310,1,0,0:0:0:0:
192,192,44533,1,0,0:0:0:0:
192,192,44644,1,0,0:0:0:0:
192,192,44755,1,0,0:0:0:0:
320,192,44866,1,8,0:0:0:0:
320,192,45088,1,8,0:0:0:0:
192,192,45200,1,0,0:0:0:0:
192,192,45422,1,0,0:0:0:0:
320,192,45644,1,8,0:0:0:0:
192,192,45866,1,0,0:0:0:0:
192,192,45977,1,0,0:0:0:0:
320,192,46088,1,8,0:0:0:0:
320,192,46199,1,8,0:0:0:0:
320,192,46310,1,8,0:0:0:0:
320,192,46532,1,8,0:0:0:0:
320,192,46644,1,8,0:0:0:0:
192,192,46755,1,0,0:0:0:0:
192,192,46866,1,0,0:0:0:0:
192,192,46977,1,0,0:0:0:0:
192,192,47311,1,0,0:0:0:0:
320,192,47422,1,8,0:0:0:0:
192,192,47644,1,0,0:0:0:0:
320,192,47866,1,8,0:0:0:0:
320,192,48089,1,8,0:0:0:0:
320,192,48200,1,8,0:0:0:0:
192,192,48311,1,0,0:0:0:0:
192,192,48422,1,0,0:0:0:0:
192,192,48533,1,0,0:0:0:0:
192,192,48755,1,0,0:0:0:0:
192,192,49088,1,0,0:0:0:0:
320,192,49199,1,8,0:0:0:0:
192,192,49421,1,0,0:0:0:0:
192,192,49533,1,0,0:0:0:0:
320,192,49644,1,8,0:0:0:0:
192,192,49755,1,0,0:0:0:0:
192,192,49866,1,0,0:0:0:0:
320,192,49977,1,8,0:0:0:0:
192,192,50088,1,0,0:0:0:0:
192,192,50200,1,0,0:0:0:0:
192,192,50311,1,0,0:0:0:0:
192,192,50422,1,0,0:0:0:0:
192,192,50533,1,0,0:0:0:0:
192,192,51274,5,0,0:0:0:0:
192,192,51348,1,0,0:0:0:0:
320,192,51422,1,8,0:0:0:0:
320,192,51570,1,8,0:0:0:0:
320,192,51718,1,8,0:0:0:0:
320,192,51867,1,8,0:0:0:0:
320,192,52014,1,8,0:0:0:0:
320,192,52162,1,8,0:0:0:0:
192,192,52311,1,0,0:0:0:0:
192,192,52977,1,0,0:0:0:0:
192,192,53088,1,0,0:0:0:0:
192,192,53200,1,0,0:0:0:0:
320,192,53422,1,8,0:0:0:0:
192,192,53644,1,0,0:0:0:0:
192,192,53755,1,0,0:0:0:0:
320,192,53867,1,8,0:0:0:0:
320,192,54089,1,8,0:0:0:0:
192,192,54422,1,0,0:0:0:0:
320,192,54754,1,8,0:0:0:0:
320,192,54976,1,8,0:0:0:0:
320,192,55198,1,8,0:0:0:0:
192,192,55421,1,0,0:0:0:0:
192,192,55643,1,0,0:0:0:0:
192,192,55865,1,0,0:0:0:0:
192,192,56199,1,0,0:0:0:0:
320,192,56310,1,8,0:0:0:0:
192,192,56532,1,0,0:0:0:0:
192,192,56755,1,0,0:0:0:0:
192,192,56977,1,0,0:0:0:0:
320,192,57199,1,8,0:0:0:0:
192,192,57420,1,0,0:0:0:0:
320,192,57643,1,8,0:0:0:0:
192,192,57976,1,0,0:0:0:0:
320,192,58310,1,8,0:0:0:0:
320,192,58421,1,8,0:0:0:0:
192,192,58532,1,0,0:0:0:0:
192,192,58754,1,0,0:0:0:0:
192,192,58977,1,0,0:0:0:0:
192,192,59088,1,0,0:0:0:0:
320,192,59199,1,8,0:0:0:0:
320,192,59421,1,8,0:0:0:0:
320,192,59866,1,8,0:0:0:0:
320,192,60088,1,8,0:0:0:0:
192,192,60310,1,0,0:0:0:0:
192,192,60533,1,0,0:0:0:0:
192,192,60644,1,0,0:0:0:0:
320,192,60755,1,8,0:0:0:0:
192,192,60977,1,0,0:0:0:0:
192,192,61089,1,0,0:0:0:0:
320,192,61200,1,8,0:0:0:0:
192,192,61422,1,0,0:0:0:0:
192,192,61533,1,0,0:0:0:0:
320,192,61866,1,8,0:0:0:0:
192,192,62088,1,4,0:0:0:0:
320,192,62310,1,12,0:0:0:0:
320,192,62533,1,12,0:0:0:0:
192,192,62755,1,4,0:0:0:0:
192,192,62977,1,4,0:0:0:0:
192,192,63199,1,4,0:0:0:0:
192,192,63422,1,4,0:0:0:0:
192,192,63644,1,4,0:0:0:0:
192,192,63866,1,4,0:0:0:0:
192,192,64088,1,0,0:0:0:0:
192,192,64162,1,0,0:0:0:0:
192,192,64237,1,0,0:0:0:0:
320,192,64310,1,8,0:0:0:0:
320,192,64532,1,8,0:0:0:0:
192,192,64755,1,0,0:0:0:0:
192,192,65088,1,0,0:0:0:0:
320,192,65199,1,8,0:0:0:0:
192,192,65422,1,0,0:0:0:0:
320,192,65644,1,8,0:0:0:0:
320,192,65755,1,8,0:0:0:0:
192,192,65866,1,0,0:0:0:0:
320,192,66088,1,8,0:0:0:0:
320,192,66200,1,8,0:0:0:0:
192,192,66311,1,0,0:0:0:0:
192,192,66422,1,0,0:0:0:0:
192,192,66533,1,0,0:0:0:0:
192,192,66754,1,0,0:0:0:0:
192,192,66865,1,0,0:0:0:0:
320,192,66977,1,8,0:0:0:0:
320,192,67199,1,8,0:0:0:0:
320,192,67310,1,8,0:0:0:0:
192,192,67421,1,0,0:0:0:0:
192,192,67496,1,0,0:0:0:0:
192,192,67570,1,0,0:0:0:0:
192,192,67718,1,0,0:0:0:0:
320,192,67866,1,8,0:0:0:0:
320,192,67940,1,8,0:0:0:0:
320,192,68014,1,8,0:0:0:0:
320,192,68162,1,8,0:0:0:0:
192,192,68311,1,0,0:0:0:0:
192,192,68644,1,0,0:0:0:0:
320,192,68755,1,8,0:0:0:0:
320,192,68866,1,8,0:0:0:0:
192,192,68977,1,0,0:0:0:0:
192,192,69199,1,0,0:0:0:0:
192,192,69310,1,0,0:0:0:0:
320,192,69421,1,8,0:0:0:0:
192,192,69532,1,0,0:0:0:0:
320,192,69643,1,8,0:0:0:0:
320,192,69866,1,8,0:0:0:0:
320,192,69977,1,8,0:0:0:0:
192,192,70088,1,0,0:0:0:0:
192,192,70199,1,0,0:0:0:0:
192,192,70310,1,0,0:0:0:0:
320,192,70533,1,8,0:0:0:0:
192,192,70755,1,0,0:0:0:0:
320,192,70977,1,12,0:0:0:0:
320,192,71199,1,8,0:0:0:0:
192,192,71422,1,4,0:0:0:0:
192,192,71644,1,0,0:0:0:0:
192,192,71866,1,0,0:0:0:0:
192,192,72200,1,0,0:0:0:0:
192,192,72311,1,0,0:0:0:0:
192,192,72422,1,0,0:0:0:0:
192,192,72533,1,0,0:0:0:0:
320,192,72644,1,8,0:0:0:0:
320,192,72756,1,8,0:0:0:0:
320,192,72867,1,8,0:0:0:0:
192,192,72978,1,0,0:0:0:0:
192,192,73200,1,0,0:0:0:0:
192,192,73311,1,0,0:0:0:0:
320,192,73422,1,8,0:0:0:0:
320,192,73644,1,8,0:0:0:0:
320,192,73755,1,8,0:0:0:0:
320,192,73866,1,8,0:0:0:0:
320,192,73977,1,8,0:0:0:0:
192,192,74088,1,0,0:0:0:0:
192,192,74200,1,0,0:0:0:0:
192,192,74311,1,0,0:0:0:0:
320,192,74533,1,8,0:0:0:0:
320,192,74755,1,8,0:0:0:0:
320,192,74866,1,8,0:0:0:0:
192,192,74977,1,0,0:0:0:0:
192,192,75088,1,0,0:0:0:0:
192,192,75199,1,0,0:0:0:0:
192,192,75422,1,0,0:0:0:0:
192,192,75756,1,0,0:0:0:0:
320,192,75867,1,8,0:0:0:0:
192,192,76089,1,0,0:0:0:0:
320,192,76312,1,8,0:0:0:0:
320,192,76534,1,8,0:0:0:0:
192,192,76756,1,0,0:0:0:0:
192,192,76978,1,0,0:0:0:0:
192,192,77201,1,4,0:0:0:0:
192,192,77422,1,0,0:0:0:0:
192,192,77533,1,0,0:0:0:0:
320,192,77645,1,8,0:0:0:0:
320,192,77866,1,8,0:0:0:0:
192,192,77977,1,0,0:0:0:0:
320,192,78088,1,8,0:0:0:0:
320,192,78311,1,8,0:0:0:0:
320,192,78422,1,8,0:0:0:0:
192,192,78533,1,0,0:0:0:0:
192,192,78755,1,0,0:0:0:0:
192,192,78866,1,0,0:0:0:0:
256,192,78977,12,0,82420,0:0:0:0:
256,192,82533,12,0,85199,0:0:0:0:
192,192,86088,5,0,0:0:0:0:
320,192,86421,1,8,0:0:0:0:
320,192,86755,1,8,0:0:0:0:
192,192,86977,1,0,0:0:0:0:
320,192,87311,1,8,0:0:0:0:
320,192,87644,1,8,0:0:0:0:
192,192,87866,1,0,0:0:0:0:
320,192,88199,1,8,0:0:0:0:
320,192,88533,1,8,0:0:0:0:
192,192,88755,1,0,0:0:0:0:
192,192,88866,1,0,0:0:0:0:
320,192,89088,1,8,0:0:0:0:
192,192,89199,1,0,0:0:0:0:
320,192,89422,1,8,0:0:0:0:
192,192,89644,1,0,0:0:0:0:
320,192,89755,1,0,0:0:0:0:
320,192,89977,1,8,0:0:0:0:
320,192,90088,1,8,0:0:0:0:
192,192,90199,1,0,0:0:0:0:
320,192,90311,1,8,0:0:0:0:
320,192,90422,1,8,0:0:0:0:
192,192,90533,1,0,0:0:0:0:
320,192,90866,1,8,0:0:0:0:
320,192,91199,1,8,0:0:0:0:
192,192,91421,1,0,0:0:0:0:
192,192,91644,1,0,0:0:0:0:
160,192,91755,1,0,0:0:0:0:
192,192,91866,1,0,0:0:0:0:
192,192,92088,1,0,0:0:0:0:
192,192,92199,1,0,0:0:0:0:
192,192,92311,1,0,0:0:0:0:
192,192,92422,1,0,0:0:0:0:
192,192,92533,1,0,0:0:0:0:
192,192,92644,1,0,0:0:0:0:
320,192,92755,1,8,0:0:0:0:
192,192,92829,1,0,0:0:0:0:
192,192,92903,1,0,0:0:0:0:
192,192,92977,1,0,0:0:0:0:
192,192,93199,1,0,0:0:0:0:
192,192,93421,1,0,0:0:0:0:
192,192,93532,1,0,0:0:0:0:
320,192,93643,1,0,0:0:0:0:
192,192,93866,1,0,0:0:0:0:
192,192,94088,1,0,0:0:0:0:
192,192,94199,1,0,0:0:0:0:
192,192,94310,1,0,0:0:0:0:
320,192,94421,1,8,0:0:0:0:
192,192,94533,1,0,0:0:0:0:
192,192,94755,1,0,0:0:0:0:
192,192,94866,1,0,0:0:0:0:
320,192,94977,1,8,0:0:0:0:
320,192,95088,1,8,0:0:0:0:
320,192,95199,1,8,0:0:0:0:
320,192,95311,1,8,0:0:0:0:
192,192,95422,1,0,0:0:0:0:
192,192,95644,1,0,0:0:0:0:
192,192,95755,1,0,0:0:0:0:
320,192,95866,1,8,0:0:0:0:
192,192,96089,1,0,0:0:0:0:
192,192,96200,1,0,0:0:0:0:
320,192,96311,1,8,0:0:0:0:
192,192,96422,1,0,0:0:0:0:
320,192,96533,1,8,0:0:0:0:
320,192,96866,1,8,0:0:0:0:
320,192,96976,1,8,0:0:0:0:
192,192,97198,1,0,0:0:0:0:
192,192,97421,1,0,0:0:0:0:
192,192,97865,1,0,0:0:0:0:
320,192,98088,1,8,0:0:0:0:
192,192,98310,1,0,0:0:0:0:
192,192,98532,1,0,0:0:0:0:
320,192,98754,1,8,0:0:0:0:
320,192,98977,1,8,0:0:0:0:
320,192,99199,1,8,0:0:0:0:
192,192,99421,1,0,0:0:0:0:
192,192,99477,1,0,0:0:0:0:
192,192,99533,1,0,0:0:0:0:
192,192,99644,1,0,0:0:0:0:
192,192,99755,1,0,0:0:0:0:
320,192,99866,1,8,0:0:0:0:
192,192,100311,1,0,0:0:0:0:
320,192,100644,1,8,0:0:0:0:
192,192,100755,1,0,0:0:0:0:
320,192,100978,1,8,0:0:0:0:
192,192,101200,1,0,0:0:0:0:
320,192,101311,1,8,0:0:0:0:
192,192,101532,1,0,0:0:0:0:
192,192,101643,1,0,0:0:0:0:
320,192,101866,1,8,0:0:0:0:
192,192,102310,1,0,0:0:0:0:
96,64,102533,2,0,L|416:64,1,319.999980926514
32,96,103866,2,0,L|524:96,1,479.999971389771
64,96,105644,2,4,L|384:96,1,319.999980926514
192,192,107420,1,4,0:0:0:0:
320,192,107643,1,8,0:0:0:0:
320,192,108087,1,8,0:0:0:0:
320,192,108532,1,8,0:0:0:0:
320,192,108754,1,8,0:0:0:0:
320,192,108977,1,8,0:0:0:0:
320,192,109422,1,8,0:0:0:0:
192,192,109644,1,0,0:0:0:0:
192,192,110089,1,0,0:0:0:0:
320,192,110311,1,8,0:0:0:0:
320,192,110756,1,8,0:0:0:0:
192,192,110978,1,0,0:0:0:0:
320,192,111201,1,8,0:0:0:0:
320,192,111423,1,8,0:0:0:0:
320,192,111645,1,8,0:0:0:0:
320,192,112088,1,8,0:0:0:0:
320,192,112532,1,8,0:0:0:0:
320,192,112755,1,8,0:0:0:0:
320,192,112977,1,8,0:0:0:0:
192,192,113199,1,0,0:0:0:0:
192,192,113422,1,0,0:0:0:0:
192,192,113644,1,0,0:0:0:0:
320,192,113866,1,8,0:0:0:0:
320,192,114089,1,8,0:0:0:0:
320,192,114311,1,8,0:0:0:0:
192,192,114532,1,0,0:0:0:0:
320,192,114755,1,8,0:0:0:0:
320,192,114977,1,8,0:0:0:0:
320,192,115199,1,8,0:0:0:0:
320,192,115422,1,8,0:0:0:0:
320,192,115755,1,8,0:0:0:0:
320,192,116088,1,8,0:0:0:0:
192,192,116310,1,0,0:0:0:0:
192,192,116532,1,0,0:0:0:0:
192,192,116754,1,0,0:0:0:0:
192,192,116977,1,0,0:0:0:0:
320,192,117199,1,8,0:0:0:0:
320,192,117477,1,8,0:0:0:0:
192,192,117866,1,0,0:0:0:0:
192,192,118088,1,4,0:0:0:0:
320,192,118311,1,8,0:0:0:0:
320,192,118422,1,8,0:0:0:0:
320,192,118755,1,8,0:0:0:0:
192,192,118977,1,0,0:0:0:0:
320,192,119088,1,8,0:0:0:0:
192,192,119311,1,0,0:0:0:0:
320,192,119422,1,8,0:0:0:0:
192,192,119533,1,0,0:0:0:0:
320,192,119644,1,8,0:0:0:0:
192,192,119866,1,0,0:0:0:0:
192,192,119977,1,0,0:0:0:0:
192,192,120088,1,0,0:0:0:0:
192,192,120310,1,0,0:0:0:0:
192,192,120421,1,0,0:0:0:0:
192,192,120532,1,0,0:0:0:0:
192,192,120644,1,0,0:0:0:0:
192,192,120755,1,0,0:0:0:0:
320,192,120977,1,8,0:0:0:0:
320,192,121422,1,8,0:0:0:0:
192,192,121644,1,4,0:0:0:0:
320,192,126977,5,8,0:0:0:0:
192,192,127125,1,0,0:0:0:0:
192,192,127274,1,0,0:0:0:0:
320,192,127422,1,8,0:0:0:0:
192,192,127570,1,0,0:0:0:0:
192,192,127718,1,0,0:0:0:0:
320,192,127867,1,8,0:0:0:0:
192,192,128014,1,0,0:0:0:0:
192,192,128162,1,0,0:0:0:0:
320,192,128311,1,8,0:0:0:0:
192,192,128459,1,0,0:0:0:0:
192,192,128607,1,0,0:0:0:0:
192,192,128755,1,4,0:0:0:0:
320,192,131644,1,8,0:0:0:0:
320,192,131718,1,8,0:0:0:0:
192,192,131792,1,0,0:0:0:0:
192,192,131865,1,0,0:0:0:0:
192,192,132310,1,4,0:0:0:0:
192,192,133199,1,4,0:0:0:0:
192,192,134088,1,0,0:0:0:0:
192,192,134533,1,0,0:0:0:0:
192,192,134977,1,0,0:0:0:0:
192,192,135051,1,0,0:0:0:0:
192,192,135125,1,0,0:0:0:0:
192,192,135199,1,0,0:0:0:0:
192,192,135274,1,0,0:0:0:0:
192,192,135348,1,0,0:0:0:0:
320,192,135422,1,8,0:0:0:0:
192,192,135866,1,0,0:0:0:0:
320,192,136199,1,8,0:0:0:0:
192,192,136310,1,0,0:0:0:0:
320,192,136533,1,8,0:0:0:0:
192,192,136755,1,0,0:0:0:0:
320,192,136866,1,8,0:0:0:0:
320,192,137088,1,8,0:0:0:0:
160,192,137199,1,0,0:0:0:0:
320,192,137422,1,8,0:0:0:0:
320,192,137643,1,8,0:0:0:0:
320,192,137699,1,8,0:0:0:0:
320,192,137754,1,8,0:0:0:0:
320,192,137865,1,8,0:0:0:0:
320,192,137921,1,8,0:0:0:0:
320,192,137977,1,8,0:0:0:0:
320,192,138088,1,8,0:0:0:0:
160,192,138310,1,0,0:0:0:0:
320,192,138532,1,8,0:0:0:0:
320,192,138755,1,8,0:0:0:0:
160,192,138977,1,0,0:0:0:0:
160,192,139088,1,0,0:0:0:0:
320,192,139199,1,8,0:0:0:0:
160,192,139310,1,0,0:0:0:0:
160,192,139422,1,0,0:0:0:0:
320,192,139533,1,8,0:0:0:0:
160,192,139644,1,0,0:0:0:0:
160,192,139755,1,0,0:0:0:0:
320,192,139866,1,8,0:0:0:0:
320,192,139977,1,8,0:0:0:0:
320,192,140088,1,8,0:0:0:0:
320,192,140200,1,8,0:0:0:0:
320,192,140311,1,8,0:0:0:0:
320,192,140385,1,8,0:0:0:0:
320,192,140459,1,8,0:0:0:0:
320,192,140533,1,8,0:0:0:0:
320,192,140607,1,8,0:0:0:0:
320,192,140681,1,8,0:0:0:0:
160,192,140755,1,0,0:0:0:0:
320,192,140977,1,8,0:0:0:0:
160,192,141199,1,0,0:0:0:0:
160,192,141274,1,0,0:0:0:0:
320,192,141348,1,8,0:0:0:0:
160,192,141422,1,0,0:0:0:0:
160,192,141496,1,0,0:0:0:0:
320,192,141570,1,8,0:0:0:0:
160,192,141644,1,0,0:0:0:0:
160,192,141718,1,0,0:0:0:0:
320,192,141792,1,8,0:0:0:0:
160,192,141866,1,0,0:0:0:0:
160,192,141940,1,0,0:0:0:0:
320,192,142014,1,8,0:0:0:0:
160,192,142088,1,0,0:0:0:0:
160,192,142162,1,0,0:0:0:0:
320,192,142237,1,8,0:0:0:0:
160,192,142311,1,0,0:0:0:0:
160,192,142385,1,0,0:0:0:0:
320,192,142459,1,8,0:0:0:0:
160,192,142533,1,0,0:0:0:0:
320,192,142755,1,8,0:0:0:0:
160,192,142977,1,0,0:0:0:0:
160,192,143089,1,0,0:0:0:0:
160,192,143200,1,0,0:0:0:0:
160,192,143311,1,0,0:0:0:0:
320,192,143422,1,8,0:0:0:0:
160,192,143644,1,0,0:0:0:0:
160,192,143756,1,0,0:0:0:0:
160,192,143867,1,0,0:0:0:0:
160,192,143978,1,0,0:0:0:0:
160,192,144089,1,0,0:0:0:0:
160,192,144200,1,0,0:0:0:0:
320,192,144311,1,8,0:0:0:0:
160,192,144533,1,0,0:0:0:0:
160,192,144644,1,0,0:0:0:0:
96,96,144755,2,0,L|272:95,1,159.999990463257
160,192,145422,1,0,0:0:0:0:
160,192,145533,1,0,0:0:0:0:
320,192,145644,1,8,0:0:0:0:
320,192,145866,1,8,0:0:0:0:
160,192,146089,1,0,0:0:0:0:
320,192,146311,1,8,0:0:0:0:
160,192,146533,1,0,0:0:0:0:
160,192,146589,1,0,0:0:0:0:
160,192,146644,1,0,0:0:0:0:
160,192,146756,1,0,0:0:0:0:
160,192,146867,1,0,0:0:0:0:
320,192,146978,1,8,0:0:0:0:
320,192,147089,1,8,0:0:0:0:
320,192,147200,1,8,0:0:0:0:
320,192,147311,1,8,0:0:0:0:
160,192,147423,1,0,0:0:0:0:
320,192,147478,1,8,0:0:0:0:
320,192,147534,1,8,0:0:0:0:
160,192,147645,1,0,0:0:0:0:
320,192,147756,1,8,0:0:0:0:
160,192,147867,1,0,0:0:0:0:
160,192,147978,1,0,0:0:0:0:
320,192,148089,1,8,0:0:0:0:
160,192,148201,1,0,0:0:0:0:
160,192,148312,1,4,0:0:0:0:
160,192,148532,1,4,0:0:0:0:
160,192,148754,1,4,0:0:0:0:
160,192,148977,1,4,0:0:0:0:
160,192,149199,1,4,0:0:0:0:
160,192,149422,1,0,0:0:0:0:
320,192,149496,1,8,0:0:0:0:
320,192,149570,1,8,0:0:0:0:
160,192,149644,1,0,0:0:0:0:
160,192,149866,1,0,0:0:0:0:
160,192,150088,1,0,0:0:0:0:
160,192,150144,1,0,0:0:0:0:
320,192,150199,1,8,0:0:0:0:
160,192,150311,1,0,0:0:0:0:
160,192,150366,1,0,0:0:0:0:
320,192,150422,1,8,0:0:0:0:
160,192,150533,1,0,0:0:0:0:
320,192,150588,1,8,0:0:0:0:
320,192,150644,1,8,0:0:0:0:
320,192,150755,1,8,0:0:0:0:
160,192,150811,1,0,0:0:0:0:
128,192,150866,1,0,0:0:0:0:
160,192,150977,1,0,0:0:0:0:
320,192,151033,1,8,0:0:0:0:
160,192,151089,1,0,0:0:0:0:
320,192,151200,1,8,0:0:0:0:
320,192,151255,1,8,0:0:0:0:
160,192,151311,1,0,0:0:0:0:
96,64,151422,2,0,L|192:64,1,69.9999911880497
160,192,151866,1,0,0:0:0:0:
160,192,152088,1,0,0:0:0:0:
160,192,152199,1,0,0:0:0:0:
320,192,152310,1,8,0:0:0:0:
320,192,152421,1,8,0:0:0:0:
160,192,152533,1,0,0:0:0:0:
160,192,152644,1,0,0:0:0:0:
320,192,152755,1,8,0:0:0:0:
320,192,152866,1,8,0:0:0:0:
320,192,152977,1,8,0:0:0:0:
160,192,153088,1,0,0:0:0:0:
160,192,153200,1,0,0:0:0:0:
320,192,153311,1,8,0:0:0:0:
320,192,153422,1,8,0:0:0:0:
160,192,153643,1,0,0:0:0:0:
320,192,153754,1,8,0:0:0:0:
320,192,153865,1,8,0:0:0:0:
160,192,153977,1,0,0:0:0:0:
160,192,154088,1,0,0:0:0:0:
160,192,154199,1,0,0:0:0:0:
320,192,154310,1,8,0:0:0:0:
320,192,154421,1,8,0:0:0:0:
160,192,154532,1,0,0:0:0:0:
320,192,154644,1,8,0:0:0:0:
320,192,154755,1,8,0:0:0:0:
320,192,154866,1,8,0:0:0:0:
160,192,154977,1,0,0:0:0:0:
160,192,155088,1,0,0:0:0:0:
160,192,155199,1,0,0:0:0:0:
160,192,155421,1,0,0:0:0:0:
160,192,155532,1,0,0:0:0:0:
320,192,155643,1,8,0:0:0:0:
320,192,155754,1,8,0:0:0:0:
160,192,155865,1,0,0:0:0:0:
320,192,155976,1,8,0:0:0:0:
320,192,156088,1,8,0:0:0:0:
320,192,156199,1,8,0:0:0:0:
320,192,156310,1,8,0:0:0:0:
320,192,156421,1,8,0:0:0:0:
160,192,156532,1,0,0:0:0:0:
320,192,156643,1,8,0:0:0:0:
320,192,156754,1,8,0:0:0:0:
320,192,156866,1,8,0:0:0:0:
320,192,156977,1,8,0:0:0:0:
128,192,157088,1,0,0:0:0:0:
160,192,157199,1,0,0:0:0:0:
160,192,157310,1,0,0:0:0:0:
320,192,157421,1,8,0:0:0:0:
320,192,157533,1,8,0:0:0:0:
160,192,157644,1,0,0:0:0:0:
160,192,157755,1,0,0:0:0:0:
160,192,157866,1,0,0:0:0:0:
320,192,157977,1,8,0:0:0:0:
320,192,158088,1,8,0:0:0:0:
160,192,158199,1,0,0:0:0:0:
160,192,158311,1,0,0:0:0:0:
160,192,158422,1,0,0:0:0:0:
320,192,158533,1,8,0:0:0:0:
160,192,158644,1,0,0:0:0:0:
160,192,158755,1,0,0:0:0:0:
160,192,158976,1,0,0:0:0:0:
320,192,159088,1,8,0:0:0:0:
320,192,159199,1,8,0:0:0:0:
160,192,159310,1,0,0:0:0:0:
160,192,159421,1,0,0:0:0:0:
320,192,159532,1,8,0:0:0:0:
320,192,159588,1,8,0:0:0:0:
320,192,159643,1,8,0:0:0:0:
160,192,159755,1,0,0:0:0:0:
160,192,159866,1,0,0:0:0:0:
320,192,159977,1,8,0:0:0:0:
320,192,160088,1,8,0:0:0:0:
320,192,160199,1,8,0:0:0:0:
320,192,160310,1,8,0:0:0:0:
320,192,160421,1,8,0:0:0:0:
160,192,160533,1,0,0:0:0:0:
160,192,160644,1,0,0:0:0:0:
320,192,160755,1,8,0:0:0:0:
160,192,160866,1,0,0:0:0:0:
160,192,160977,1,0,0:0:0:0:
160,192,161088,1,0,0:0:0:0:
320,192,161200,1,8,0:0:0:0:
320,192,161311,1,8,0:0:0:0:
160,192,161422,1,0,0:0:0:0:
160,192,161533,1,0,0:0:0:0:
320,192,161644,1,8,0:0:0:0:
320,192,161755,1,8,0:0:0:0:
320,192,161866,1,8,0:0:0:0:
160,192,161978,1,0,0:0:0:0:
160,192,162089,1,0,0:0:0:0:
160,192,162200,1,0,0:0:0:0:
160,192,162311,1,0,0:0:0:0:
160,192,162422,1,0,0:0:0:0:
320,192,162533,1,8,0:0:0:0:
160,192,162645,1,0,0:0:0:0:
320,192,162756,1,8,0:0:0:0:
320,192,162867,1,8,0:0:0:0:
320,192,162978,1,8,0:0:0:0:
160,192,163089,1,0,0:0:0:0:
160,192,163200,1,0,0:0:0:0:
160,192,163311,1,0,0:0:0:0:
160,192,163421,1,0,0:0:0:0:
160,192,163476,1,0,0:0:0:0:
320,192,163532,1,8,0:0:0:0:
160,192,163643,1,0,0:0:0:0:
320,192,163754,1,8,0:0:0:0:
320,192,163865,1,8,0:0:0:0:
160,192,163976,1,0,0:0:0:0:
160,192,164088,1,0,0:0:0:0:
160,192,164199,1,0,0:0:0:0:
320,192,164310,1,8,0:0:0:0:
320,192,164421,1,8,0:0:0:0:
160,192,164532,1,0,0:0:0:0:
320,192,164643,1,8,0:0:0:0:
320,192,164755,1,8,0:0:0:0:
160,192,164866,1,0,0:0:0:0:
160,224,164977,1,0,0:0:0:0:
320,192,165088,1,8,0:0:0:0:
320,192,165199,1,8,0:0:0:0:
160,192,165310,1,0,0:0:0:0:
320,192,165421,1,8,0:0:0:0:
320,192,165533,1,8,0:0:0:0:
160,192,165644,1,0,0:0:0:0:
160,192,165755,1,0,0:0:0:0:
320,192,165866,1,8,0:0:0:0:
160,192,165977,1,0,0:0:0:0:
256,192,166088,12,0,171420,0:0:0:0:
320,192,172310,5,8,0:0:0:0:
320,192,172532,1,8,0:0:0:0:
320,192,172754,1,8,0:0:0:0:
192,192,173199,1,0,0:0:0:0:
192,192,174976,1,0,0:0:0:0:
192,192,175198,1,0,0:0:0:0:
192,192,175642,1,0,0:0:0:0:
320,192,175865,1,8,0:0:0:0:
192,192,176087,1,0,0:0:0:0:
320,192,176532,1,8,0:0:0:0:
192,192,176754,1,0,0:0:0:0:
320,192,176976,1,8,0:0:0:0:
320,192,177421,1,8,0:0:0:0:
192,192,177643,1,0,0:0:0:0:
192,192,177866,1,0,0:0:0:0:
320,192,178310,1,8,0:0:0:0:
192,192,178532,1,0,0:0:0:0:
320,192,178755,1,8,0:0:0:0:
192,192,179199,1,0,0:0:0:0:
192,192,179422,1,0,0:0:0:0:
320,192,179644,1,8,0:0:0:0:
320,192,179866,1,8,0:0:0:0:
320,192,180089,1,8,0:0:0:0:
192,192,180311,1,0,0:0:0:0:
192,192,187199,5,0,0:0:0:0:
192,192,187311,5,0,0:0:0:0:
192,192,187422,5,0,0:0:0:0:
