osu file format v7

[General]
AudioFilename: Boots Randolph - Yakety Sax.mp3
AudioLeadIn: 0
PreviewTime: 19436
Countdown: 1
SampleSet: Soft
StackLeniency: 0.7
Mode: 0
LetterboxInBreaks: 1

[Editor]
Bookmarks: 50100,66682,81268,97932,109003,113205,128609,163191,166994,212382
DistanceSpacing: 0.899999976158142
BeatDivisor: 4
GridSize: 8

[Metadata]
Title:Yakety Sax
Artist:Boots Randolph
Creator:Mashley
Version:Ridiculous
Source:
Tags:benny hill theme gladi gladiool mariobros777 diamondcrash doomsday93 agent spin here nharox sushi971 blue dragon jarjarjacob jarby metalmario201 azure kyte nohitter randomjibberish lesjuh

[Difficulty]
HPDrainRate:8
CircleSize:4
OverallDifficulty:9
SliderMultiplier:2
SliderTickRate:2

[Events]
//Background and Video events
0,0,"ryur5yukt.png"
//Break Periods
2,50253,66082
2,81455,97332
2,112417,127617
2,162438,166445
//Storyboard Layer 0 (Background)
//Storyboard Layer 1 (Fail)
//Storyboard Layer 2 (Pass)
//Storyboard Layer 3 (Foreground)
//Storyboard Sound Samples
//Background Colour Transformations
3,100,0,0,0

[TimingPoints]
3905.20974370106,245.901639344262,4,2,0,79,1,0
19681,244.897959183673,4,2,0,79,1,0
27517,243.90243902439,4,2,0,79,1,0
35321,247.422680412371,4,2,0,79,1,0
43238,243.407707910751,4,2,0,79,1,0
51053,246.913580246914,4,2,0,79,1,0
66682,242.914979757085,4,2,0,79,1,0
81256,247.933884297521,4,2,0,79,1,0
97932,238.095238095238,4,2,0,79,1,0
112098,-100,4,1,0,79,0,0
112336,-100,4,2,0,79,0,0
113247,239.520958083832,4,2,0,79,1,0
128576,241.935483870968,4,2,0,79,1,0
136317,240,4,2,0,79,1,0
146997,-200,4,2,0,79,0,0
147896,239.043824701195,4,2,0,79,1,0
163171,240,4,2,0,79,1,0
167045,237.154150197628,4,2,0,79,1,0
182269,234.833659491194,4,2,0,79,1,0
196341,238.095238095238,4,2,0,79,1,0
204912,235.294117647059,4,2,0,79,1,0
212499,233.463035019455,4,2,0,79,1,0
226516,244.897959183673,4,2,0,79,1,0
227495,234.375,4,2,0,79,1,0
234995,233.463035019455,4,2,0,79,1,0
242509,234.833659491194,4,2,0,79,1,0
250038,234.833659491194,4,2,0,79,1,0
257593,234.925606891151,4,2,0,79,1,0

[HitObjects]
136,112,3905,5,4
328,64,4151,2,0,B|432:96|416:232,1,200,8|2
440,320,4519,1,0
344,344,4642,1,8
296,256,4765,2,0,B|240:240|176:240,1,100,0|2
104,208,5011,6,0,B|112:320,2,100,0|8|0
136,112,5380,1,2
232,144,5503,1,0
328,112,5626,2,0,B|344:56|336:-8,2,100,8|0|2
240,296,6118,5,8
328,336,6241,1,0
360,240,6364,1,2
360,240,6487,2,0,B|416:248|488:288,2,100,0|8|0
416,160,6856,2,2,B|344:248|224:184,1,200,2|8
120,32,7347,1,2
32,208,7593,5,8
96,280,7716,1,0
192,256,7839,2,0,B|272:192|248:48,2,200,4|8|2
256,336,8454,1,0
352,352,8577,1,8
400,264,8700,2,0,B|448:280|504:312,2,100,0|2|0
368,168,9069,6,0,B|352:112|368:56,1,100,8|0
448,16,9315,2,0,B|464:72|448:128,1,100,2|0
368,168,9560,1,8
272,200,9683,1,0
200,128,9806,6,0,B|88:96|16:208,1,200,2|8
8,296,10175,1,0
96,344,10298,1,2
184,288,10421,2,0,B|240:304|304:344,1,100,0|8
376,352,10667,1,0
376,352,10790,2,0,B|488:304|456:168,1,200,2|8
328,40,11282,1,2
216,200,11528,5,8
120,240,11651,1,0
72,152,11774,2,0,B|32:256|80:376,1,200,4|8
440,232,12265,2,0,B|480:128|432:8,1,200,2|8
216,376,12757,2,0,B|320:416|440:368,1,200,2|8
296,8,13249,2,0,B|192:-32|72:16,1,200,2|8
256,192,13741,5,4
256,192,13864,1,0
256,192,13987,1,8
176,128,14110,2,0,B|128:112|64:120,1,100,0|2
264,96,14356,2,0,B|312:112|376:104,1,100,0|8
448,56,14601,2,0,B|464:184,1,100,0|2
400,240,14847,5,0
472,312,14970,1,8
384,360,15093,1,0
296,320,15216,1,2
200,352,15339,2,0,B|104:296|128:160,1,200
176,96,15708,5,4
272,80,15831,1,0
328,160,15954,2,0,B|296:200|280:264,2,100,8|0|2
432,168,16323,2,0,B|440:112|424:48,1,100,0|8
428,68,16569,1,0
336,32,16692,5,2
296,120,16815,1,0
208,160,16937,1,8
128,104,17060,1,0
112,200,17183,2,0,B|216:168|344:224,1,200,2|8
256,192,17552,12,4,18659
256,8,19397,6,2,B|192:80|328:120|248:200,1,200
256,352,19925,1,2
368,272,20170,1,8
296,272,20293,1,0
224,272,20415,1,0
152,272,20538,1,0
80,272,20660,6,0,B|44:214|92:165,1,100,8|0
150,180,20905,1,0
219,180,21027,1,0
432,272,21150,6,0,B|480:224|416:168,1,100,8|0
361,184,21395,1,0
291,183,21517,1,0
256,104,21640,5,12
112,104,21885,5,0
152,48,22007,1,0
216,24,22129,1,8
288,24,22252,1,0
352,48,22374,1,0
392,104,22497,1,0
464,48,22619,5,4
464,48,22742,1,4
48,48,22987,1,4
48,48,23110,1,4
56,184,23354,5,2
56,184,23476,1,2
56,256,23599,2,0,B|88:376|248:344,1,200,8|0
256,192,24089,1,8
200,240,24211,1,0
256,288,24334,1,0
312,240,24456,1,0
456,184,24578,5,8
456,184,24700,1,0
456,256,24823,2,0,B|424:376|264:344,2,200,0|8|0
376,136,25558,2,0,B|352:48|256:24|168:48|152:104,1,200,8|0
256,168,26048,1,8
256,168,26170,1,0
256,168,26293,2,0,B|256:296,1,100
256,344,26538,5,8
256,344,26660,1,8
256,40,26905,1,8
256,40,27027,1,8
80,88,27272,5,0
80,88,27395,1,0
32,184,27517,2,0,B|8:312|144:360,1,200,4|0
120,168,28004,2,0,B|112:296|264:328,1,200,4|0
400,368,28492,2,4,B|352:320|296:384,1,100,4|0
312,280,28736,2,4,B|360:232|416:296,1,100,4|0
400,192,28980,2,0,B|352:144|296:208,2,100,4|0|4
483,192,29468,2,2,B|439:65|343:17|255:1|159:21|71:65|25:201,1,600
111,294,30443,6,0,B|112:370|223:350,1,100,8|0
256,354,30687,1,0
256,273,30809,1,0
255,192,30931,2,0,B|256:116|367:136,1,100,8|0
152,72,31419,5,8
152,72,31541,1,2
216,24,31663,1,0
216,24,31785,1,2
296,24,31907,1,8
296,24,32029,2,0,B|440:24|440:208,1,200
432,224,32395,6,0,B|432:344|288:344,1,200,4|2
209,343,32760,2,0,B|80:344|80:224,1,200,4|2
160,224,33126,1,0
256,272,33370,5,8
256,272,33492,1,0
256,112,33736,1,0
256,112,33858,1,8
104,192,34102,1,4
408,192,34346,1,4
256,192,34376,12,0,35077
95,313,35321,6,0,B|31:241|127:201|79:113,1,200,0|8
143,257,35815,1,2
162,179,35939,1,0
150,99,36063,1,8
85,51,36186,1,0
156,23,36310,6,0,B|380:23,1,200,0|8
156,361,36805,2,0,B|380:361,1,200,2|8
417,71,37300,6,0,B|481:143|385:183|433:271,1,200,4|8
369,127,37795,1,2
350,205,37918,1,0
362,285,38042,1,8
427,333,38166,1,0
356,361,38290,6,0,B|132:361,1,200,4|8
258,276,38661,1,0
356,192,38784,2,0,B|132:192,1,200,0|8
356,23,39279,6,0,B|132:23,1,200,4|8
104,80,39650,1,0
176,112,39774,1,2
256,96,39898,1,0
336,112,40022,1,8
408,80,40145,1,0
400,160,40269,6,0,B|416:240|376:304|280:296,1,200,4|8
256,144,40764,1,2
240,64,40888,1,0
160,40,41011,1,8
88,80,41135,1,0
112,160,41259,6,0,B|96:240|136:304|232:296,1,200,0|8
184,208,41630,1,8
256,240,41753,1,0
328,208,41877,1,8
336,128,42001,1,8
176,128,42248,1,4
336,8,42496,5,8
336,8,42619,1,8
176,8,42867,1,8
176,8,42991,1,8
176,8,43114,1,0
96,8,43238,6,8,B|96:224,1,200,4|8
256,8,43724,2,8,B|256:224,1,200,4|8
416,8,44211,2,8,B|416:224,1,200,4|8
296,312,44698,1,2
256,240,44820,1,0
216,312,44941,1,8
176,240,45063,1,0
112,288,45185,6,8,B|48:216|96:88,1,200,4|8
256,240,45672,2,0,B|256:32,1,200,4|8
400,288,46158,2,0,B|464:216|416:88,1,200,4|8
336,240,46645,5,2
296,312,46767,1,0
216,312,46889,1,8
176,240,47010,1,0
176,160,47132,6,0,B|216:88|312:88|360:192,1,200,4|8
104,184,47619,2,0,B|96:104|176:48|232:40,1,200,2|8
256,192,48106,1,4
400,256,48349,1,8
408,184,48471,2,2,B|416:104|336:48|280:40,1,200
256,112,48836,1,8
176,256,49079,5,4
336,256,49323,1,8
328,80,49566,1,2
256,32,49688,1,2
184,80,49810,1,8
256,232,50053,1,4
176,96,66682,5,0
336,96,66924,1,8
408,240,67167,1,0
336,280,67289,1,0
256,296,67410,1,8
176,280,67532,1,0
112,240,67653,6,0,B|80:128,1,100
128,80,67896,2,0,B|224:136,1,100,8|0
296,128,68139,2,0,B|400:72,1,100
416,152,68382,2,0,B|376:256,1,100,8|0
328,312,68625,5,0
176,360,68868,2,0,B|112:344|96:264,1,100,8|0
64,224,69111,2,0,B|128:208|144:128,1,100
176,88,69354,2,0,B|112:72|96:-8,1,100,8|0
72,112,69596,5,2
72,112,69718,1,2
440,272,69961,5,2
440,272,70082,1,2
296,336,70325,5,0
256,264,70447,1,0
328,232,70568,1,8
168,232,70811,1,8
104,88,71054,1,0
176,48,71175,1,0
256,32,71297,1,8
336,48,71418,1,0
408,88,71540,6,0,B|424:144|368:176,1,100
384,256,71783,2,0,B|344:320|256:288,1,100,8|0
212,298,72026,2,0,B|160:312|128:256,1,100
136,176,72269,2,0,B|84:146|100:90,1,100,8|0
176,48,72511,1,0
336,24,72754,6,0,B|400:40|416:120,1,100,8|0
448,160,72997,2,0,B|384:176|368:256,1,100
336,296,73240,2,0,B|400:312|416:392,1,100,8|0
464,304,73483,5,2
464,304,73605,1,2
48,80,73847,5,2
48,80,73969,1,2
80,152,74090,1,0
160,176,74212,1,0
216,232,74333,1,0
297,239,74455,6,0,B|401:287|457:383,1,200,0|4
257,159,74941,2,0,B|249:55|369:-9,1,200,0|4
216,240,75426,2,0,B|160:328|40:352,1,200,0|4
64,48,75912,5,0
32,120,76034,1,0
56,192,76155,1,0
24,264,76277,1,0
47,339,76398,6,0,B|153:319|209:231,1,200,0|4
355,0,76884,2,0,B|256:56|256:168,1,200,0|4
456,360,77370,2,0,B|410:280|306:232,1,200,0|4
224,208,77734,1,0
152,176,77856,1,2
80,144,77977,1,0
296,56,78341,5,2
352,112,78463,1,0
368,192,78584,1,2
352,272,78706,1,0
296,328,78827,1,0
216,328,78949,2,2,B|64:336|8:312|40:144|192:240,1,300,2|0
216,192,79435,5,2
296,192,79556,1,0
380,169,79677,2,0,B|488:192|504:72|448:48|296:56,1,300,4|0
256,208,80285,5,2
104,256,80528,1,0
56,192,80649,1,0
104,128,80771,1,2
248,192,81013,6,0,B|464:192,1,200,0|6
96,128,97932,5,2
416,128,98170,1,10
96,128,98408,5,2
176,88,98527,1,0
256,48,98646,1,10
336,88,98765,1,0
416,128,98884,1,2
416,216,99003,2,0,B|416:320,1,100,0|10
336,272,99241,2,0,B|336:160,1,100,0|2
256,132,99479,2,0,B|256:232,1,100,0|10
176,272,99717,2,0,B|176:172,1,100,0|2
96,216,99955,2,0,B|96:316,1,100,0|10
176,352,100193,5,0
176,352,100312,1,2
256,320,100432,1,0
256,320,100551,1,10
336,352,100670,1,0
336,352,100789,1,2
256,240,101027,5,12
256,240,101146,1,4
156,56,101384,5,0
156,56,101503,1,10
156,56,101622,1,0
156,56,101741,2,2,B|388:56,1,200,2|10
356,144,102098,1,0
356,144,102217,2,0,B|124:144,1,200,2|10
156,240,102574,1,0
156,240,102693,2,0,B|380:240,2,200,2|10|0
96,104,103408,5,10
176,56,103527,1,0
256,104,103646,1,2
336,56,103765,1,0
416,104,103884,1,10
336,152,104003,1,0
256,192,104122,1,2
176,152,104241,1,0
256,104,104360,2,0,B|256:328,1,200,8|2
256,304,104836,1,14
256,104,105193,6,0,B|256:0,2,100,0|10|0
256,192,105551,2,0,B|176:144|144:256|61:184,1,200,2|10
69,282,105908,1,0
69,282,106027,2,0,B|144:348|179:239|261:285,1,200,2|10
256,192,106384,1,0
256,192,106503,2,0,B|336:144|368:256|451:184,1,200,2|10
443,282,106860,1,0
443,282,106979,2,2,B|367:348|335:236|248:286,1,200,2|10
128,128,107455,5,2
128,48,107574,1,0
48,88,107693,1,10
48,168,107812,1,0
128,208,107932,1,2
208,168,108051,1,0
208,88,108170,1,10
384,128,108408,5,2
384,48,108527,1,0
464,88,108646,1,10
464,168,108765,1,0
384,208,108885,1,2
304,168,109004,1,0
304,88,109123,1,10
128,176,109360,5,2
128,176,109479,1,0
128,272,109598,1,2
128,272,109717,1,0
208,320,109836,1,2
208,320,109955,2,0,B|208:64,1,200,0|2
384,176,110312,5,2
384,272,110432,1,0
304,320,110551,1,2
304,320,110670,2,0,B|304:64,1,200,0|2
64,64,111265,5,2
96,192,111384,1,0
192,96,111503,1,6
448,64,111741,5,2
416,192,111860,1,0
320,96,111979,1,6
256,288,112217,5,4
256,24,128217,5,2
216,96,128336,1,0
296,96,128456,1,0
336,168,128576,2,0,B|336:216|256:224|176:216|176:168,1,200,4|0
24,232,129059,5,8
8,312,129180,1,2
104,248,129301,1,8
88,328,129422,1,2
168,304,129543,2,2,B|272:280|256:144,1,200
344,304,130027,2,0,B|240:280|256:144,1,200,4|2
176,24,130511,5,10
336,24,130753,1,0
256,24,130995,5,4
296,96,131116,1,2
216,96,131237,1,0
216,176,131358,1,2
296,176,131479,1,0
360,320,131721,1,8
360,320,131842,1,8
360,320,131963,2,2,B|152:320,1,200,0|2
256,136,132446,5,0
104,320,132809,1,0
176,352,132930,1,8
256,368,133051,1,0
336,352,133172,1,2
408,320,133293,1,0
400,240,133414,2,2,B|288:240,1,100
216,240,133656,2,2,B|116:240,1,100
136,160,133898,5,4
216,160,134019,1,2
296,160,134140,1,8
376,160,134261,1,0
336,88,134382,2,0,B|352:32|296:0,1,100
211,2,134624,2,0,B|160:32|176:88,1,100
264,80,134866,5,4
264,80,134987,1,2
264,80,135108,1,0
264,80,135229,1,0
264,80,135350,1,8
88,368,136317,6,0,B|88:264,2,100,0|0|2
256,296,136797,2,0,B|256:192,2,100,0|0|2
424,368,137277,2,0,B|424:264,2,100,0|0|2
424,88,137757,5,2
424,88,137877,1,2
424,88,137997,1,0
424,88,138117,1,0
424,88,138237,2,0,B|424:192,2,100,0|0|2
256,16,138717,2,0,B|256:120,2,100,0|0|2
88,88,139197,2,0,B|88:192,2,100,0|0|2
360,24,139677,5,2
360,24,139797,1,2
360,24,139917,1,0
360,24,140037,1,0
360,24,140157,2,0,B|256:24,2,100,0|0|2
432,192,140637,2,0,B|328:192,2,100,0|0|2
360,360,141117,2,0,B|256:360,2,100,0|0|2
80,24,141597,5,2
80,24,141717,1,2
80,24,141837,1,0
80,24,141957,1,0
80,24,142077,2,0,B|184:24,2,100,0|0|2
152,192,142557,2,0,B|256:192,2,100,0|0|2
80,360,143037,2,0,B|184:360,2,100,0|0|2
256,288,143517,5,2
256,288,143637,1,2
256,288,143757,1,0
256,288,143877,1,0
256,192,143997,12,4,146877
128,272,147117,6,0,B|136:368|256:336|376:368|384:272,1,325,0|2
383,274,148135,1,2
264,64,148374,5,0
184,96,148493,1,0
104,128,148613,1,2
168,192,148732,1,0
240,248,148852,2,0,B|352:248,1,100
408,192,149091,2,0,B|320:128,1,100,2|0
376,56,149330,2,0,B|480:56,3,100,0|0|2|0
476,56,149808,5,0
488,232,150047,2,0,B|480:296|432:320,1,100,2|0
352,352,150286,1,0
264,328,150405,1,0
176,360,150525,1,2
88,328,150645,1,0
48,248,150764,2,0,B|-24:160|48:56,2,200,0|8|0
248,232,151362,5,0
272,144,151481,1,2
352,184,151601,1,0
368,96,151720,2,0,B|432:32|520:112|440:192,2,200,2|2|0
288,64,152318,1,0
200,32,152437,1,2
136,96,152557,1,0
96,176,152676,2,0,B|56:224|104:296,2,100,0|0|2
184,176,153035,1,0
272,176,153154,2,0,B|312:224|264:296,3,100,0|0|2|0
278,269,153633,5,0
120,352,153872,2,0,B|64:352|48:288,2,100,2|0|2
208,352,154230,1,0
296,352,154350,2,0,B|416:352|416:216,3,200,2|0|8|0
240,128,155186,5,0
184,56,155306,1,0
96,64,155425,1,0
40,136,155545,2,0,C|72:192|48:256|88:320,1,200,0|4
128,136,156023,2,0,C|160:192|136:256|176:320,1,200,0|4
216,136,156501,2,0,C|248:192|224:256|264:320,2,200,0|4|0
240,48,157099,5,0
328,32,157218,1,2
416,48,157338,1,0
432,136,157457,2,0,C|400:192|424:256|384:320,1,200,2|4
344,136,157935,2,0,C|312:192|336:256|296:320,1,200,2|4
256,136,158413,2,0,C|224:192|248:256|208:320,1,200,2|0
214,310,158772,1,2
214,310,158892,1,2
214,310,159011,1,0
152,48,159370,6,0,C|256:48,3,100,4|0|2|0
344,64,159848,1,0
416,120,159967,2,0,B|488:176|512:248|472:336|360:304,1,300,0|4
296,248,160445,1,0
232,184,160565,1,0
160,128,160684,2,0,B|96:88|40:112|16:192|32:272|128:272,1,300
256,192,161282,12,4,162238
200,56,167045,6,2,B|192:120|256:153|320:120|312:56,1,200
472,57,167519,1,0
415,113,167637,1,0
358,169,167756,1,0
414,225,167875,1,0
357,281,167993,2,0,B|309:329|256:336,2,100,8|0|0
288,240,168349,1,0
216,272,168467,2,8,B|192:200|237:148|304:152|328:160|352:200,2,200,8|0|8
159,328,169060,1,0
102,271,169179,1,0
45,214,169297,1,8
208,16,169535,2,0,B|256:43|304:16,3,100,0|0|0|2
56,336,170483,5,0
8,272,170602,1,0
56,208,170720,1,0
32,128,170839,2,2,B|0:72|16:16|72:8|136:72,2,200
112,136,171432,1,0
168,192,171550,1,0
184,112,171669,1,0
216,48,171788,2,8,B|256:0|336:24,2,100,8|0|8
280,88,172143,1,0
344,128,172262,2,8,B|304:176|224:152,2,100,8|0|8
384,56,172618,1,0
440,112,172736,2,2,B|480:232|432:328|288:360|192:344,1,400
144,304,173329,1,0
184,232,173448,1,0
256,272,173566,1,0
211,346,173685,1,8
440,16,174278,5,0
384,72,174396,1,0
440,128,174515,1,0
496,184,174633,2,2,B|496:392,1,200
16,200,175108,2,2,B|16:-8,1,200
232,224,175582,6,2,B|192:192|224:152|256:115|288:152|320:192|280:224,3,200,2|2|0|0
168,112,176531,6,0,B|248:40|352:64|416:136|405:241|368:296|312:316|240:352|101:289|160:160,1,600
80,88,177479,1,0
8,144,177598,1,0
8,240,177716,1,0
80,296,177835,1,0
88,192,177954,1,2
384,120,178428,6,2,B|432:80|504:96|512:152|472:208,1,200
392,200,178784,1,0
360,272,178902,2,2,B|256:216|248:328|136:248,1,200
256,136,179377,5,2
199,79,179495,1,0
255,22,179614,1,0
311,78,179732,1,8
197,191,179969,5,8
253,247,180088,1,0
309,303,180207,1,0
256,192,180325,12,4,181274
128,112,182269,6,0,B|64:80|32:144,1,100
16,208,182503,2,0,B|0:272|48:304,1,100,8|0
120,344,182738,5,2
144,256,182856,1,2
200,192,182973,1,8
288,168,183090,1,0
376,200,183208,1,2
392,288,183325,1,2
320,344,183443,1,8
240,312,183560,1,0
224,224,183678,1,2
256,144,183795,1,2
344,120,183912,1,8
432,136,184030,1,0
448,64,184147,5,2
368,48,184265,1,0
288,64,184382,1,8
208,48,184499,2,2,B|80:16|64:144,1,200,2|0
64,224,184852,1,8
128,272,184969,1,0
256,320,185087,5,4
256,320,185204,1,2
256,64,185439,1,2
256,64,185556,1,4
256,64,185674,2,0,B|256:192,2,100,0|8|0
336,80,186026,2,0,B|400:80|400:144,1,100,2|0
400,240,186261,2,0,B|400:304|336:304,1,100,8|0
256,320,186496,5,2
192,272,186613,1,2
256,224,186730,1,8
320,176,186848,1,0
256,128,186965,1,2
192,80,187083,1,2
256,128,187200,1,8
320,176,187317,1,0
256,224,187435,1,2
192,272,187552,1,2
256,320,187670,1,8
320,272,187787,1,0
384,224,187905,6,0,B|480:176|448:48,1,200,2|8
333,155,188257,2,0,B|304:96|368:80,2,100,0|2|0
384,224,188609,2,0,B|368:288|304:272,1,100,8|0
256,320,188844,5,4
256,320,188961,1,2
256,64,189196,1,2
256,64,189314,1,4
216,136,189431,1,8
296,136,189548,1,8
256,208,189666,1,0
176,224,189783,6,0,B|80:272,1,100,2|0
48,192,190018,2,0,B|160:144,1,100,8|0
336,224,190253,2,0,B|432:272,1,100,2|0
464,192,190488,2,0,B|352:144,1,100,8|0
304,80,190723,2,0,B|144:80,1,100,2|0
208,160,190957,2,0,B|320:160,1,100,8|0
384,160,191192,1,2
384,80,191310,1,0
448,120,191427,1,8
336,224,191662,6,0,B|432:272,1,100,2|0
464,192,191897,2,0,B|352:144,1,100,8|0
176,224,192132,2,0,B|80:272,1,100,2|0
48,192,192366,2,0,B|160:144,1,100,8|0
208,80,192601,2,0,B|368:80,1,100,2|0
304,160,192836,2,0,B|192:160,1,100,8|0
128,160,193071,1,2
128,80,193188,1,0
64,120,193306,1,8
48,336,193541,5,2
128,336,193658,1,0
208,336,193775,1,8
288,336,193893,1,0
368,336,194010,1,2
448,336,194128,2,2,B|512:240|448:144,1,200,2|0
416,80,194480,1,2
336,64,194597,1,0
256,80,194715,1,8
176,112,194832,2,2,B|64:96|16:208,1,200,2|0
17,204,195184,1,8
256,192,195419,12,0,196341
0,192,197293,6,0,B|-11:316|104:336,1,200,4|8
256,240,197769,1,0
304,176,197888,1,0
256,112,198007,1,8
304,48,198126,1,0
224,32,198245,2,2,B|170:-16|82:16|80:96,1,200,2|8
216,184,198721,2,2,B|214:264|126:296|72:248,1,200,2|8
512,192,199198,6,0,B|523:316|408:336,1,200,4|8
256,240,199674,1,0
208,176,199793,1,0
256,112,199912,1,8
208,48,200031,1,0
288,32,200150,2,2,B|342:-16|430:16|432:96,1,200,2|8
368,144,200507,1,0
296,184,200626,2,2,B|298:264|386:296|440:248,1,200,2|8
256,376,201102,5,4
400,80,201460,5,0
336,24,201579,1,2
256,8,201698,1,0
176,24,201817,1,2
112,80,201936,1,0
176,144,202055,2,0,B|208:77|304:77|336:144,2,200,2|0|2
256,176,202650,1,0
216,248,202769,1,0
296,248,202888,1,0
256,320,203007,1,4
112,32,203245,5,0
184,8,203364,1,2
256,24,203483,1,0
328,40,203602,1,0
400,16,203721,1,2
512,352,203960,1,4
0,32,204198,1,2
512,32,204436,1,2
0,352,204674,1,0
376,368,204912,6,2,B|443:401|515:338|496:264,1,200,4|8
336,264,205382,2,0,B|317:190|389:127|456:160,1,200,2|8
336,56,205853,2,2,B|304:-12|208:-12|176:56,1,200,2|8
296,200,206323,1,2
256,272,206441,1,0
296,344,206559,1,8
216,344,206676,1,0
136,368,206794,6,2,B|69:401|-3:338|16:264,1,200,4|8
176,264,207264,2,0,B|195:190|123:127|56:160,1,200,2|8
176,56,207735,2,2,B|208:-12|304:-12|336:56,1,200,2|8
216,200,208206,1,2
256,272,208323,1,0
216,344,208441,1,8
296,344,208559,1,0
416,320,208676,5,4
96,320,208911,1,0
96,64,209147,1,2
416,64,209382,1,0
356,232,209617,2,2,B|148:232,1,200,4|8
156,152,209970,2,2,B|364:152,1,200,2|0
428,192,210323,1,8
456,352,210559,5,6
56,352,210794,1,2
184,40,211029,1,2
256,80,211147,1,0
328,40,211264,1,8
256,288,211500,1,4
256,192,211735,12,4,212499
256,192,212732,5,12
184,48,212965,1,2
256,88,213082,1,0
328,48,213199,1,8
352,128,213316,1,0
408,192,213432,5,2
352,256,213549,1,0
328,336,213666,1,8
256,296,213783,1,0
184,336,213899,5,2
160,256,214016,1,0
104,192,214133,1,10
160,128,214249,1,0
256,88,214366,5,2
160,256,214600,1,8
160,256,214716,1,2
352,256,214950,1,2
352,256,215067,1,8
352,256,215183,1,0
416,192,215300,6,0,B|360:160|344:56|464:32,1,200,2|8
96,192,215767,2,0,B|152:160|168:56|48:32,1,200,2|8
40,120,216117,1,0
96,192,216234,6,0,B|160:288,1,100,2|0
96,192,216467,2,0,B|208:192,1,100,8|0
416,192,216701,2,0,B|352:288,1,100,2|0
416,192,216934,2,0,B|304:192,1,100,8|0
256,264,217168,2,0,B|184:336,3,100,2|0|8|0
256,264,217635,2,0,B|328:336,3,100,2|0|10|0
392,264,218102,6,0,B|344:208|352:112|440:80,1,200,2|8
344,40,218452,1,0
288,112,218569,1,2
256,32,218685,1,0
200,104,218802,2,0,B|170:169|74:177|26:113,1,200,8|4
256,320,219619,5,0
200,256,219736,1,2
256,192,219853,1,0
312,256,219969,2,0,B|424:240|464:128,1,200,2|8
200,256,220436,2,0,B|88:240|48:128,1,200,2|8
256,320,220903,6,0,B|144:352,1,100,2|0
256,320,221137,2,0,B|368:352,1,100,8|0
312,256,221370,1,2
256,184,221487,1,0
200,256,221604,1,10
256,184,221720,1,0
152,144,221837,6,0,B|48:104,1,100,2|0
360,144,222070,2,0,B|464:104,1,100,8|0
208,96,222304,2,0,B|128:16,1,100,2|0
304,96,222537,2,0,B|384:16,1,100,8|0
256,184,222771,5,2
312,256,222888,1,0
200,256,223004,1,8
200,256,223121,1,0
312,256,223238,1,2
312,256,223355,1,2
48,192,223705,6,0,B|112:96,1,100,8|0
176,160,223938,2,0,B|280:112,1,100,8|0
296,208,224172,1,10
384,208,224288,6,0,B|416:336|272:368|168:304,1,300,4|2
104,264,224755,1,0
72,176,224872,1,8
104,88,224989,1,4
256,104,225339,6,2,B|336:56,4,50,2|2|2|2|6
256,288,225923,5,0
256,288,226039,1,8
256,288,226273,1,2
256,40,227250,5,2
256,40,227373,1,2
256,40,227495,2,0,B|376:40|376:192,1,200,4|0
304,312,227963,2,0,B|246:351|191:299,2,100,2|0|2
305,151,228432,2,0,B|247:112|192:164,2,100,2|0|2
176,232,228901,1,2
256,232,229018,1,0
336,232,229135,1,2
112,304,229370,5,2
184,336,229487,1,0
256,304,229604,1,2
328,336,229721,1,0
400,304,229838,1,2
355,149,230073,2,0,B|275:117|219:189|88:125,1,200,2|4
157,148,230424,1,4
256,24,230659,1,4
256,24,230776,1,4
256,232,231010,5,2
256,232,231127,1,2
256,232,231245,2,0,B|160:248|159:379|284:368|284:368,1,200,4|0
400,288,231713,5,2
472,248,231830,1,0
400,208,231948,1,2
472,168,232065,1,0
400,128,232182,1,2
336,80,232299,1,0
256,80,232416,1,2
176,80,232534,1,0
112,128,232651,1,2
40,168,232768,1,0
112,208,232885,1,2
40,248,233002,1,0
112,288,233120,1,2
256,32,233354,5,2
256,112,233471,1,0
256,192,233588,1,2
256,272,233705,1,0
256,352,233823,1,2
400,272,234057,5,4
472,304,234174,1,4
112,192,234409,5,4
40,224,234526,1,4
400,112,234760,5,2
328,72,234877,1,2
255,36,234995,2,0,B|205:119|323:141|237:257,1,200,4|2
101,162,235461,2,0,B|234:247|77:314,1,200,4|2
411,162,235928,2,0,B|278:247|435:314,1,200,4|2
264,336,236395,5,4
248,256,236512,1,0
264,176,236629,1,2
248,96,236745,1,0
264,16,236862,1,2
264,16,237096,1,2
128,96,237329,5,2
184,152,237446,1,0
264,176,237563,1,2
336,216,237679,1,0
392,272,237796,2,0,B|376:368|208:352,1,200,4|0
72,352,238263,2,0,B|88:256|256:272,1,200,4|0
256,192,238730,12,4,241531
256,344,242115,6,0,B|256:16,1,300,0|4
416,40,242743,1,0
328,168,242978,1,2
384,224,243096,1,0
432,160,243213,1,0
488,216,243330,1,0
496,296,243448,2,0,B|496:320|488:368|440:376|416:376|416:376|296:376,1,200,8|0
16,296,243918,2,0,B|16:320|24:368|72:376|96:376|96:376|216:376,1,200,8|0
256,44,244387,5,4
96,40,244622,1,0
184,168,244857,1,2
128,224,244974,1,0
80,160,245092,1,0
24,216,245209,1,0
16,296,245327,2,0,B|16:320|24:368|72:376|96:376|96:376|216:376,1,200,8|0
424,304,245679,1,0
496,296,245796,2,0,B|496:320|488:368|440:376|416:376|416:376|296:376,1,200,8|0
480,192,246266,5,4
368,80,246501,1,0
328,152,246618,1,0
288,80,246736,1,8
248,152,246853,1,0
208,80,246970,1,0
168,152,247088,1,0
96,176,247205,2,0,B|120:232|184:228|184:228|264:222|271:302,2,200,2|2|8
32,224,247792,5,0
64,296,247910,1,0
136,336,248027,1,0
216,352,248145,1,4
480,224,248379,1,0
448,296,248497,1,2
296,352,248732,1,2
376,336,248849,1,0
256,40,249084,5,4
256,112,249319,1,2
256,184,249554,1,8
256,256,249788,1,0
0,384,250038,5,8
0,0,250272,1,4
256,384,250507,1,8
256,0,250742,1,4
512,384,250977,1,8
512,0,251212,1,4
256,192,251447,5,2
320,240,251564,1,0
384,288,251681,1,2
448,336,251799,1,0
512,384,251916,1,8
512,0,252151,1,4
256,384,252386,1,8
256,0,252621,1,4
0,384,252856,1,8
0,0,253090,1,4
256,192,253325,5,2
192,240,253443,1,0
128,288,253560,1,2
64,336,253677,1,0
0,384,253795,1,8
168,384,254030,1,0
344,384,254265,1,2
512,384,254499,1,0
336,232,254734,6,0,B|312:280|255:305|200:280|176:232|176:232|176:216,1,200,4|0
176,152,255086,2,0,B|200:104|257:79|312:104|336:152|336:152|336:168,1,200,8|0
256,192,255439,1,2
408,296,255674,5,2
408,296,255908,1,2
408,296,256143,1,8
336,336,256261,1,0
256,344,256378,1,2
176,336,256495,1,0
112,296,256613,1,4
256,192,256848,5,0
216,16,257593,6,0,B|96:72|176:184,1,200,0|10
264,208,257945,1,0
360,184,258062,1,0
408,272,258180,2,0,B|456:248|512:240,2,100,0|10|2
344,344,258532,1,0
344,344,258650,1,0
248,304,258767,1,10
160,328,258885,1,0
64,304,259002,2,0,B|40:200,1,100
136,232,259237,2,0,B|160:128,1,100,10|2
88,64,259472,6,0,B|160:168|264:96,1,200,0|10
352,64,259824,1,0
384,160,259942,2,0,B|360:208|352:256,2,100,0|0|10
464,224,260294,1,0
464,224,260412,1,2
48,328,260999,5,0
48,328,261116,1,10
96,240,261234,1,0
184,280,261351,2,0,B|264:192|368:264,1,200,0|10
362,260,261704,1,2
456,216,261821,1,0
416,120,261939,2,0,B|440:72|448:16,2,100,0|10|0
320,88,262291,1,0
224,120,262408,1,0
160,40,262526,1,10
160,40,262643,1,2
80,96,262761,2,0,B|104:200,1,100
40,272,262996,2,0,B|88:288|128:328,1,100,10|0
216,360,263231,6,0,B|320:296|256:184,1,200,0|10
184,120,263583,1,2
256,48,263701,1,0
256,48,263818,1,0
256,48,263935,1,10
424,152,264170,1,0
424,152,264405,1,8
248,248,264640,5,0
152,216,264758,1,0
152,216,264875,1,10
64,272,264993,1,0
32,176,265110,6,0,B|56:128|64:80,1,100,0|0
160,112,265345,2,0,B|208:88|256:80,1,100,10|0
336,24,265580,1,0
384,112,265697,1,0
360,208,265815,1,10
456,232,265932,1,0
392,312,266050,6,0,B|288:296,1,100
200,336,266285,2,0,B|192:288|168:240,1,100,10|2
80,200,266520,1,0
160,136,266637,1,0
136,40,266755,1,10
40,32,266872,1,0
8,128,266990,6,2,B|176:-8|224:240|384:104,2,400,4|2|2
40,328,268164,1,10
120,264,268282,1,2
216,288,268399,1,0
120,264,268517,1,0
40,328,268634,1,10
256,192,268869,12,0,271688
