osu file format v9

[General]
AudioFilename: Boom Boom Satellites - Shut Up And Explode By Husserl.mp3
AudioLeadIn: 0
PreviewTime: 84876
Countdown: 0
SampleSet: Normal
StackLeniency: 0.7
Mode: 0
LetterboxInBreaks: 1

[Editor]
Bookmarks: 136170
DistanceSpacing: 1
BeatDivisor: 4
GridSize: 8

[Metadata]
Title:Shut Up And Explode
Artist:Boom Boom Satellites
Creator:Lissette
Version:Insane
Source:Xam'd: Lost Memories
Tags:

[Difficulty]
HPDrainRate:8
CircleSize:4
OverallDifficulty:8
ApproachRate:8
SliderMultiplier:2
SliderTickRate:1

[Events]
//Background and Video events
0,0,"bbs-easyaction.jpg"
//Break Periods
2,64370,71420
//Storyboard Layer 0 (Background)
//Storyboard Layer 1 (Fail)
//Storyboard Layer 2 (Pass)
//Storyboard Layer 3 (Foreground)
//Storyboard Sound Samples
//Background Colour Transformations
3,100,0,0,0

[TimingPoints]
170,400,4,1,0,50,1,0
28176,-100,4,1,0,25,0,0
29276,-100,4,1,0,30,0,0
29676,-100,4,1,0,35,0,0
30076,-100,4,1,0,40,0,0
30476,-100,4,1,0,45,0,0
30876,-100,4,1,0,50,0,0
31376,-100,4,1,0,50,0,0
96976,-100,4,2,0,50,0,0
110476,-100,4,1,0,30,0,0
111876,-100,4,1,0,35,0,0
113276,-100,4,1,0,40,0,0
114876,-100,4,1,0,45,0,0
117076,-100,4,1,0,50,0,0
148970,-100,4,1,0,50,0,1
158570,-100,4,2,0,0,0,1
161770,-100,4,2,0,0,0,0

[Colours]
Combo1 : 54,54,54
Combo2 : 174,0,0
Combo3 : 255,255,255
Combo4 : 255,83,83

[HitObjects]
104,104,6570,2,0,B|200:48|296:104,1,200,12|0
256,192,7170,1,0
392,280,7370,2,0,B|296:336|200:280,1,200,8|0
88,192,8170,6,0,B|88:72|208:48,1,200,8|0
201,49,8670,1,0
201,49,8770,1,0
201,49,8970,1,8
256,304,9370,5,0
424,192,9770,6,0,B|424:72|304:48,1,200,8|0
310,49,10270,1,0
310,49,10370,1,0
310,49,10570,1,8
104,160,10970,6,0,B|208:192,1,100,0|0
408,168,11370,2,0,B|296:200,1,100,8|0
256,360,11770,2,0,B|256:240,1,100
376,64,12370,5,0
328,40,12470,1,0
280,32,12570,1,0
232,32,12670,1,0
184,40,12770,1,0
136,64,12870,1,0
96,96,12970,6,0,B|96:304,1,200,12|0
256,248,13570,1,0
416,296,13770,2,0,B|416:96,1,200,8|0
216,104,14570,6,0,B|120:120|152:200|48:216,2,200,8|0|8
256,192,15570,1,0
256,288,15770,1,0
256,192,15970,1,0
296,104,16170,2,0,B|392:120|360:200|464:216,2,200,8|0|8
176,264,17370,6,0,B|80:336,2,100,0|0|8
256,208,17970,1,0
336,264,18170,2,0,B|432:336,1,100
448,128,18770,6,0,B|488:112|488:72|448:56,1,100,4|0
352,96,19170,1,4
64,128,19570,2,0,B|24:112|24:72|64:56,1,100,4|0
160,96,19970,1,4
168,296,20370,6,0,B|248:256|304:344|384:272,2,200
208,208,21370,1,0
304,208,21570,1,4
120,120,21970,6,0,B|8:120,1,100,4|0
200,120,22370,1,4
392,120,22770,2,0,B|504:120,1,100,4|0
312,120,23170,1,4
176,336,23570,5,0
336,336,23770,1,0
256,240,23970,2,0,B|216:176|288:136|248:24,2,200,0|0|4
392,96,25170,6,0,B|408:48|368:16|312:40,1,100,4|0
392,96,25570,1,4
120,96,25970,2,0,B|104:48|144:16|200:40,1,100,4|0
120,96,26370,1,4
160,288,26770,6,0,B|256:344|350:282,3,200,0|0|0|4
256,216,28370,6,0,B|255:159,6,50
256,312,29170,1,0
416,288,29370,5,0
416,288,29570,1,0
408,128,29770,5,0
408,128,29970,1,0
256,72,30170,5,0
256,72,30370,1,0
104,128,30570,5,0
104,128,30770,1,0
96,288,30970,5,0
96,288,31170,1,0
320,48,31570,5,4
432,96,31770,1,0
440,208,31970,1,4
192,48,32370,5,4
80,96,32570,1,0
72,208,32770,1,4
296,336,33170,6,0,B|320:256|408:240|424:168,2,200
216,336,34170,1,0
160,256,34370,1,4
360,64,34770,6,0,B|472:64,2,100,4|0|4
256,176,35370,1,0
152,64,35570,2,0,B|40:64,2,100,4|0|4
256,344,36370,6,0,L|256:216,1,100
136,320,36770,2,0,L|136:96,1,200
256,240,37370,1,0
376,320,37570,2,0,L|376:112,1,200,4|0
376,72,38070,5,0
328,56,38170,1,0
280,48,38270,1,0
232,48,38370,1,0
184,56,38470,1,0
136,72,38570,6,0,B|32:112|48:240,1,200,4|0
112,304,39170,2,0,B|336:304,1,200
312,208,39770,1,0
376,72,39970,6,0,B|480:112|464:240,1,200,4|0
400,304,40570,2,0,B|176:304,1,200
168,208,41170,6,0,B|40:208,2,100,0|4|0
256,128,41770,1,0
344,208,41970,2,0,B|472:208,2,100,0|4|0
256,128,42570,1,0
256,344,42770,5,0
256,200,42970,1,4
256,48,43170,1,0
160,64,43370,5,0
136,64,43470,1,0
112,64,43570,1,0
96,160,43770,1,4
40,248,43970,1,0
64,248,44070,1,0
88,248,44170,1,0
136,336,44370,2,0,B|272:336,1,100
240,240,44770,1,0
352,64,44970,5,8
376,64,45070,1,0
400,64,45170,1,0
416,160,45370,1,0
472,248,45570,1,0
448,248,45670,1,0
424,248,45770,1,8
376,336,45970,2,0,B|240:336,1,100
256,240,46370,5,0
256,240,46470,1,0
256,240,46570,1,8
304,152,46770,1,0
208,152,46970,1,0
256,64,47170,1,0
256,64,47270,1,0
256,64,47370,1,8
352,64,47570,5,0
160,64,47770,1,0
352,64,47970,1,0
160,64,48170,6,0,B|80:64,7,50,8|0|0|0|0|0|0|0
110,64,48970,2,0,B|0:120|0:264|128:320,1,300,0|0
352,312,49770,6,0,B|432:312,7,50,8|0|0|0|0|0|0|0
402,312,50570,2,0,B|512:256|512:112|384:56,1,300,0|0
312,88,51370,6,0,B|192:88,1,100,8|0
152,168,51770,2,0,B|32:168,1,100,0|0
52,168,52070,1,0
52,168,52170,1,8
88,264,52370,5,0
216,280,52570,1,0
288,184,52770,1,0
200,88,52970,6,0,B|320:88,1,100,8|0
360,168,53370,2,0,B|480:168,1,100
460,168,53670,1,0
460,168,53770,1,8
424,264,53970,5,0
296,304,54170,1,0
184,208,54370,1,0
224,64,54570,1,8
64,40,54770,6,0,B|48:144,2,100,0|0|0
256,32,55370,1,8
256,168,55570,2,0,B|256:288,2,100
256,32,56170,1,8
448,40,56370,2,0,B|464:152,2,100
256,32,56970,5,8
256,56,57070,1,0
256,80,57170,1,0
256,104,57270,1,0
256,128,57370,1,0
256,152,57470,1,0
256,176,57570,1,0
256,200,57670,1,0
256,224,57770,1,4
256,192,57970,12,4,64170
256,128,72170,5,12
344,32,72370,1,0
448,120,72570,1,0
352,200,72770,1,0
352,200,72870,1,0
352,200,72970,2,0,B|352:320,1,100,8|0
352,296,73370,1,0
184,328,73570,5,0
184,328,73670,1,0
184,328,73770,2,0,B|184:224,1,100,8|0
184,228,74170,1,0
80,40,74370,1,0
80,40,74470,1,0
80,40,74570,2,0,B|80:152,1,100,8|0
80,140,74970,1,0
256,48,75170,5,0
304,48,75270,1,0
352,48,75370,2,0,B|480:48,2,100,8|0|0
224,160,75970,1,0
176,160,76070,1,0
128,160,76170,2,0,B|24:160,2,100,8|0|0
256,272,76770,1,0
304,272,76870,1,0
352,272,76970,2,0,B|480:272,2,100,8|0|0
424,192,77570,5,0
416,144,77670,1,0
392,104,77770,1,0
352,72,77870,1,0
304,56,77970,1,0
256,48,78070,1,0
208,56,78170,1,0
160,72,78270,1,0
120,104,78370,1,0
96,144,78470,1,0
88,192,78570,5,12
88,328,78770,1,0
88,192,78970,1,0
88,328,79170,1,0
88,328,79270,1,0
88,328,79370,2,0,B|192:328,1,100,8|0
288,328,79770,1,0
288,232,79970,5,0
288,232,80070,1,0
288,232,80170,2,0,B|432:232,1,100,8|0
464,120,80570,1,0
328,120,80770,1,0
328,120,80870,1,0
328,120,80970,2,0,B|200:120,1,100,8|0
144,32,81370,1,0
48,168,81570,5,0
48,216,81670,1,0
48,264,81770,2,0,B|160:264,2,100,8|0|0
224,168,82370,5,0
224,216,82470,1,0
224,264,82570,2,0,B|328:264,2,100,8|0|0
400,168,83170,5,0
400,216,83270,1,0
400,264,83370,2,0,B|504:264,2,100,8|0|0
336,344,83970,5,0
288,360,84070,1,0
240,360,84170,1,0
192,352,84270,1,0
144,336,84370,1,0
104,312,84470,1,0
80,264,84570,1,0
72,216,84670,1,0
72,168,84770,1,0
88,120,84870,1,0
120,80,84970,6,0,B|200:40|240:112|336:64,1,200,8|0
464,208,85770,2,0,B|384:248|344:176|248:224,1,200,8|0
200,320,86570,6,0,B|200:120,1,200,8|0
120,32,87170,1,0
24,112,87370,1,8
112,208,87570,1,0
200,120,87770,1,0
312,320,88170,6,0,B|312:120,1,200,8|0
392,32,88770,1,0
488,112,88970,1,8
400,208,89170,1,0
312,120,89370,1,0
208,24,89570,1,0
72,40,89770,1,8
0,136,89970,1,0
0,264,90170,1,0
88,344,90370,5,0
136,344,90470,1,0
184,344,90570,1,8
232,344,90670,1,0
280,344,90770,1,0
328,344,90870,1,0
376,344,90970,1,0
424,344,91070,1,0
472,344,91170,1,0
472,248,91370,6,0,B|496:120|368:96,1,200,12|0
40,248,92170,2,0,B|16:120|144:96,1,200,8|0
256,336,92970,1,8
256,16,93370,6,0,B|368:16,1,100
256,120,93770,2,0,B|136:120,2,100,8|0|0
392,88,94370,1,0
256,120,94570,1,8
256,352,94970,6,0,B|144:352,2,100,0|0|8
256,248,95570,2,0,B|376:248,1,100
480,272,95970,1,0
356,248,96170,1,8
480,272,96370,1,0
356,248,96570,1,0
480,272,96770,1,0
80,88,97170,6,0,B|216:88,2,100,0|0|2
432,88,97970,2,0,B|296:88,2,100,0|0|2
56,320,98770,6,0,B|264:320,1,200,0|2
448,232,99570,2,0,B|232:232,1,200,0|2
56,64,100370,5,0
168,64,100570,1,0
280,64,100770,1,2
456,320,101170,1,0
344,320,101370,1,0
232,320,101570,1,2
64,144,101970,6,0,B|208:144|224:256,1,200,0|2
448,144,102770,2,0,B|304:144|288:256,1,200,0|2
72,344,103570,6,0,B|72:224,2,100,0|0|2
440,344,104370,2,0,B|440:224,2,100,0|0|2
80,88,105170,5,0
432,88,105570,1,0
40,192,105970,1,0
472,192,106370,1,2
256,352,106770,5,0
256,248,106970,1,0
256,136,107170,1,0
320,48,107370,5,0
320,48,107470,1,0
320,48,107570,2,0,B|432:48,2,100
192,48,108170,1,0
192,48,108270,1,0
192,48,108370,2,0,B|80:48,1,100
72,144,108770,6,0,B|72:272|216:304,1,200
181,294,109370,1,0
440,144,109570,2,0,B|440:272|296:304,2,200
496,224,110570,6,0,B|496:328,1,100,0|0
416,360,110970,2,0,B|416:256,1,100
336,224,111370,2,0,B|336:344,1,100,0|0
256,368,111770,2,0,B|256:256,1,100
176,216,112170,2,0,B|176:320,1,100,0|0
96,368,112570,2,0,B|96:264,1,100
16,216,112970,2,0,B|16:328,1,100,0|0
16,112,113370,5,0
16,112,113570,1,0
96,56,113770,1,0
96,56,113970,1,0
176,112,114170,1,0
176,112,114370,1,0
256,48,114570,1,0
256,48,114770,1,0
336,112,114970,1,0
336,112,115170,1,0
408,48,115370,1,0
408,48,115570,1,0
480,112,115770,1,0
480,112,115970,2,0,B|480:224,1,100
480,312,116370,5,0
384,312,116570,1,0
432,224,116770,2,0,B|432:96,1,100,0|8
384,312,117170,5,4
288,312,117370,1,0
336,224,117570,2,0,B|336:96,1,100,4|8
288,312,117970,5,4
192,312,118170,1,0
240,224,118370,2,0,B|240:96,1,100,4|8
192,312,118770,5,4
96,312,118970,1,0
144,224,119170,2,0,B|144:96,1,100,4|8
96,312,119570,5,4
0,312,119770,1,0
48,224,119970,2,0,B|48:96,1,100,4|8
80,32,120370,6,0,B|184:32,1,100,4|0
304,32,120770,2,0,B|416:32,1,100,4|8
480,128,121170,6,0,B|352:128,1,100,4|0
240,128,121570,2,0,B|128:128,1,100,4|8
80,232,121970,6,0,B|208:232,1,100,4|0
304,232,122370,2,0,B|448:232,1,100,4|8
488,328,122770,6,0,B|376:328,1,100,4|0
240,328,123170,2,4,B|128:328,1,100,4|8
56,272,123570,5,4
56,176,123770,1,0
56,80,123970,1,0
104,80,124070,1,0
152,80,124170,1,8
248,80,124370,1,4
152,80,124570,1,0
248,80,124770,1,0
200,168,124970,5,8
200,264,125170,1,4
200,360,125370,1,0
296,360,125570,1,0
344,360,125670,1,0
392,360,125770,1,8
488,360,125970,1,4
392,360,126170,1,0
488,360,126370,1,0
440,272,126570,6,0,B|440:136,1,100,8|4
440,72,126970,1,0
352,128,127170,1,0
304,128,127270,1,0
256,128,127370,1,8
168,80,127570,1,4
168,184,127770,1,0
168,80,127970,1,0
80,128,128170,6,0,B|80:264,1,100,8|4
80,328,128570,1,0
168,272,128770,1,0
216,272,128870,1,0
264,272,128970,1,8
352,320,129170,1,4
352,216,129370,1,0
352,320,129570,1,0
472,272,129770,5,8
472,144,129970,1,4
472,16,130170,1,0
352,80,130370,1,0
352,80,130470,1,0
352,80,130570,2,0,B|224:80,1,100,0|4
136,80,130970,1,0
32,208,131170,5,0
32,208,131270,1,0
32,208,131370,2,0,B|152:208,1,100,8|4
232,208,131770,1,0
136,304,131970,1,0
136,304,132070,1,0
136,304,132170,2,0,B|264:304,1,100,8|4
336,304,132570,1,0
416,216,132770,5,0
416,168,132870,1,0
416,120,132970,2,0,B|416:-8,2,100,8|4|0
256,216,133570,1,0
256,168,133670,1,0
256,120,133770,2,0,B|256:16,2,100,8|4|0
96,216,134370,1,0
96,168,134470,1,0
96,120,134570,2,0,B|96:-8,2,100,8|4|0
96,216,135170,5,0
104,264,135270,1,0
128,304,135370,1,0
168,336,135470,1,0
216,352,135570,1,4
264,360,135670,1,0
312,352,135770,1,0
360,336,135870,1,0
400,304,135970,1,0
424,264,136070,1,0
432,216,136170,5,8
432,80,136370,1,4
432,216,136570,1,0
432,80,136770,1,0
432,80,136870,1,0
432,80,136970,2,0,B|304:80,1,100,8|4
232,80,137370,1,0
144,232,137570,5,0
144,232,137670,1,0
144,232,137770,2,0,B|288:232,1,100,8|4
384,232,138170,1,0
320,104,138370,1,0
320,104,138470,1,0
320,104,138570,2,0,B|192:104,1,100,8|4
88,104,138970,1,0
72,352,139170,5,0
72,352,139270,1,0
72,352,139370,2,0,B|72:208,2,100,8|4|0
256,192,139970,1,0
256,192,140070,1,0
256,192,140170,2,0,B|256:296,2,100,8|4|0
440,352,140770,1,0
440,352,140870,1,0
440,352,140970,2,0,B|440:232,2,100,8|4|0
440,252,141570,5,0
424,200,141670,1,0
392,160,141770,1,0
352,128,141870,1,0
304,112,141970,1,4
256,104,142070,1,0
208,112,142170,1,0
160,128,142270,1,0
120,160,142370,1,0
88,200,142470,1,0
88,248,142570,6,0,B|80:320|152:352,1,100,8|4
216,264,142970,2,0,B|336:264,1,100
316,264,143270,1,0
316,264,143370,1,8
440,264,143570,1,4
480,368,143770,1,0
440,264,143970,1,0
424,136,144170,6,0,B|432:64|360:32,1,100,8|4
296,120,144570,2,0,B|176:120,1,100
196,120,144870,1,0
196,120,144970,1,8
80,120,145170,1,4
48,224,145370,1,0
96,320,145570,1,0
256,344,145770,5,8
368,344,145970,1,4
256,344,146170,1,0
368,344,146370,1,0
256,240,146570,5,8
144,240,146770,1,4
256,240,146970,1,0
144,240,147170,1,0
256,136,147370,5,8
368,136,147570,1,4
256,136,147770,1,0
368,136,147970,1,0
256,16,148170,5,8
144,16,148370,1,4
256,16,148570,1,0
144,16,148770,1,0
48,88,148970,6,0,B|152:88,1,100,8|4
288,192,149370,2,0,B|176:192,1,100
144,192,149670,1,0
96,192,149770,1,8
48,288,149970,2,0,B|160:288,1,100,4|0
256,320,150370,1,0
464,296,150570,6,0,B|360:296,1,100,0|4
224,192,150970,2,0,B|336:192,1,100
368,192,151270,1,0
416,192,151370,1,8
464,96,151570,2,0,B|352:96,2,100,4|0|0
288,48,152170,5,8
240,48,152270,1,0
192,48,152370,1,4
112,144,152570,1,0
160,144,152670,1,0
208,144,152770,1,0
144,248,152970,1,8
96,248,153070,1,0
48,248,153170,1,4
112,352,153370,1,0
160,352,153470,1,0
208,352,153570,1,0
304,352,153770,5,8
352,352,153870,1,0
400,352,153970,1,4
464,248,154170,1,0
416,248,154270,1,0
368,248,154370,1,0
304,144,154570,1,8
352,144,154670,1,0
400,144,154770,1,4
320,48,154970,1,0
272,48,155070,1,0
224,48,155170,1,0
104,112,155370,5,8
104,240,155570,1,4
104,112,155770,1,0
104,240,155970,1,0
104,240,156070,1,0
104,240,156170,1,8
192,336,156370,1,4
328,336,156570,1,0
256,216,156770,1,0
408,272,156970,5,8
408,144,157170,1,4
408,272,157370,1,0
408,144,157570,1,0
408,144,157670,1,0
408,144,157770,1,8
320,48,157970,1,4
184,48,158170,1,0
256,168,158370,1,0
256,192,158570,12,0,161770
