osu file format v9

[General]
AudioFilename: Boom Boom Satellites - Shut Up And Explode By Husserl.mp3
AudioLeadIn: 0
PreviewTime: 84876
Countdown: 0
SampleSet: Normal
StackLeniency: 0.7
Mode: 0
LetterboxInBreaks: 1

[Editor]
Bookmarks: 136170
DistanceSpacing: 1
BeatDivisor: 4
GridSize: 8

[Metadata]
Title:Shut Up And Explode
Artist:Boom Boom Satellites
Creator:Lissette
Version:Hard
Source:Xam'd: Lost Memories
Tags:

[Difficulty]
HPDrainRate:6
CircleSize:4
OverallDifficulty:6
ApproachRate:7
SliderMultiplier:1.6
SliderTickRate:1

[Events]
//Background and Video events
0,0,"bbs-easyaction.jpg"
//Break Periods
2,64370,71270
//Storyboard Layer 0 (Background)
//Storyboard Layer 1 (Fail)
//Storyboard Layer 2 (Pass)
//Storyboard Layer 3 (Foreground)
//Storyboard Sound Samples
//Background Colour Transformations
3,100,0,0,0

[TimingPoints]
170,400,4,1,0,50,1,0
28076,-100,4,1,0,25,0,0
29276,-100,4,1,0,30,0,0
29676,-100,4,1,0,35,0,0
30076,-100,4,1,0,40,0,0
30476,-100,4,1,0,45,0,0
30876,-100,4,1,0,50,0,0
96976,-100,4,2,0,50,0,0
110476,-100,4,1,0,30,0,0
111876,-100,4,1,0,35,0,0
113276,-100,4,1,0,40,0,0
114876,-100,4,1,0,45,0,0
117076,-100,4,1,0,50,0,0
148970,-100,4,1,0,50,0,1
158570,-100,4,2,0,0,0,1
161770,-100,4,2,0,0,0,0

[Colours]
Combo1 : 54,54,54
Combo2 : 174,0,0
Combo3 : 255,255,255
Combo4 : 255,83,83

[HitObjects]
176,128,6570,1,12
176,128,6970,1,0
336,128,7370,1,8
336,128,7770,1,0
440,256,8170,6,0,B|424:344|320:336,1,160,8|0
256,296,8770,1,0
72,256,8970,2,0,B|88:344|192:336,1,160,8|0
72,128,9770,6,0,B|88:40|192:48,1,160,8|0
256,88,10370,1,0
440,128,10570,2,0,B|424:40|320:48,1,160,8|0
216,192,11370,6,0,B|120:208,1,80,8|0
296,192,11770,2,0,B|384:208,1,80
256,352,12370,6,0,B|256:280,5,40
256,312,12970,6,0,B|432:312,1,160,12|0
464,248,13570,1,0
472,168,13770,2,0,B|352:168|344:48,1,160,8|0
256,312,14570,6,0,B|80:312,1,160,8|0
48,248,15170,1,0
40,168,15370,2,0,B|160:168|168:48,1,160,8|0
320,56,16170,6,0,B|320:216,1,160,8|0
200,328,16970,2,0,B|200:152,1,160,8|0
256,16,17770,5,8
256,96,17970,1,0
256,176,18170,1,0
256,256,18370,1,0
408,312,18770,6,0,B|488:312,2,80,0|0|4
408,312,19570,2,0,B|312:312,2,80,0|0|4
416,152,20370,6,0,B|344:96|256:152,1,160
240,304,21170,2,0,B|162:353|90:297,1,160
104,72,21970,6,0,B|24:72,2,80,0|0|4
104,72,22770,2,0,B|200:72,2,80,0|0|4
96,232,23570,6,0,B|168:288|256:232,1,160
272,80,24370,2,0,B|349:30|421:86,1,160
432,248,25170,5,0
392,320,25370,1,0
312,328,25570,1,4
80,248,25970,1,0
120,320,26170,1,0
200,328,26370,1,4
256,176,26770,6,0,B|256:16,3,160
256,16,28170,6,0,B|200:16,8,40
80,192,29370,5,0
256,320,29770,1,0
440,192,30170,1,0
256,48,30570,5,0
256,320,30970,1,0
256,48,31370,1,0
104,96,31770,6,0,B|80:208|208:208,1,160,0|4
408,96,32570,2,0,B|432:208|304:208,1,160,0|4
128,312,33370,6,0,B|288:312,1,160,0|4
376,176,34170,2,0,B|216:176,1,160,0|4
256,104,34770,5,0
256,104,34970,1,0
256,104,35170,1,4
256,264,35570,1,0
256,264,35770,1,0
256,264,35970,1,4
400,184,36370,6,0,B|416:88|328:48,1,160,0|4
112,184,37170,2,0,B|96:88|184:48,1,160,0|4
256,240,37970,6,0,B|176:240,2,80,0|0|4
256,240,38770,2,0,B|336:240,2,80,0|0|4
224,80,39570,6,0,B|144:80,2,80,0|0|4
288,80,40370,2,0,B|368:80,2,80,0|0|4
192,240,41170,6,0,B|112:240,2,80,0|0|4
320,240,41970,2,0,B|400:240,2,80,0|0|4
152,80,42770,6,0,B|72:80,2,80,0|0|4
360,80,43570,2,0,B|440:80,2,80,0|0|4
256,224,44370,2,0,B|256:312,2,80,0|0|4
184,184,44970,6,0,B|104:144|24:184,1,160,8|0
160,280,45770,2,0,B|232:328|320:296,1,160,8|0
328,136,46570,6,0,B|408:176|488:136,1,160,8|0
352,40,47370,2,0,B|280:-8|192:24,1,160,8|0
48,64,48170,6,0,B|16:176|64:304,1,240,8|0
144,304,48970,2,0,B|256:240|400:320,1,240,8|0
449,299,49770,2,0,B|496:176|464:64,1,240,8|0
374,77,50570,2,0,B|256:144|144:80,1,240,8|0
112,152,51370,6,0,B|112:240,2,80,8|0|0
192,152,51970,1,0
192,152,52070,1,0
192,152,52170,1,8
272,152,52370,2,0,B|272:64,2,80
240,232,52970,6,0,B|240:320,2,80,8|0|0
320,232,53570,1,0
320,232,53670,1,0
320,232,53770,1,8
400,232,53970,2,0,B|400:144,2,80
400,312,54570,6,0,B|144:312,1,240,8|0
104,232,55370,2,0,B|368:232,1,240,8|0
400,152,56170,2,0,B|144:152,1,240,8|0
96,72,56970,2,0,B|368:72,1,240,8|0
256,192,57770,12,4,64170
320,120,72170,6,0,B|416:120,2,80,12|0|0
320,200,72770,1,0
320,200,72870,1,0
320,200,72970,2,0,B|424:200,2,80,8|0|0
272,264,73570,5,0
240,296,73670,1,0
216,320,73770,2,0,B|48:320,1,160,8|0
80,248,74370,2,0,B|32:168|80:88,2,160,8|8|0
152,208,75370,6,0,B|240:208,3,80,8|0|0|0
208,136,76170,2,0,B|128:136,3,80,8|0|0|0
160,64,76970,2,0,B|240:64,3,80,8|0|0|0
296,120,77770,5,8
224,152,77970,1,0
296,192,78170,1,0
224,224,78370,1,0
184,288,78570,6,0,B|88:288,2,80,12|0|0
184,208,79170,1,0
184,208,79270,1,0
184,208,79370,2,0,B|80:208,2,80,8|0|0
248,152,79970,5,0
280,120,80070,1,0
304,96,80170,2,0,B|472:96,1,160,8|0
440,168,80770,2,0,B|488:248|440:328,2,160,8|8|0
368,200,81770,6,0,B|280:200,3,80,8|0|0|0
320,272,82570,2,0,B|400:272,3,80,8|0|0|0
368,344,83370,2,0,B|288:344,3,80,8|0|0|0
248,272,84170,5,8
208,344,84370,1,0
168,272,84570,1,0
128,344,84770,1,0
48,344,84970,6,0,B|48:184,1,160,12|0
136,56,85770,2,0,B|136:216,1,160,8|0
336,272,86570,6,0,B|480:248|480:96,2,240,8|0|0
176,272,88170,2,0,B|32:248|32:96,2,240,8|0|0
256,48,89770,2,0,B|256:152,3,80,8|0|0|0
208,208,90570,5,8
304,208,90770,1,0
208,208,90970,1,0
304,208,91170,1,0
256,288,91370,6,0,B|432:288,1,160,12|0
496,144,92170,2,0,B|320:144,1,160,8|0
176,272,92970,6,0,B|176:136|32:96,2,240,8|0|0
336,272,94570,2,0,B|336:136|480:96,2,240,8|0|0
256,136,96170,5,8
336,136,96370,1,0
256,136,96570,1,0
176,136,96770,1,0
104,280,97170,6,0,B|288:280,1,160,0|2
408,208,97970,2,0,B|224:208,1,160,0|2
176,64,98770,6,0,B|368:64,3,160,0|2|0|2
432,192,100370,6,0,B|432:304|320:328,1,160,0|2
159,318,101170,2,0,B|80:304|80:192,1,160,0|2
256,216,101970,6,0,B|256:40,3,160,0|2|0|2
352,184,103570,6,0,B|432:184,2,80,0|0|2
160,184,104370,2,0,B|80:184,2,80,0|0|2
96,328,105170,6,0,B|280:328,1,160,0|2
408,240,105970,2,0,B|240:240,1,160,0|2
336,112,106770,6,0,B|336:24,2,80,0|0|2
176,112,107570,2,0,B|176:24,2,80,0|0|2
176,272,108370,6,0,B|256:312|352:264,3,160,0|2|0|2
96,32,110570,5,0
256,32,110970,1,0
416,32,111370,1,0
416,192,111770,1,0
256,192,112170,1,0
96,192,112570,1,0
96,352,112970,1,0
256,352,113370,1,0
416,344,113770,6,0,B|416:72,1,240
312,48,114570,2,0,B|312:288,1,240
200,344,115370,2,0,B|200:72,1,240
96,48,116170,2,0,B|96:288,1,240
152,344,116970,6,0,B|240:344,1,80,8|4
272,272,117370,2,0,B|160:272,1,80,0|4
152,200,117770,2,0,B|256:200,1,80,8|4
272,128,118170,2,0,B|168:128,1,80,0|4
232,56,118570,6,0,B|320:56,1,80,8|4
352,128,118970,2,0,B|240:128,1,80,0|4
232,200,119370,2,0,B|336:200,1,80,8|4
352,272,119770,2,0,B|248:272,1,80,0|4
200,312,120170,6,0,B|48:288|72:104,1,240,8|0
112,72,120970,2,0,B|264:96|240:280,1,240,8|0
312,312,121770,6,0,B|464:288|440:104,1,240,8|0
400,72,122570,2,0,B|248:96|272:280,1,240,8|0
200,288,123370,6,0,B|88:288,1,80,8|4
56,208,123770,2,0,B|160:208,1,80
200,128,124170,2,0,B|104:128,2,80,8|4|0
344,288,124970,6,0,B|456:288,1,80,8|4
488,208,125370,2,0,B|384:208,1,80
344,128,125770,2,0,B|440:128,2,80,8|4|0
256,336,126570,6,0,B|104:320|120:160,1,240,8|0
168,112,127370,2,0,B|320:128|304:288,1,240,8|0
256,336,128170,6,0,B|408:320|392:160,1,240,8|0
344,112,128970,2,0,B|192:128|208:288,1,240,8|0
56,312,129770,6,0,B|136:312,1,80,8|4
96,240,130170,2,0,B|176:240,1,80,0|0
136,168,130570,2,0,B|216:168,1,80,8|4
176,96,130970,2,0,B|272:96,1,80,0|0
336,96,131370,6,0,B|256:96,1,80,8|4
376,168,131770,2,0,B|296:168,1,80,0|0
416,240,132170,2,0,B|336:240,1,80,8|4
456,312,132570,2,0,B|376:312,1,80,0|0
304,344,132970,6,0,B|200:344,1,80,8|4
144,344,133370,1,0
120,264,133570,1,0
200,264,133770,6,0,B|304:264,1,80,8|4
360,264,134170,1,0
384,184,134370,1,4
304,184,134570,6,0,B|200:184,1,80,8|0
144,184,134970,1,0
120,104,135170,1,4
200,104,135370,6,0,B|304:104,1,80,8|0
360,104,135770,1,0
384,24,135970,1,4
488,192,136170,6,0,B|481:327|321:327,1,240,8|0
384,192,136970,2,0,B|377:56|217:56,1,240,8|0
272,192,137770,2,0,B|265:327|105:327,1,240,8|0
168,192,138570,2,0,B|161:56|1:56,1,240,8|0
48,192,139370,5,8
48,272,139570,1,4
128,272,139770,2,0,B|224:272,1,80
288,272,140170,1,8
368,272,140370,1,4
448,272,140570,2,0,B|448:184,1,80
424,48,140970,5,8
376,112,141170,1,4
328,48,141370,1,0
280,112,141570,1,0
232,48,141770,1,8
184,112,141970,1,4
144,48,142170,1,0
96,112,142370,1,0
32,232,142570,6,0,B|136:232,1,80,8|4
176,280,142970,2,0,B|264:280,1,80
256,200,143370,2,0,B|352:200,1,80,8|4
408,232,143770,2,0,B|488:232,1,80
496,128,144170,5,8
424,88,144370,1,4
344,88,144570,1,0
280,136,144770,1,0
240,208,144970,1,8
176,256,145170,1,4
96,256,145370,1,0
24,216,145570,1,0
104,72,145770,6,0,B|104:152,3,80,8|4|0|0
200,224,146570,2,0,B|200:144,3,80,8|4|0|0
312,72,147370,2,0,B|312:152,3,80,8|4|0|0
408,224,148170,2,0,B|408:144,3,80,8|4|0|0
408,64,148970,5,8
336,104,149170,1,4
408,144,149370,1,0
336,184,149570,2,0,B|248:184,1,80,0|8
280,264,149970,2,0,B|200:264,1,80,4|0
104,64,150570,5,8
176,104,150770,1,4
104,144,150970,1,0
176,184,151170,2,0,B|264:184,1,80,0|8
232,264,151570,2,0,B|312:264,1,80,4|0
440,160,152170,6,0,B|440:200,2,40,8|0|4
368,128,152570,2,0,B|368:88,2,40
296,160,152970,2,0,B|296:208,2,40,8|0|4
224,128,153370,2,0,B|224:88,2,40
152,160,153770,2,0,B|152:216,2,40,8|0|4
88,120,154170,2,0,B|88:80,2,40
24,160,154570,2,0,B|24:232,2,40,8|0|4
32,280,154970,5,0
32,280,155070,1,0
32,280,155170,1,0
96,328,155370,2,0,B|96:400,2,40,8|0|4
160,280,155770,1,0
160,280,155870,1,0
160,280,155970,1,0
224,328,156170,2,0,B|224:392,2,40,8|0|4
288,280,156570,5,0
288,280,156670,1,0
288,280,156770,1,0
352,328,156970,2,0,B|352:400,2,40,8|0|4
416,280,157370,1,0
416,280,157470,1,0
416,280,157570,1,0
480,328,157770,2,0,B|480:392,2,40,8|0|4
256,192,158170,12,0,161770
