osu file format v9

[General]
AudioFilename: Boom Boom Satellites - Shut Up And Explode By Husserl.mp3
AudioLeadIn: 0
PreviewTime: 84876
Countdown: 0
SampleSet: Normal
StackLeniency: 0.7
Mode: 0
LetterboxInBreaks: 1

[Editor]
Bookmarks: 136170
DistanceSpacing: 1
BeatDivisor: 4
GridSize: 8

[Metadata]
Title:Shut Up And Explode
Artist:Boom Boom Satellites
Creator:Lissette
Version:Easy
Source:Xam'd: Lost Memories
Tags:

[Difficulty]
HPDrainRate:2
CircleSize:3
OverallDifficulty:2
ApproachRate:2
SliderMultiplier:0.6
SliderTickRate:1

[Events]
//Background and Video events
0,0,"bbs-easyaction.jpg"
//Break Periods
2,64370,70610
//Storyboard Layer 0 (Background)
//Storyboard Layer 1 (Fail)
//Storyboard Layer 2 (Pass)
//Storyboard Layer 3 (Foreground)
//Storyboard Sound Samples
//Background Colour Transformations
3,100,0,0,0

[TimingPoints]
170,400,4,1,0,50,1,0
28576,-100,4,1,0,25,0,0
29676,-100,4,1,0,35,0,0
30476,-100,4,1,0,45,0,0
31376,-100,4,1,0,50,0,0
96976,-100,4,2,0,50,0,0
110476,-100,4,1,0,30,0,0
111876,-100,4,1,0,35,0,0
113276,-100,4,1,0,40,0,0
114876,-100,4,1,0,45,0,0
117076,-100,4,1,0,50,0,0
148970,-100,4,1,0,50,0,1
158570,-100,4,2,0,0,0,1
161770,-100,4,2,0,0,0,0

[Colours]
Combo1 : 54,54,54
Combo2 : 174,0,0
Combo3 : 255,255,255
Combo4 : 255,83,83

[HitObjects]
256,64,6570,1,12
136,272,8170,2,0,B|384:272,2,240,8|8|8
256,304,12970,5,12
136,96,14570,2,0,B|384:96,2,240,8|8|8
56,224,19370,6,0,B|184:224,1,120,12|0
256,312,20970,2,0,B|384:312,1,120,8|0
456,224,22570,6,0,B|328:224,1,120,12|0
256,136,24170,2,0,B|128:136,1,120,8|0
120,256,25770,6,0,B|126:325|198:333,1,120,12|0
320,336,27370,2,0,B|390:328|397:258,1,120,8|0
312,168,28970,6,0,B|184:168,3,120,12|0|8|0
192,48,32170,6,0,B|320:48,1,120,12|0
416,112,33770,1,8
416,112,34570,1,0
328,192,35370,6,0,B|200:192,1,120,12|0
104,248,36970,1,8
104,248,37770,1,0
176,152,38570,6,0,B|176:24,1,120,12|0
336,152,40170,2,0,B|336:24,1,120,8|0
336,152,41770,6,0,B|336:280,1,120,12|0
176,152,43370,2,0,B|176:280,1,120,8|0
80,200,44970,6,0,B|80:72,3,120,12|0|8|0
200,56,48170,6,0,B|328:56,3,120,12|0|8|0
432,80,51370,6,0,B|432:200,3,120,12|0|8|0
320,248,54570,6,0,B|192:248,3,120,12|0|8|0
256,192,57770,12,4,64170
256,80,72170,5,12
376,80,72970,1,0
376,200,73770,1,8
496,200,74570,1,0
504,320,75370,6,0,B|384:320,3,120,12|0|8|0
256,320,78570,5,12
128,320,79370,1,0
128,200,80170,1,8
8,200,80970,1,0
8,80,81770,6,0,B|128:80,3,120,12|0|8|0
168,192,84970,6,0,B|248:136|344:200,1,180,12|0
336,256,86570,2,0,B|256:312|160:248,1,180,8|0
168,192,88170,2,0,B|248:136|344:200,2,180,8|0|0
256,272,91370,5,12
136,64,92970,2,0,B|256:16|376:72,2,240,8|8|0
136,304,97770,6,2,B|256:344|384:304,1,240
376,64,100970,6,2,B|256:24|128:64,1,240
368,72,104170,6,2,B|408:192|368:320,1,240
128,312,107370,6,2,B|88:192|128:64,1,240
128,312,110570,5,0
368,312,112170,1,0
368,72,113770,1,0
128,72,115370,1,0
74,305,116970,5,12
194,305,117770,1,0
314,305,118570,1,8
434,305,119370,1,0
436,185,120170,5,12
316,185,120970,1,0
196,185,121770,1,8
76,185,122570,1,0
136,80,123370,6,0,B|256:80,3,120,12|0|8|0
376,80,126570,6,8,B|256:80,3,120,12|8|8|8
304,192,129770,6,0,B|384:136|480:200,1,180,12|0
432,240,131370,2,0,B|432:360,1,120,8|0
312,352,132970,5,12
232,264,133770,1,0
320,184,134570,1,8
256,80,135370,1,0
208,192,136170,6,0,B|128:136|32:200,1,180,12|0
80,240,137770,2,0,B|80:360,1,120,0|8
200,352,139370,5,4
280,264,140170,1,0
192,184,140970,1,8
256,80,141770,1,0
344,160,142570,6,0,B|464:160,3,120,12|0|8|0
416,272,145770,5,12
320,344,146570,1,0
192,344,147370,1,8
96,272,148170,1,0
168,160,148970,6,0,B|48:160,3,120,12|0|8|0
96,272,152170,5,12
192,344,152970,1,0
320,344,153770,1,8
416,272,154570,1,0
416,152,155370,5,4
320,80,156170,1,8
192,80,156970,1,0
96,152,157770,1,8
256,192,158570,12,0,161770
