osu file format v9

[General]
AudioFilename: Bounen no Xamdou - C1 [FD738A82]_Track2.mp3
AudioLeadIn: 1996
PreviewTime: 31972
Countdown: 1
SampleSet: Soft
StackLeniency: 0.7
Mode: 0
LetterboxInBreaks: 1

[Editor]
Bookmarks: 25972,50972
DistanceSpacing: 0.6
BeatDivisor: 4
GridSize: 8

[Metadata]
Title:Shut up and Explode (Tv Size)
Artist:Boom Boom Satellite
Creator:Jeffro
Version:Insane
Source:Xam'd: Lost Memories
Tags:Bounen no Xamdou Jeffro jericho2442 Hanyuu

[Difficulty]
HPDrainRate:5
CircleSize:4
OverallDifficulty:6
ApproachRate:8
SliderMultiplier:2
SliderTickRate:2

[Events]
//Background and Video events
Video,0,"Bounen no Xamdou - C1 [FD738A82].avi"
0,0,"wallpaper.png"
//Break Periods
2,51146,54196
//Storyboard Layer 0 (Background)
//Storyboard Layer 1 (Fail)
//Storyboard Layer 2 (Pass)
//Storyboard Layer 3 (Foreground)
//Storyboard Sound Samples
//Background Colour Transformations
3,100,163,162,255

[TimingPoints]
146,400,4,1,2,60,1,0
32172,-100,4,1,2,60,0,1
32772,-100,4,1,2,60,0,1
50972,-100,4,1,2,80,0,0
86496,-100,4,2,2,20,0,0

[Colours]
Combo1 : 255,150,0
Combo2 : 18,197,192
Combo3 : 255,255,255
Combo4 : 237,5,5

[HitObjects]
256,328,546,1,0
144,280,946,2,0,B|103:239|87:191|103:143|144:103,1,200
256,56,1746,1,2
256,56,2146,1,0
368,104,2546,2,0,B|409:145|425:193|409:241|368:281,1,200
256,328,3346,1,2
256,208,3746,21,0
256,88,4146,2,0,B|216:88|200:104|184:120|184:152,2,100
256,88,4946,1,2
312,192,5346,1,0
312,320,5746,1,0
256,336,5946,1,0
200,320,6146,1,0
152,288,6346,2,0,B|120:272|104:240,5,50
96,224,6946,6,0,B|96:160|208:160|208:48,1,200
305,66,7546,2,0,B|304:160|416:160|416:224,1,200
416,280,8146,1,0
360,296,8346,1,2
304,296,8546,2,0,B|176:296|256:352|112:352,1,200
64,328,9146,1,0
32,280,9346,1,0
40,224,9546,1,2
88,192,9746,5,0
144,184,9946,2,0,B|216:184|216:128,2,100
160,240,10546,1,0
192,288,10746,1,0
248,304,10946,1,2
256,248,11146,2,0,B|368:248,2,100
256,192,11746,1,0
256,136,11946,2,0,B|256:64|328:64,1,100
368,64,12346,1,0
424,64,12546,2,0,B|456:64|456:96,7,50
456,128,13346,6,0,B|456:192|368:192|368:312,1,200,2|0
320,328,13946,1,0
264,344,14146,2,0,B|154:344|154:256|90:256,1,200,0|0
48,224,14746,1,0
40,176,14946,6,0,B|40:112|104:112,1,100,0|0
160,104,15346,2,0,B|223:103|223:164,1,100
224,224,15746,2,0,B|223:287|284:287,1,100,2|0
344,288,16146,2,0,B|404:288|404:224,1,100
408,160,16546,2,0,B|408:100|344:100,1,100
288,104,16946,2,0,B|228:104|228:168,1,100
224,224,17346,2,0,B|224:284|160:284,1,100,2|0
104,280,17746,2,0,B|44:280|44:216,1,100
40,160,18146,1,0
40,104,18346,1,0
96,104,18546,2,0,B|200:104,1,100,0|2
232,312,19146,5,2
232,312,19346,2,0,B|280:208,1,100,0|2
352,312,19946,1,2
352,312,20146,2,0,B|400:208,1,100,0|2
408,104,20746,1,0
352,104,20946,2,0,B|288:103|288:163,1,100,0|2
104,104,21546,1,2
160,104,21746,2,0,B|223:103|223:163,1,100,0|2
328,304,22346,5,2
328,304,22546,2,0,B|232:232,1,100,0|2
280,360,23146,1,2
280,360,23346,2,0,B|184:288,1,100,0|2
88,248,23946,1,0
88,192,24146,1,0
88,136,24346,1,2
200,192,24746,1,2
144,192,24946,1,0
88,192,25146,1,2
88,72,25546,5,2
88,16,25746,2,0,B|200:16,1,100,0|2
296,72,26346,1,2
296,16,26546,2,0,B|416:16,1,100,0|2
456,120,27146,1,0
456,176,27346,2,0,B|457:239|397:239,1,100,0|2
344,120,27946,1,0
344,176,28146,2,0,B|345:239|285:239,1,100,0|2
216,144,28746,6,0,B|215:83|152:84,1,100,2|0
152,84,29146,1,2
216,240,29546,2,0,B|215:300|152:299,1,100,2|0
152,300,29946,1,2
64,192,30346,1,0
144,192,30546,1,0
224,192,30746,1,2
304,192,30946,2,0,B|384:112,1,100,0|0
304,192,31346,2,0,B|384:272,1,100,0|2
304,192,31746,1,2
304,192,31946,1,2
256,152,32146,6,0,B|184:152,3,50,0|0|0|2
256,232,32746,2,0,B|192:232,4,50,0|2|0|0|2
144,192,33546,1,0
80,192,33746,1,2
24,192,33946,1,0
24,192,34046,1,0
24,192,34146,1,2
94,57,34746,1,2
224,56,35146,5,2
256,56,35246,1,0
288,56,35346,1,0
288,56,35546,1,2
256,160,35946,1,2
256,192,36046,1,0
256,224,36146,1,0
256,224,36346,1,2
368,192,36746,1,2
424,192,36946,1,0
480,192,37146,1,0
480,192,37246,1,0
480,192,37346,1,2
480,192,37546,2,0,B|392:280,1,100
409,262,37946,1,2
256,240,38346,5,0
256,272,38446,1,0
256,304,38546,2,0,B|256:368|192:368,1,100,0|2
208,192,39146,1,0
176,192,39246,1,0
144,192,39346,2,0,B|80:192|80:128,1,100,0|2
256,144,39946,1,0
256,112,40046,1,0
256,80,40146,2,0,B|256:16|320:16,1,100,0|2
304,192,40746,1,0
336,192,40846,1,0
368,192,40946,2,0,B|432:192|432:256,1,100,0|2
320,304,41546,5,0
288,304,41646,1,0
256,304,41746,1,0
256,248,41946,1,2
152,304,42346,1,0
120,304,42446,1,0
88,304,42546,1,0
88,248,42746,1,2
88,128,43146,2,0,B|32:72,2,50
128,168,43546,1,2
256,128,43946,2,0,B|200:72,2,50
296,168,44346,1,2
256,280,44746,5,0
224,280,44846,1,0
192,280,44946,1,0
144,280,45146,1,2
144,224,45346,2,0,B|64:144,1,100,0|2
128,120,45746,2,0,B|216:208,1,100,0|2
256,192,46146,1,0
312,192,46346,1,2
368,192,46546,1,0
424,192,46746,2,0,B|488:192|488:128,1,100,2|0
488,72,47146,6,0,B|488:8|424:8,1,100,2|0
368,8,47546,1,2
368,64,47746,1,0
312,64,47946,1,2
312,192,48146,1,0
256,296,48346,1,2
200,192,48546,1,0
256,296,48746,1,2
312,192,48946,1,0
256,296,49146,1,6
256,192,49346,8,0,50946
200,64,54946,5,0
312,64,55346,2,0,B|376:64|376:128,1,100,0|2
376,248,55946,2,0,B|376:312|312:312,1,100,2|0
256,312,56346,1,0
200,312,56546,1,0
144,288,56746,1,2
104,248,56946,1,0
104,192,57146,1,0
104,136,57346,1,2
160,136,57546,1,0
160,192,57746,38,0,B|160:256|224:256,1,100
280,256,58146,1,2
280,312,58346,1,0
336,312,58546,2,0,B|400:312|400:248,1,100
400,192,58946,1,2
400,136,59146,1,0
400,80,59346,2,0,B|352:64|352:64|304:80,1,100
304,136,59746,1,2
248,136,59946,1,0
256,192,60146,8,0,60946
432,72,61346,5,0
432,192,61746,2,0,B|320:192,1,100,2|0
216,192,62346,1,0
216,192,62546,1,2
216,192,62746,1,0
160,192,62946,2,0,B|160:256|96:272|32:256|32:192,1,200
32,136,63546,1,0
32,80,63746,1,2
88,80,63946,1,0
144,80,64146,2,0,B|216:8,2,100,2|0|2
144,136,64746,5,0
200,136,64946,1,0
256,136,65146,1,0
312,136,65346,1,2
312,192,65546,1,0
256,192,65746,1,0
256,192,65946,1,2
256,192,66146,2,0,B|256:304,1,100,2|0
256,292,66746,1,2
184,192,67146,5,0
128,192,67346,1,0
72,192,67546,1,2
328,192,67946,1,0
384,192,68146,1,0
440,192,68346,1,2
256,192,68746,1,0
256,192,68946,2,0,B|208:144|304:144|256:96,1,100,2|0
264,106,69546,1,0
232,56,69746,1,0
176,40,69946,1,2
192,160,70346,6,0,B|88:160,2,100,0|2|0
312,160,71146,2,0,B|416:160,2,100,0|2|0
256,256,71946,2,0,B|256:368,2,100,0|2|0
256,192,72546,5,8
312,192,72746,1,0
368,192,72946,1,8
368,136,73146,1,0
368,80,73346,1,8
424,80,73546,1,0
424,136,73746,1,8
424,192,73946,1,0
424,248,74146,1,8
368,248,74346,1,0
312,248,74546,22,0,B|232:328,1,100,8|0
184,320,74946,2,0,B|96:232,1,100,8|0
112,192,75346,2,0,B|192:112,2,100,8|0|8
112,248,75946,1,0
168,248,76146,1,8
224,248,76346,1,0
224,304,76546,2,0,B|344:304,1,100,8|0
384,304,76946,2,0,B|384:200,1,100,8|0
440,128,77346,5,8
440,128,77546,1,0
440,56,77746,1,8
440,56,77946,1,0
368,56,78146,1,8
368,56,78346,1,0
368,128,78546,1,8
368,128,78746,1,0
288,128,78946,5,8
256,128,79046,1,0
224,128,79146,1,0
192,160,79346,1,8
192,192,79446,1,0
192,224,79546,1,0
232,256,79746,2,0,B|288:256,2,50,8|0|0
320,216,80146,2,0,B|320:160,2,50,8|0|0
256,56,80546,5,8
224,56,80646,1,0
192,56,80746,1,0
120,192,80946,1,8
120,224,81046,1,0
120,256,81146,1,0
256,328,81346,1,8
288,328,81446,1,0
320,328,81546,1,0
392,192,81746,1,8
392,160,81846,1,0
392,128,81946,1,0
224,104,82146,6,0,B|224:160,2,50,8|0|0
168,224,82546,2,0,B|224:224,2,50,8|0|0
288,280,82946,2,0,B|288:224,2,50,8|0|0
344,160,83346,2,0,B|288:160,2,50,8|0|0
240,56,83746,6,0,C|56:56|56:192|48:336|256:328|464:336|456:192|456:56|256:56,1,1375
256,192,86546,8,0,87746
