osu file format v6

[General]
AudioFilename: Boogz Boogetz - Turnt Up Freestyle [www.Marvin-Vibez.in].mp3
AudioLeadIn: 0
PreviewTime: -1
Countdown: 1
SampleSet: Soft
StackLeniency: 0.7
Mode: 0
LetterboxInBreaks: 1

[Editor]
DistanceSpacing: 0.800000011920929
BeatDivisor: 4
GridSize: 16

[Metadata]
Title:Turnt Up Freestyle
Artist:Boogz Boogetz | www.Marvin-Vibez.in
Creator:A332
Version:Normal
Source:
Tags:

[Difficulty]
HPDrainRate:5
CircleSize:5
OverallDifficulty:5
SliderMultiplier:2.6
SliderTickRate:3

[Events]
//Background and Video events
//Break Periods
2,44284,48128
//Storyboard Layer 0 (Background)
//Storyboard Layer 1 (Fail)
//Storyboard Layer 2 (Pass)
//Storyboard Layer 3 (Foreground)
//Storyboard Sound Samples
//Background Colour Transformations
3,100,255,0,0

[TimingPoints]
36,597.014925373134,4,2,0,100,1,0

[HitObjects]
144,144,1234,1,0
176,176,1534,1,0
320,144,3631,1,0
256,176,4081,1,0
288,16,4980,1,0
304,112,5579,1,0
256,176,6028,1,0
256,176,7377,1,0
240,112,7826,1,0
272,176,8276,1,0
272,96,8725,1,0
128,288,10973,1,0
160,240,11272,1,0
176,336,11722,1,0
208,240,12321,1,0
240,320,12771,1,0
192,256,13220,1,0
176,176,15018,2,0,L|416:160,1,195
400,240,17415,2,0,L|64:96,1,325
112,192,21910,1,0
192,192,22359,1,0
256,256,22809,1,0
288,160,23258,1,0
320,240,23708,1,0
288,144,24157,1,0
288,160,24457,1,0
256,176,24607,1,0
304,16,25506,5,0
256,96,25955,1,0
208,176,26405,1,0
304,192,27004,1,0
256,144,27304,1,0
288,176,27603,1,0
288,176,27753,1,0
480,352,29102,1,0
400,288,29701,1,0
336,272,30150,1,0
80,288,32398,1,0
176,288,32847,1,0
176,288,33446,1,0
240,288,33746,1,0
256,128,34645,1,0
224,208,35095,1,0
208,128,35544,1,0
272,176,35993,1,0
48,288,37342,1,0
112,256,37791,1,0
192,240,38241,1,0
224,160,38690,1,0
384,224,39589,5,0
304,176,40039,1,0
224,224,40488,1,0
192,64,41387,2,0,L|336:272,1,195
48,208,44084,2,0,L,2,0
448,128,49328,5,0
320,160,50077,1,0
256,192,50527,1,0
208,128,50976,1,0
176,208,51425,1,0
160,128,51875,1,0
112,192,52324,1,0
96,128,54572,5,0
96,208,55021,1,0
144,128,55471,1,0
160,224,55920,1,0
208,128,56520,1,0
208,208,56969,1,0
256,144,57418,1,0
272,208,57718,1,0
352,144,58317,1,0
320,208,58767,1,0
112,80,60115,5,0
128,96,60265,1,0
176,96,60565,1,0
208,128,60864,1,0
208,160,61014,1,0
16,240,62213,5,0
48,224,62363,1,0
208,160,62662,1,0
240,176,62812,1,0
192,208,63112,1,0
160,224,63262,1,0
128,192,63411,1,0
128,144,63711,1,0
144,112,63861,1,0
192,112,64011,1,0
240,112,64310,1,0
272,128,64460,1,0
304,176,64760,1,0
320,208,64910,1,0
352,256,65209,1,0
384,256,65359,1,0
432,240,65659,1,0
448,208,65809,1,0
448,160,66108,1,0
432,128,66258,1,0
400,96,66558,1,0
368,96,66708,1,0
336,112,66857,1,0
304,144,67157,1,0
272,160,67307,1,0
240,192,67607,1,0
208,208,67756,1,0
176,192,67906,1,0
144,160,68206,1,0
160,112,68506,1,0
192,96,68655,1,0
224,96,68805,1,0
272,96,69105,1,0
288,112,69255,1,0
336,144,69554,1,0
368,160,69704,1,0
416,160,70004,1,0
432,128,70154,1,0
400,80,70453,1,0
352,64,70603,1,0
304,96,70903,1,0
304,144,71202,1,0
288,160,71352,1,0
240,176,71652,1,0
208,176,71802,1,0
16,96,73000,5,0
48,112,73150,1,0
96,112,73450,1,0
128,128,73600,1,0
160,144,73899,1,0
192,160,74049,1,0
224,192,74349,1,0
256,208,74499,1,0
288,224,74648,1,0
336,240,74948,1,0
368,256,75098,1,0
400,272,75397,1,0
416,288,75547,1,0
448,304,75697,1,0
496,320,75997,1,0
464,64,77345,5,0
432,80,77645,1,0
416,96,77795,1,0
384,128,78094,1,0
352,160,78244,1,0
304,192,78544,1,0
256,224,78843,1,0
208,240,79143,1,0
176,256,79293,1,0
128,288,79593,1,0
96,304,79742,1,0
224,80,81091,2,0,L,2,0
16,160,84986,6,0,L|192:160|272:80,1,260
80,192,87833,2,0,L|320:192,1,195
48,176,90080,2,0,L|304:176,1,195
16,48,92777,1,0
96,96,93227,1,0
144,144,93676,1,0
208,144,94126,1,0
256,208,94575,1,0
304,144,95025,1,0
304,224,95474,1,0
336,160,95923,1,0
320,240,96373,1,0
352,176,96822,1,0
304,240,97272,1,0
128,64,98620,5,0
192,128,99070,1,0
144,48,99519,1,0
224,80,99969,1,0
256,112,100268,1,0
256,144,100418,1,0
208,144,100718,1,0
144,48,100868,1,0
288,160,101916,1,0
352,128,102216,1,0
352,224,102666,1,0
256,192,103115,1,0
336,144,103565,1,0
288,224,104014,1,0
256,128,104613,1,0
288,176,104913,1,0
336,112,106261,5,0
256,160,106711,1,0
208,80,107310,1,0
192,144,107760,1,0
256,112,108209,1,0
336,224,108958,1,0
352,128,109558,1,0
288,160,110007,1,0
288,80,110457,1,0
208,96,110906,1,0
240,16,111355,1,0
176,48,111805,1,0
256,208,113902,12,0,116752
96,144,118397,6,0,L|464:272|448:64|80:288,1,1015
