osu file format v14

[General]
AudioFilename: Bonus BGC - Na azarskim.mp3
AudioLeadIn: 0
PreviewTime: -1
Countdown: 0
SampleSet: None
StackLeniency: 1
Mode: 0
LetterboxInBreaks: 1
WidescreenStoryboard: 0

[Editor]
DistanceSpacing: 1.7
BeatDivisor: 4
GridSize: 4
TimelineZoom: 2.2

[Metadata]
Title:Bonus BGC - Na Lazarskim
TitleUnicode:Bonus BGC - Na Łazarskim
Artist:Bonus BGC [Bonus Grunwald Calliera]
ArtistUnicode:Bonus BGC [Bonus Grunwald Calliera]
Creator:Metal_BOY97
Version:Nie jest kolorowo
Source:
Tags:
BeatmapID:771895
BeatmapSetID:350086

[Difficulty]
HPDrainRate:7
CircleSize:4
OverallDifficulty:7.5
ApproachRate:8.3
SliderMultiplier:1.4
SliderTickRate:1

[Events]
//Background and Video events
0,0,"bonus bgc.jpg",0,0
//Break Periods
//Storyboard Layer 0 (Background)
//Storyboard Layer 1 (Fail)
//Storyboard Layer 2 (Pass)
//Storyboard Layer 3 (Foreground)
//Storyboard Sound Samples

[TimingPoints]
1935.3911957272,333.333333333333,4,1,0,100,1,0
33018,166.666666666667,4,1,0,100,1,0
34851,333.333333333333,4,1,0,100,1,0

[Colours]
Combo1 : 14,6,157
Combo2 : 170,167,233
Combo3 : 106,167,46
Combo4 : 209,46,95
Combo5 : 188,226,33

[HitObjects]
256,192,9936,12,0,11603,0:0:0:0:
240,300,11852,5,0,0:0:0:0:
332,160,12019,1,0,0:0:0:0:
240,300,12185,1,0,0:0:0:0:
104,120,12352,1,0,0:0:0:0:
388,292,12519,1,0,0:0:0:0:
256,48,12685,1,8,0:0:0:0:
176,100,13185,5,0,0:0:0:0:
324,248,13352,1,0,0:0:0:0:
332,104,13519,1,0,0:0:0:0:
184,252,13685,1,0,0:0:0:0:
184,252,13769,1,0,0:0:0:0:
184,252,13852,1,0,0:0:0:0:
96,144,14019,1,0,0:0:0:0:
96,144,14185,5,0,0:0:0:0:
340,316,14352,2,2,B|272:196|296:108|336:104|336:136|372:148|176:124,1,350
192,80,15852,2,2,P|272:136|152:204,1,280
256,148,17018,5,0,0:0:0:0:
304,228,17185,1,0,0:0:0:0:
216,228,17351,1,0,0:0:0:0:
360,88,17518,1,0,0:0:0:0:
256,300,17685,1,0,0:0:0:0:
164,92,17851,1,0,0:0:0:0:
372,316,18018,1,0,0:0:0:0:
160,316,18185,1,8,0:0:0:0:
68,160,18518,6,0,B|132:212|264:172|276:168|276:168|284:164|356:312|368:292|244:268,1,420
128,80,19852,5,0,0:0:0:0:
204,56,20019,1,0,0:0:0:0:
152,164,20185,1,0,0:0:0:0:
240,136,20352,1,0,0:0:0:0:
176,252,20519,1,0,0:0:0:0:
276,212,20685,1,0,0:0:0:0:
280,76,20852,5,2,0:0:0:0:
392,220,21019,1,0,0:0:0:0:
244,320,21185,1,2,0:0:0:0:
136,160,21352,1,0,0:0:0:0:
312,144,21519,1,0,0:0:0:0:
336,240,21685,1,0,0:0:0:0:
296,240,21769,1,0,0:0:0:0:
252,240,21852,1,0,0:0:0:0:
336,240,22019,1,4,0:0:0:0:
184,88,22352,5,0,0:0:0:0:
248,220,22518,1,0,0:0:0:0:
192,96,22685,2,0,B|240:44|240:44|240:240,1,245
104,224,23852,6,0,B|240:140|224:112|116:112|104:132|256:224,1,280
368,64,24852,1,0,0:0:0:0:
240,284,25018,1,0,0:0:0:0:
280,296,25102,1,0,0:0:0:0:
320,312,25185,1,0,0:0:0:0:
416,168,25352,1,0,0:0:0:0:
424,128,25435,1,0,0:0:0:0:
436,88,25518,2,0,P|348:136|300:104,1,140
152,136,26352,5,0,0:0:0:0:
184,148,26435,1,0,0:0:0:0:
220,160,26518,1,0,0:0:0:0:
84,72,26685,1,0,0:0:0:0:
224,328,26852,1,0,0:0:0:0:
104,320,27018,1,0,0:0:0:0:
424,140,27185,1,8,0:0:0:0:
280,72,27352,5,0,0:0:0:0:
284,76,27435,1,0,0:0:0:0:
288,80,27518,1,0,0:0:0:0:
292,84,27602,1,0,0:0:0:0:
296,88,27685,1,0,0:0:0:0:
300,92,27768,1,0,0:0:0:0:
304,96,27852,2,4,B|248:136|304:192|304:192|320:204|264:236|264:236|232:220|232:220|232:264|232:264|200:288,1,280
132,68,28852,2,4,B|96:116|128:188|212:120|268:132|268:132|272:192|296:184|296:184|356:264|220:284|220:284|216:232|216:232|176:240|176:240|156:268,1,560
208,92,30518,5,0,0:0:0:0:
312,92,30685,1,0,0:0:0:0:
204,312,30852,1,0,0:0:0:0:
316,316,31018,1,0,0:0:0:0:
128,196,31185,1,2,0:0:0:0:
396,208,31352,1,2,0:0:0:0:
72,104,31518,2,0,P|128:52|204:80,1,140
256,264,32018,2,0,L|236:232,1,35
312,252,32185,2,0,L|320:212,1,35
368,280,32352,2,0,L|416:268,1,35
376,336,32518,2,0,L|416:360,1,35
408,356,32685,1,0,0:0:0:0:
112,96,33018,6,10,B|152:320|152:320|248:76|248:76|312:344|312:344|384:68,1,1050
244,80,34518,2,0,B|304:80|304:80|212:188|212:188|316:188,1,280
136,72,35017,1,0,0:0:0:0:
376,72,35184,1,0,0:0:0:0:
384,316,35351,1,0,0:0:0:0:
136,312,35517,1,0,0:0:0:0:
140,320,35601,5,0,0:0:0:0:
184,328,35684,1,0,0:0:0:0:
232,328,35767,1,0,0:0:0:0:
276,304,35851,1,0,0:0:0:0:
316,272,35934,1,0,0:0:0:0:
336,224,36017,1,0,0:0:0:0:
336,172,36101,1,0,0:0:0:0:
264,172,36184,2,4,P|260:216|160:256,1,140
128,48,37017,5,0,0:0:0:0:
136,56,37184,1,0,0:0:0:0:
144,64,37351,1,0,0:0:0:0:
152,72,37517,1,0,0:0:0:0:
160,80,37684,1,0,0:0:0:0:
168,92,37851,1,0,0:0:0:0:
176,100,38017,1,0,0:0:0:0:
256,192,38434,12,0,39517,0:0:0:0:
136,100,39850,5,0,0:0:0:0:
260,332,40017,1,0,0:0:0:0:
416,144,40183,1,0,0:0:0:0:
160,304,40350,1,0,0:0:0:0:
272,104,40517,1,0,0:0:0:0:
208,64,41017,6,0,B|264:12|316:72|320:88|320:88|320:116|332:148|296:168|232:136|232:196|232:196|232:252,1,350
232,320,41934,1,0,0:0:0:0:
192,232,42100,1,0,0:0:0:0:
344,320,42267,1,0,0:0:0:0:
304,232,42434,1,0,0:0:0:0:
232,320,42600,1,0,0:0:0:0:
408,240,42767,1,8,0:0:0:0:
64,312,42934,1,8,0:0:0:0:
352,164,43100,1,8,0:0:0:0:
304,92,43517,5,0,0:0:0:0:
212,104,43684,2,0,P|152:148|172:224,1,140
164,212,44184,1,0,0:0:0:0:
180,144,44350,1,0,0:0:0:0:
232,96,44517,1,0,0:0:0:0:
304,92,45017,2,4,P|368:296|160:208,1,525
156,224,46351,5,0,0:0:0:0:
152,212,46434,1,0,0:0:0:0:
180,100,46601,1,0,0:0:0:0:
224,308,46768,1,0,0:0:0:0:
280,184,46934,1,0,0:0:0:0:
176,256,47101,1,0,0:0:0:0:
248,72,47517,1,0,0:0:0:0:
324,264,48017,1,4,0:0:0:0:
136,148,48184,1,4,0:0:0:0:
368,144,48350,1,4,0:0:0:0:
136,148,48517,1,4,0:0:0:0:
324,264,48684,1,4,0:0:0:0:
248,72,48850,1,6,0:0:0:0:
200,256,49184,5,0,0:0:0:0:
204,144,49517,1,0,0:0:0:0:
324,256,49684,1,0,0:0:0:0:
328,144,49850,1,0,0:0:0:0:
128,196,50017,1,0,0:0:0:0:
268,84,50184,1,0,0:0:0:0:
392,200,50350,1,0,0:0:0:0:
260,316,50600,1,0,0:0:0:0:
168,96,50850,1,8,0:0:0:0:
376,312,51017,1,8,0:0:0:0:
136,312,51184,1,8,0:0:0:0:
256,192,51767,12,0,53850,0:0:0:0:
44,344,54517,6,2,B|20:288|40:280|40:280|36:280|48:336|48:336|116:336|116:348|116:348|108:352|48:332|48:332|472:24,1,770
