osu file format v14

[General]
AudioFilename: bibihendl.mp3
AudioLeadIn: 0
PreviewTime: 29296
Countdown: 0
SampleSet: Normal
StackLeniency: 0.7
Mode: 1
LetterboxInBreaks: 0
WidescreenStoryboard: 1

[Editor]
DistanceSpacing: 1
BeatDivisor: 4
GridSize: 32
TimelineZoom: 1

[Metadata]
Title:New Bibi Hendl
TitleUnicode:New Bibi Hendl
Artist:Bonsai
ArtistUnicode:Bonsai
Creator:snowball112
Version:DER JODELMEISTER (Oni)
Source:
Tags:takeo ischi chicken yodeling osu!idol
BeatmapID:1126291
BeatmapSetID:531470

[Difficulty]
HPDrainRate:6
CircleSize:2
OverallDifficulty:6
ApproachRate:0
SliderMultiplier:1.4
SliderTickRate:1

[Events]
//Background and Video events
0,0,"chickens.png",0,0
//Break Periods
//Storyboard Layer 0 (Background)
//Storyboard Layer 1 (Fail)
//Storyboard Layer 2 (Pass)
//Storyboard Layer 3 (Foreground)
//Storyboard Sound Samples

[TimingPoints]
649.488721804511,451.127819548872,4,1,0,50,1,0
29521,-100,4,1,0,50,0,1
34935,-100,4,1,0,50,0,0
36739,-100,4,1,0,50,0,1
43957,-100,4,1,0,50,0,0
65611,-100,4,1,0,50,0,1
71025,-100,4,1,0,50,0,0
72829,-100,4,1,0,50,0,1
80047,-100,4,1,0,50,0,0
101702,-100,4,1,0,50,0,1
107115,-100,4,1,0,50,0,0
108920,-100,4,1,0,50,0,1
116138,-100,4,1,0,50,0,0
145010,-100,4,1,0,50,0,1
150423,-100,4,1,0,50,0,0
152228,-100,4,1,0,50,0,1
159446,-100,4,1,0,50,0,0
166664,-100,4,1,0,50,0,1
181100,526.315789473684,4,1,0,50,1,0
181626,582.52427184466,4,1,0,50,1,8
182208,628.272251308901,4,1,0,50,1,8
182836,705.882352941176,4,1,0,50,1,8
183541,705.882352941176,4,1,0,50,1,0

[HitObjects]
256,192,649,5,4,0:0:0:0:
256,192,1326,1,0,0:0:0:0:
256,192,1777,1,0,0:0:0:0:
256,192,2228,1,0,0:0:0:0:
256,192,2453,5,12,0:0:0:0:
256,192,3130,1,0,0:0:0:0:
256,192,3581,1,0,0:0:0:0:
256,192,3694,1,0,0:0:0:0:
256,192,3807,1,0,0:0:0:0:
256,192,4032,1,0,0:0:0:0:
256,192,4258,5,4,0:0:0:0:
256,192,5160,5,12,0:0:0:0:
256,192,5386,1,8,0:0:0:0:
256,192,5611,1,8,0:0:0:0:
256,192,5837,1,8,0:0:0:0:
256,192,6063,5,4,0:0:0:0:
256,192,6514,5,12,0:0:0:0:
256,192,6965,5,4,0:0:0:0:
256,192,7190,1,0,0:0:0:0:
256,192,7303,1,0,0:0:0:0:
256,192,7416,1,0,0:0:0:0:
256,192,7641,1,0,0:0:0:0:
256,192,7867,5,8,0:0:0:0:
256,192,8318,1,8,0:0:0:0:
256,192,8544,1,8,0:0:0:0:
256,192,8657,1,8,0:0:0:0:
256,192,8769,5,0,0:0:0:0:
256,192,8995,1,0,0:0:0:0:
256,192,9220,1,8,0:0:0:0:
256,192,9672,5,8,0:0:0:0:
256,192,9897,1,0,0:0:0:0:
256,192,10123,1,8,0:0:0:0:
256,192,10348,1,8,0:0:0:0:
256,192,10461,1,8,0:0:0:0:
256,192,10574,5,0,0:0:0:0:
256,192,10799,1,0,0:0:0:0:
256,192,10912,1,0,0:0:0:0:
256,192,11025,1,0,0:0:0:0:
256,192,11250,1,0,0:0:0:0:
256,192,11476,5,8,0:0:0:0:
256,192,11927,1,8,0:0:0:0:
256,192,12153,1,8,0:0:0:0:
256,192,12266,1,8,0:0:0:0:
256,192,12378,5,0,0:0:0:0:
256,192,12604,1,0,0:0:0:0:
256,192,12829,1,8,0:0:0:0:
256,192,13281,5,8,0:0:0:0:
256,192,13506,1,8,0:0:0:0:
256,192,13732,1,0,0:0:0:0:
256,192,13957,1,0,0:0:0:0:
256,192,14183,5,8,0:0:0:0:
256,192,14296,1,8,0:0:0:0:
256,192,14408,1,0,0:0:0:0:
256,192,14521,1,0,0:0:0:0:
256,192,14634,5,8,0:0:0:0:
256,192,14860,1,8,0:0:0:0:
256,192,15085,5,0,0:0:0:0:
256,192,15536,1,8,0:0:0:0:
256,192,15762,1,0,0:0:0:0:
256,192,15987,1,0,0:0:0:0:
256,192,16438,1,8,0:0:0:0:
256,192,16890,5,0,0:0:0:0:
256,192,17115,1,0,0:0:0:0:
256,192,17341,1,8,0:0:0:0:
256,192,17566,1,0,0:0:0:0:
256,192,17792,5,0,0:0:0:0:
256,192,18017,1,0,0:0:0:0:
256,192,18130,1,0,0:0:0:0:
256,192,18243,5,8,0:0:0:0:
256,192,18469,1,8,0:0:0:0:
256,192,18694,5,0,0:0:0:0:
256,192,19145,1,8,0:0:0:0:
256,192,19371,1,0,0:0:0:0:
256,192,19596,1,0,0:0:0:0:
256,192,20047,1,8,0:0:0:0:
256,192,20499,5,0,0:0:0:0:
256,192,20724,1,0,0:0:0:0:
256,192,20950,1,8,0:0:0:0:
256,192,21175,1,8,0:0:0:0:
256,192,21401,5,0,0:0:0:0:
256,192,21626,1,8,0:0:0:0:
256,192,21739,1,0,0:0:0:0:
256,192,21852,5,8,0:0:0:0:
256,192,21965,1,8,0:0:0:0:
256,192,22078,1,0,0:0:0:0:
256,192,22190,1,0,0:0:0:0:
256,192,22303,5,8,0:0:0:0:
256,192,22754,1,8,0:0:0:0:
256,192,22980,1,8,0:0:0:0:
256,192,23205,5,0,0:0:0:0:
256,192,23431,1,0,0:0:0:0:
256,192,23544,1,0,0:0:0:0:
256,192,23657,1,8,0:0:0:0:
256,192,23882,1,8,0:0:0:0:
256,192,24108,5,0,0:0:0:0:
256,192,24559,1,8,0:0:0:0:
256,192,25010,5,0,0:0:0:0:
256,192,25235,1,0,0:0:0:0:
256,192,25348,1,0,0:0:0:0:
256,192,25461,1,8,0:0:0:0:
256,192,25687,1,8,0:0:0:0:
256,192,25912,5,0,0:0:0:0:
256,192,26363,1,8,0:0:0:0:
256,192,26589,1,0,0:0:0:0:
256,192,26814,1,8,0:0:0:0:
256,192,27040,1,8,0:0:0:0:
256,192,27266,1,0,0:0:0:0:
256,192,27491,1,8,0:0:0:0:
256,192,27717,5,4,0:0:0:0:
256,192,27942,1,8,0:0:0:0:
256,192,28168,5,4,0:0:0:0:
256,192,28393,1,8,0:0:0:0:
256,192,28619,5,12,0:0:0:0:
256,192,28844,1,0,0:0:0:0:
256,192,28957,1,0,0:0:0:0:
256,192,29070,1,0,0:0:0:0:
256,192,29183,1,0,0:0:0:0:
256,192,29296,1,8,0:0:0:0:
256,192,29521,5,4,0:0:0:0:
256,192,29972,1,8,0:0:0:0:
256,192,30198,1,0,0:0:0:0:
256,192,30311,1,8,0:0:0:0:
256,192,30423,5,0,0:0:0:0:
256,192,30649,1,0,0:0:0:0:
256,192,30875,1,8,0:0:0:0:
256,192,31100,1,0,0:0:0:0:
256,192,31213,1,0,0:0:0:0:
256,192,31326,5,8,0:0:0:0:
256,192,31551,1,0,0:0:0:0:
256,192,31777,5,8,0:0:0:0:
256,192,32002,1,8,0:0:0:0:
256,192,32115,1,8,0:0:0:0:
256,192,32228,5,0,0:0:0:0:
256,192,32453,1,0,0:0:0:0:
256,192,32679,1,8,0:0:0:0:
256,192,32905,1,8,0:0:0:0:
256,192,33130,5,0,0:0:0:0:
256,192,33356,1,0,0:0:0:0:
256,192,33581,1,8,0:0:0:0:
256,192,33807,1,8,0:0:0:0:
256,192,33920,1,8,0:0:0:0:
256,192,34032,5,0,0:0:0:0:
256,192,34258,1,0,0:0:0:0:
256,192,34484,1,8,0:0:0:0:
256,192,34709,1,0,0:0:0:0:
256,192,34935,5,4,0:0:0:0:
256,192,35837,1,0,0:0:0:0:
256,192,35950,1,0,0:0:0:0:
256,192,36175,1,0,0:0:0:0:
256,192,36288,1,0,0:0:0:0:
256,192,36514,1,0,0:0:0:0:
256,192,36739,5,12,0:0:0:0:
256,192,37190,1,8,0:0:0:0:
256,192,37416,1,0,0:0:0:0:
256,192,37529,1,8,0:0:0:0:
256,192,37641,5,0,0:0:0:0:
256,192,37867,1,0,0:0:0:0:
256,192,38093,1,8,0:0:0:0:
256,192,38318,1,0,0:0:0:0:
256,192,38431,1,0,0:0:0:0:
256,192,38544,5,8,0:0:0:0:
256,192,38769,1,0,0:0:0:0:
256,192,38995,1,8,0:0:0:0:
256,192,39220,1,8,0:0:0:0:
256,192,39333,1,8,0:0:0:0:
256,192,39446,5,0,0:0:0:0:
256,192,39672,1,0,0:0:0:0:
256,192,39897,1,8,0:0:0:0:
256,192,40123,1,8,0:0:0:0:
256,192,40348,5,0,0:0:0:0:
256,192,40574,1,0,0:0:0:0:
256,192,40799,1,8,0:0:0:0:
256,192,41025,1,8,0:0:0:0:
256,192,41138,1,8,0:0:0:0:
256,192,41250,5,0,0:0:0:0:
256,192,41476,1,0,0:0:0:0:
256,192,41702,1,8,0:0:0:0:
256,192,41927,1,8,0:0:0:0:
256,192,42153,5,0,0:0:0:0:
256,192,42829,1,0,0:0:0:0:
256,192,43281,1,8,0:0:0:0:
256,192,43506,5,8,0:0:0:0:
256,192,43732,1,0,0:0:0:0:
256,192,43957,5,4,0:0:0:0:
256,192,44408,1,8,0:0:0:0:
256,192,44634,1,0,0:0:0:0:
256,192,44860,1,0,0:0:0:0:
256,192,45085,1,0,0:0:0:0:
256,192,45198,1,0,0:0:0:0:
256,192,45311,1,8,0:0:0:0:
256,192,45536,1,8,0:0:0:0:
256,192,45649,1,0,0:0:0:0:
256,192,45762,1,8,0:0:0:0:
256,192,45987,1,8,0:0:0:0:
256,192,46213,1,0,0:0:0:0:
256,192,46438,1,8,0:0:0:0:
256,192,46890,1,0,0:0:0:0:
256,192,47115,1,8,0:0:0:0:
256,192,47341,1,0,0:0:0:0:
256,192,47453,1,0,0:0:0:0:
256,192,47566,1,8,0:0:0:0:
256,192,47792,1,0,0:0:0:0:
256,192,48017,1,8,0:0:0:0:
256,192,48243,1,0,0:0:0:0:
256,192,48469,1,0,0:0:0:0:
256,192,48694,1,0,0:0:0:0:
256,192,48807,1,0,0:0:0:0:
256,192,48920,1,8,0:0:0:0:
256,192,49145,1,8,0:0:0:0:
256,192,49258,1,0,0:0:0:0:
256,192,49371,1,8,0:0:0:0:
256,192,49596,1,0,0:0:0:0:
256,192,49822,1,8,0:0:0:0:
256,192,50047,1,8,0:0:0:0:
256,192,50273,1,0,0:0:0:0:
256,192,50386,1,0,0:0:0:0:
256,192,50611,1,0,0:0:0:0:
256,192,50724,1,0,0:0:0:0:
256,192,50950,1,0,0:0:0:0:
256,192,51175,1,8,0:0:0:0:
256,192,51626,1,8,0:0:0:0:
256,192,51852,1,0,0:0:0:0:
256,192,52078,1,0,0:0:0:0:
256,192,52529,1,8,0:0:0:0:
256,192,52980,1,0,0:0:0:0:
256,192,53205,1,0,0:0:0:0:
256,192,53431,1,8,0:0:0:0:
256,192,53657,1,0,0:0:0:0:
256,192,53882,1,0,0:0:0:0:
256,192,54108,1,0,0:0:0:0:
256,192,54220,1,0,0:0:0:0:
256,192,54333,1,8,0:0:0:0:
256,192,54559,1,8,0:0:0:0:
256,192,54784,1,0,0:0:0:0:
256,192,55235,1,8,0:0:0:0:
256,192,55461,1,0,0:0:0:0:
256,192,55687,1,0,0:0:0:0:
256,192,56138,1,8,0:0:0:0:
256,192,56589,1,0,0:0:0:0:
256,192,56814,1,0,0:0:0:0:
256,192,57040,1,8,0:0:0:0:
256,192,57266,1,8,0:0:0:0:
256,192,57491,1,0,0:0:0:0:
256,192,57717,1,8,0:0:0:0:
256,192,57829,1,0,0:0:0:0:
256,192,57942,1,8,0:0:0:0:
256,192,58055,1,8,0:0:0:0:
256,192,58168,1,0,0:0:0:0:
256,192,58281,1,8,0:0:0:0:
256,192,58393,1,0,0:0:0:0:
256,192,58844,1,8,0:0:0:0:
256,192,59070,1,8,0:0:0:0:
256,192,59296,1,0,0:0:0:0:
256,192,59521,1,0,0:0:0:0:
256,192,59634,1,0,0:0:0:0:
256,192,59747,1,8,0:0:0:0:
256,192,59972,1,8,0:0:0:0:
256,192,60198,1,0,0:0:0:0:
256,192,60649,1,8,0:0:0:0:
256,192,61100,1,0,0:0:0:0:
256,192,61326,1,0,0:0:0:0:
256,192,61438,1,0,0:0:0:0:
256,192,61551,1,8,0:0:0:0:
256,192,61777,1,0,0:0:0:0:
256,192,62002,5,0,0:0:0:0:
256,192,62453,1,8,0:0:0:0:
256,192,62679,1,0,0:0:0:0:
256,192,62905,1,8,0:0:0:0:
256,192,63130,1,8,0:0:0:0:
256,192,63356,1,0,0:0:0:0:
256,192,63581,1,8,0:0:0:0:
256,192,63807,5,4,0:0:0:0:
256,192,64032,1,8,0:0:0:0:
256,192,64258,5,4,0:0:0:0:
256,192,64484,1,8,0:0:0:0:
256,192,64709,5,12,0:0:0:0:
256,192,64935,1,0,0:0:0:0:
256,192,65047,1,8,0:0:0:0:
256,192,65160,1,0,0:0:0:0:
256,192,65273,1,0,0:0:0:0:
256,192,65386,1,8,0:0:0:0:
256,192,65611,1,4,0:0:0:0:
256,192,66063,1,8,0:0:0:0:
256,192,66288,1,0,0:0:0:0:
256,192,66401,1,8,0:0:0:0:
256,192,66514,1,0,0:0:0:0:
256,192,66739,1,0,0:0:0:0:
256,192,66965,1,8,0:0:0:0:
256,192,67190,1,0,0:0:0:0:
256,192,67303,1,0,0:0:0:0:
256,192,67416,1,8,0:0:0:0:
256,192,67641,1,0,0:0:0:0:
256,192,67867,1,8,0:0:0:0:
256,192,68093,1,8,0:0:0:0:
256,192,68205,1,8,0:0:0:0:
256,192,68318,1,0,0:0:0:0:
256,192,68544,1,0,0:0:0:0:
256,192,68657,1,0,0:0:0:0:
256,192,68769,1,8,0:0:0:0:
256,192,68995,1,8,0:0:0:0:
256,192,69220,5,0,0:0:0:0:
256,192,69446,1,0,0:0:0:0:
256,192,69672,1,8,0:0:0:0:
256,192,69897,1,8,0:0:0:0:
256,192,70010,1,8,0:0:0:0:
256,192,70123,1,0,0:0:0:0:
256,192,70348,1,0,0:0:0:0:
256,192,70574,1,8,0:0:0:0:
256,192,70799,1,0,0:0:0:0:
256,192,71025,5,4,0:0:0:0:
256,192,71927,1,0,0:0:0:0:
256,192,72040,1,0,0:0:0:0:
256,192,72266,1,0,0:0:0:0:
256,192,72378,1,0,0:0:0:0:
256,192,72604,1,0,0:0:0:0:
256,192,72829,1,12,0:0:0:0:
256,192,73281,1,8,0:0:0:0:
256,192,73506,1,0,0:0:0:0:
256,192,73619,1,8,0:0:0:0:
256,192,73732,1,0,0:0:0:0:
256,192,73957,1,0,0:0:0:0:
256,192,74183,1,8,0:0:0:0:
256,192,74408,1,0,0:0:0:0:
256,192,74521,1,0,0:0:0:0:
256,192,74634,1,8,0:0:0:0:
256,192,74860,1,0,0:0:0:0:
256,192,75085,1,8,0:0:0:0:
256,192,75311,1,8,0:0:0:0:
256,192,75423,1,8,0:0:0:0:
256,192,75536,1,0,0:0:0:0:
256,192,75762,1,0,0:0:0:0:
256,192,75987,1,8,0:0:0:0:
256,192,76100,1,8,0:0:0:0:
256,192,76213,1,0,0:0:0:0:
256,192,76438,1,0,0:0:0:0:
256,192,76664,1,0,0:0:0:0:
256,192,76890,1,8,0:0:0:0:
256,192,77115,1,0,0:0:0:0:
256,192,77228,1,8,0:0:0:0:
256,192,77341,1,0,0:0:0:0:
256,192,77566,1,0,0:0:0:0:
256,192,77792,1,8,0:0:0:0:
256,192,78017,1,8,0:0:0:0:
256,192,78243,5,0,0:0:0:0:
256,192,78920,1,0,0:0:0:0:
256,192,79371,1,8,0:0:0:0:
256,192,79596,1,8,0:0:0:0:
256,192,79822,1,0,0:0:0:0:
256,192,80047,5,4,0:0:0:0:
256,192,80273,1,0,0:0:0:0:
256,192,80499,1,8,0:0:0:0:
256,192,80724,1,0,0:0:0:0:
256,192,80950,1,8,0:0:0:0:
256,192,81175,1,0,0:0:0:0:
256,192,81401,1,0,0:0:0:0:
256,192,81626,1,0,0:0:0:0:
256,192,81739,1,0,0:0:0:0:
256,192,81852,1,8,0:0:0:0:
256,192,82078,1,8,0:0:0:0:
256,192,82303,1,0,0:0:0:0:
256,192,82529,1,8,0:0:0:0:
256,192,82754,1,0,0:0:0:0:
256,192,82980,1,0,0:0:0:0:
256,192,83205,1,8,0:0:0:0:
256,192,83657,1,0,0:0:0:0:
256,192,83882,1,0,0:0:0:0:
256,192,84108,1,8,0:0:0:0:
256,192,84333,1,0,0:0:0:0:
256,192,84559,1,8,0:0:0:0:
256,192,84785,1,0,0:0:0:0:
256,192,85010,1,0,0:0:0:0:
256,192,85235,1,0,0:0:0:0:
256,192,85348,1,0,0:0:0:0:
256,192,85461,1,8,0:0:0:0:
256,192,85687,12,0,86363,0:0:0:0:
256,192,86589,5,0,0:0:0:0:
256,192,86702,1,0,0:0:0:0:
256,192,86814,1,8,0:0:0:0:
256,192,86927,1,8,0:0:0:0:
256,192,87040,1,0,0:0:0:0:
256,192,87266,1,8,0:0:0:0:
256,192,87717,1,8,0:0:0:0:
256,192,87942,1,0,0:0:0:0:
256,192,88168,1,0,0:0:0:0:
256,192,88619,1,8,0:0:0:0:
256,192,89070,1,0,0:0:0:0:
256,192,89296,1,0,0:0:0:0:
256,192,89521,1,8,0:0:0:0:
256,192,89747,1,0,0:0:0:0:
256,192,89972,1,0,0:0:0:0:
256,192,90198,1,8,0:0:0:0:
256,192,90311,1,0,0:0:0:0:
256,192,90423,1,8,0:0:0:0:
256,192,90649,1,0,0:0:0:0:
256,192,90875,1,8,0:0:0:0:
256,192,91326,1,8,0:0:0:0:
256,192,91551,1,0,0:0:0:0:
256,192,91777,1,0,0:0:0:0:
256,192,92228,1,8,0:0:0:0:
256,192,92679,1,0,0:0:0:0:
256,192,92905,1,0,0:0:0:0:
256,192,93130,1,8,0:0:0:0:
256,192,93356,1,8,0:0:0:0:
256,192,93581,1,0,0:0:0:0:
256,192,93807,1,8,0:0:0:0:
256,192,93920,1,0,0:0:0:0:
256,192,94032,1,8,0:0:0:0:
256,192,94145,1,8,0:0:0:0:
256,192,94258,1,0,0:0:0:0:
256,192,94371,1,0,0:0:0:0:
256,192,94484,1,8,0:0:0:0:
256,192,94935,1,8,0:0:0:0:
256,192,95160,1,0,0:0:0:0:
256,192,95386,1,0,0:0:0:0:
256,192,95611,1,0,0:0:0:0:
256,192,95724,1,0,0:0:0:0:
256,192,95837,1,8,0:0:0:0:
256,192,96063,1,8,0:0:0:0:
256,192,96288,5,0,0:0:0:0:
256,192,96739,1,8,0:0:0:0:
256,192,97190,1,0,0:0:0:0:
256,192,97416,1,0,0:0:0:0:
256,192,97529,1,0,0:0:0:0:
256,192,97641,1,8,0:0:0:0:
256,192,97867,1,0,0:0:0:0:
256,192,98093,5,0,0:0:0:0:
256,192,98544,1,8,0:0:0:0:
256,192,98769,1,0,0:0:0:0:
256,192,98995,1,8,0:0:0:0:
256,192,99220,1,8,0:0:0:0:
256,192,99446,1,0,0:0:0:0:
256,192,99672,1,8,0:0:0:0:
256,192,99897,5,4,0:0:0:0:
256,192,100123,1,8,0:0:0:0:
256,192,100348,1,4,0:0:0:0:
256,192,100574,1,8,0:0:0:0:
256,192,100799,1,12,0:0:0:0:
256,192,101025,1,0,0:0:0:0:
256,192,101138,1,0,0:0:0:0:
256,192,101250,1,8,0:0:0:0:
256,192,101363,1,0,0:0:0:0:
256,192,101476,1,8,0:0:0:0:
256,192,101702,1,4,0:0:0:0:
256,192,102153,1,8,0:0:0:0:
256,192,102378,1,0,0:0:0:0:
256,192,102491,1,8,0:0:0:0:
256,192,102604,1,0,0:0:0:0:
256,192,102829,1,0,0:0:0:0:
256,192,103055,1,8,0:0:0:0:
256,192,103281,1,0,0:0:0:0:
256,192,103393,1,0,0:0:0:0:
256,192,103506,1,8,0:0:0:0:
256,192,103732,1,0,0:0:0:0:
256,192,103957,1,8,0:0:0:0:
256,192,104183,1,8,0:0:0:0:
256,192,104296,1,8,0:0:0:0:
256,192,104408,1,0,0:0:0:0:
256,192,104634,1,0,0:0:0:0:
256,192,104860,1,8,0:0:0:0:
256,192,105085,1,8,0:0:0:0:
256,192,105311,1,0,0:0:0:0:
256,192,105536,1,0,0:0:0:0:
256,192,105762,1,8,0:0:0:0:
256,192,105987,1,8,0:0:0:0:
256,192,106100,1,8,0:0:0:0:
256,192,106213,1,0,0:0:0:0:
256,192,106438,1,0,0:0:0:0:
256,192,106664,1,8,0:0:0:0:
256,192,106890,1,0,0:0:0:0:
256,192,107115,1,4,0:0:0:0:
256,192,108017,1,0,0:0:0:0:
256,192,108130,1,0,0:0:0:0:
256,192,108356,1,0,0:0:0:0:
256,192,108469,1,0,0:0:0:0:
256,192,108694,1,0,0:0:0:0:
256,192,108920,1,12,0:0:0:0:
256,192,109371,1,8,0:0:0:0:
256,192,109596,1,8,0:0:0:0:
256,192,109709,1,8,0:0:0:0:
256,192,109822,1,0,0:0:0:0:
256,192,110047,1,0,0:0:0:0:
256,192,110273,1,8,0:0:0:0:
256,192,110499,1,0,0:0:0:0:
256,192,110611,1,0,0:0:0:0:
256,192,110724,1,8,0:0:0:0:
256,192,110950,1,0,0:0:0:0:
256,192,111175,1,8,0:0:0:0:
256,192,111401,1,8,0:0:0:0:
256,192,111514,1,8,0:0:0:0:
256,192,111626,1,0,0:0:0:0:
256,192,111852,1,0,0:0:0:0:
256,192,112078,1,8,0:0:0:0:
256,192,112191,1,8,0:0:0:0:
256,192,112303,1,0,0:0:0:0:
256,192,112529,1,0,0:0:0:0:
256,192,112754,1,0,0:0:0:0:
256,192,112980,1,8,0:0:0:0:
256,192,113205,1,0,0:0:0:0:
256,192,113318,1,8,0:0:0:0:
256,192,113431,1,0,0:0:0:0:
256,192,113657,1,0,0:0:0:0:
256,192,113882,1,8,0:0:0:0:
256,192,114108,1,8,0:0:0:0:
256,192,114333,5,0,0:0:0:0:
256,192,115010,1,0,0:0:0:0:
256,192,115461,1,8,0:0:0:0:
256,192,115574,1,0,0:0:0:0:
256,192,115687,1,8,0:0:0:0:
256,192,115912,1,0,0:0:0:0:
256,192,116138,5,4,0:0:0:0:
256,192,116589,1,8,0:0:0:0:
256,192,116814,1,0,0:0:0:0:
256,192,116927,1,0,0:0:0:0:
256,192,117040,1,8,0:0:0:0:
256,192,117266,1,0,0:0:0:0:
256,192,117491,1,8,0:0:0:0:
256,192,117717,1,0,0:0:0:0:
256,192,117942,1,12,0:0:0:0:
256,192,118393,1,8,0:0:0:0:
256,192,118619,1,0,0:0:0:0:
256,192,118732,1,0,0:0:0:0:
256,192,118844,1,8,0:0:0:0:
256,192,119070,1,0,0:0:0:0:
256,192,119183,1,0,0:0:0:0:
256,192,119296,1,0,0:0:0:0:
256,192,119521,1,0,0:0:0:0:
256,192,119747,1,4,0:0:0:0:
256,192,119972,1,0,0:0:0:0:
256,192,120198,1,8,0:0:0:0:
256,192,120423,1,0,0:0:0:0:
256,192,120649,1,12,0:0:0:0:
256,192,120875,1,8,0:0:0:0:
256,192,121100,1,8,0:0:0:0:
256,192,121326,1,8,0:0:0:0:
256,192,121551,1,4,0:0:0:0:
256,192,122002,1,12,0:0:0:0:
256,192,122453,1,4,0:0:0:0:
256,192,122679,1,0,0:0:0:0:
256,192,122792,1,0,0:0:0:0:
256,192,122905,1,8,0:0:0:0:
256,192,123130,1,8,0:0:0:0:
256,192,123356,1,4,0:0:0:0:
256,192,123581,1,8,0:0:0:0:
256,192,123807,1,0,0:0:0:0:
256,192,124032,1,8,0:0:0:0:
256,192,124145,1,8,0:0:0:0:
256,192,124258,1,0,0:0:0:0:
256,192,124484,1,0,0:0:0:0:
256,192,124709,1,0,0:0:0:0:
256,192,124935,1,8,0:0:0:0:
256,192,125047,1,0,0:0:0:0:
256,192,125160,1,8,0:0:0:0:
256,192,125386,1,0,0:0:0:0:
256,192,125611,1,8,0:0:0:0:
256,192,125837,1,0,0:0:0:0:
256,192,126063,1,8,0:0:0:0:
256,192,126288,1,0,0:0:0:0:
256,192,126401,1,0,0:0:0:0:
256,192,126514,1,8,0:0:0:0:
256,192,126739,1,8,0:0:0:0:
256,192,126965,1,0,0:0:0:0:
256,192,127416,1,0,0:0:0:0:
256,192,127641,1,8,0:0:0:0:
256,192,127754,1,8,0:0:0:0:
256,192,127867,1,0,0:0:0:0:
256,192,128093,1,0,0:0:0:0:
256,192,128318,1,8,0:0:0:0:
256,192,128544,1,0,0:0:0:0:
256,192,128657,1,0,0:0:0:0:
256,192,128769,1,8,0:0:0:0:
256,192,128995,1,0,0:0:0:0:
256,192,129220,1,0,0:0:0:0:
256,192,129446,1,0,0:0:0:0:
256,192,129672,1,8,0:0:0:0:
256,192,129784,1,8,0:0:0:0:
256,192,129897,1,0,0:0:0:0:
256,192,130010,1,0,0:0:0:0:
256,192,130123,1,8,0:0:0:0:
256,192,130348,1,0,0:0:0:0:
256,192,130574,1,8,0:0:0:0:
256,192,131025,1,8,0:0:0:0:
256,192,131250,1,0,0:0:0:0:
256,192,131363,1,0,0:0:0:0:
256,192,131476,1,0,0:0:0:0:
256,192,131702,1,0,0:0:0:0:
256,192,131927,1,8,0:0:0:0:
256,192,132153,1,0,0:0:0:0:
256,192,132266,1,0,0:0:0:0:
256,192,132378,1,8,0:0:0:0:
256,192,132604,1,0,0:0:0:0:
256,192,132829,1,8,0:0:0:0:
256,192,133055,1,0,0:0:0:0:
256,192,133168,1,0,0:0:0:0:
256,192,133281,1,0,0:0:0:0:
256,192,133506,1,8,0:0:0:0:
256,192,133619,1,0,0:0:0:0:
256,192,133732,1,8,0:0:0:0:
256,192,133845,1,8,0:0:0:0:
256,192,133957,1,0,0:0:0:0:
256,192,134183,1,8,0:0:0:0:
256,192,134634,1,8,0:0:0:0:
256,192,134860,1,0,0:0:0:0:
256,192,134972,1,0,0:0:0:0:
256,192,135085,1,8,0:0:0:0:
256,192,135311,1,0,0:0:0:0:
256,192,135536,1,8,0:0:0:0:
256,192,135987,1,0,0:0:0:0:
256,192,136213,1,0,0:0:0:0:
256,192,136326,1,0,0:0:0:0:
256,192,136438,1,8,0:0:0:0:
256,192,136664,1,0,0:0:0:0:
256,192,136890,1,0,0:0:0:0:
256,192,137115,1,8,0:0:0:0:
256,192,137228,1,0,0:0:0:0:
256,192,137341,1,8,0:0:0:0:
256,192,137453,1,8,0:0:0:0:
256,192,137566,1,0,0:0:0:0:
256,192,137679,1,8,0:0:0:0:
256,192,137792,1,0,0:0:0:0:
256,192,138243,1,8,0:0:0:0:
256,192,138469,1,8,0:0:0:0:
256,192,138694,1,0,0:0:0:0:
256,192,138920,1,0,0:0:0:0:
256,192,139032,1,0,0:0:0:0:
256,192,139145,1,8,0:0:0:0:
256,192,139371,1,8,0:0:0:0:
256,192,139596,1,0,0:0:0:0:
256,192,140047,1,8,0:0:0:0:
256,192,140499,1,0,0:0:0:0:
256,192,140724,1,0,0:0:0:0:
256,192,140837,1,0,0:0:0:0:
256,192,140950,1,8,0:0:0:0:
256,192,141175,1,0,0:0:0:0:
256,192,141401,1,0,0:0:0:0:
256,192,141852,1,8,0:0:0:0:
256,192,142078,1,0,0:0:0:0:
256,192,142303,1,8,0:0:0:0:
256,192,142529,1,8,0:0:0:0:
256,192,142754,1,0,0:0:0:0:
256,192,142980,1,8,0:0:0:0:
256,192,143205,5,4,0:0:0:0:
256,192,143431,1,8,0:0:0:0:
256,192,143657,1,4,0:0:0:0:
256,192,143882,1,8,0:0:0:0:
256,192,144108,1,12,0:0:0:0:
256,192,144333,1,0,0:0:0:0:
256,192,144446,1,0,0:0:0:0:
256,192,144559,1,8,0:0:0:0:
256,192,144672,1,8,0:0:0:0:
256,192,144784,1,8,0:0:0:0:
256,192,145010,5,4,0:0:0:0:
256,192,145461,1,8,0:0:0:0:
256,192,145687,1,0,0:0:0:0:
256,192,145799,1,8,0:0:0:0:
256,192,145912,1,0,0:0:0:0:
256,192,146138,1,0,0:0:0:0:
256,192,146363,1,8,0:0:0:0:
256,192,146589,1,0,0:0:0:0:
256,192,146702,1,0,0:0:0:0:
256,192,146814,1,8,0:0:0:0:
256,192,147040,1,0,0:0:0:0:
256,192,147266,1,8,0:0:0:0:
256,192,147491,1,8,0:0:0:0:
256,192,147604,1,8,0:0:0:0:
256,192,147717,1,0,0:0:0:0:
256,192,147942,1,0,0:0:0:0:
256,192,148055,1,0,0:0:0:0:
256,192,148168,1,8,0:0:0:0:
256,192,148393,1,8,0:0:0:0:
256,192,148619,1,0,0:0:0:0:
256,192,148844,1,0,0:0:0:0:
256,192,149070,1,8,0:0:0:0:
256,192,149296,1,0,0:0:0:0:
256,192,149408,1,0,0:0:0:0:
256,192,149521,1,0,0:0:0:0:
256,192,149747,1,0,0:0:0:0:
256,192,149972,1,8,0:0:0:0:
256,192,150198,1,0,0:0:0:0:
256,192,150423,5,4,0:0:0:0:
256,192,151326,1,0,0:0:0:0:
256,192,151438,1,0,0:0:0:0:
256,192,151664,1,0,0:0:0:0:
256,192,151777,1,0,0:0:0:0:
256,192,152002,1,0,0:0:0:0:
256,192,152228,5,12,0:0:0:0:
256,192,152679,1,8,0:0:0:0:
256,192,152905,1,0,0:0:0:0:
256,192,153017,1,8,0:0:0:0:
256,192,153130,1,0,0:0:0:0:
256,192,153356,1,0,0:0:0:0:
256,192,153581,1,8,0:0:0:0:
256,192,153807,1,8,0:0:0:0:
256,192,153920,1,8,0:0:0:0:
256,192,154032,1,0,0:0:0:0:
256,192,154258,1,0,0:0:0:0:
256,192,154484,1,8,0:0:0:0:
256,192,154709,1,8,0:0:0:0:
256,192,154822,1,8,0:0:0:0:
256,192,154935,1,0,0:0:0:0:
256,192,155160,1,0,0:0:0:0:
256,192,155273,1,0,0:0:0:0:
256,192,155386,1,8,0:0:0:0:
256,192,155611,1,8,0:0:0:0:
256,192,155837,1,0,0:0:0:0:
256,192,156063,1,0,0:0:0:0:
256,192,156288,1,8,0:0:0:0:
256,192,156514,1,8,0:0:0:0:
256,192,156626,1,8,0:0:0:0:
256,192,156739,1,0,0:0:0:0:
256,192,156965,1,0,0:0:0:0:
256,192,157190,1,8,0:0:0:0:
256,192,157416,1,8,0:0:0:0:
256,192,157641,5,0,0:0:0:0:
256,192,158318,1,0,0:0:0:0:
256,192,158769,1,8,0:0:0:0:
256,192,158882,1,0,0:0:0:0:
256,192,158995,1,8,0:0:0:0:
256,192,159220,1,0,0:0:0:0:
256,192,159446,5,4,0:0:0:0:
256,192,159897,1,0,0:0:0:0:
256,192,160348,1,0,0:0:0:0:
256,192,160574,1,0,0:0:0:0:
256,192,160799,1,0,0:0:0:0:
256,192,161250,1,12,0:0:0:0:
256,192,161702,1,0,0:0:0:0:
256,192,162153,1,0,0:0:0:0:
256,192,162378,1,0,0:0:0:0:
256,192,162491,1,0,0:0:0:0:
256,192,162604,1,0,0:0:0:0:
256,192,162829,1,0,0:0:0:0:
256,192,163055,1,4,0:0:0:0:
256,192,163506,1,0,0:0:0:0:
256,192,163957,1,12,0:0:0:0:
256,192,164408,1,0,0:0:0:0:
256,192,164860,1,4,0:0:0:0:
256,192,165311,1,12,0:0:0:0:
256,192,165762,1,4,0:0:0:0:
256,192,165987,1,0,0:0:0:0:
256,192,166100,1,0,0:0:0:0:
256,192,166213,1,0,0:0:0:0:
256,192,166438,1,0,0:0:0:0:
256,192,166664,1,4,0:0:0:0:
256,192,167115,1,8,0:0:0:0:
256,192,167341,1,8,0:0:0:0:
256,192,167453,1,8,0:0:0:0:
256,192,167566,1,0,0:0:0:0:
256,192,167792,1,0,0:0:0:0:
256,192,168017,1,8,0:0:0:0:
256,192,168243,1,0,0:0:0:0:
256,192,168356,1,0,0:0:0:0:
256,192,168469,1,8,0:0:0:0:
256,192,168694,1,0,0:0:0:0:
256,192,168920,1,8,0:0:0:0:
256,192,169145,1,8,0:0:0:0:
256,192,169258,1,8,0:0:0:0:
256,192,169371,1,0,0:0:0:0:
256,192,169596,1,8,0:0:0:0:
256,192,169822,1,8,0:0:0:0:
256,192,170047,1,0,0:0:0:0:
256,192,170160,1,0,0:0:0:0:
256,192,170273,1,8,0:0:0:0:
256,192,170499,1,0,0:0:0:0:
256,192,170724,1,8,0:0:0:0:
256,192,170950,1,8,0:0:0:0:
256,192,171063,1,8,0:0:0:0:
256,192,171175,1,0,0:0:0:0:
256,192,171401,1,0,0:0:0:0:
256,192,171626,1,8,0:0:0:0:
256,192,171852,1,0,0:0:0:0:
256,192,171965,1,0,0:0:0:0:
256,192,172078,1,8,0:0:0:0:
256,192,172303,1,0,0:0:0:0:
256,192,172529,1,8,0:0:0:0:
256,192,172754,1,8,0:0:0:0:
256,192,172867,1,8,0:0:0:0:
256,192,172980,1,0,0:0:0:0:
256,192,173205,1,0,0:0:0:0:
256,192,173318,1,0,0:0:0:0:
256,192,173431,1,8,0:0:0:0:
256,192,173657,1,0,0:0:0:0:
256,192,173769,1,0,0:0:0:0:
256,192,173882,1,8,0:0:0:0:
256,192,174108,1,0,0:0:0:0:
256,192,174333,1,8,0:0:0:0:
256,192,174559,1,8,0:0:0:0:
256,192,174672,1,8,0:0:0:0:
256,192,174784,1,0,0:0:0:0:
256,192,175010,1,0,0:0:0:0:
256,192,175235,1,8,0:0:0:0:
256,192,175461,1,0,0:0:0:0:
256,192,175574,1,0,0:0:0:0:
256,192,175687,1,8,0:0:0:0:
256,192,175912,1,0,0:0:0:0:
256,192,176138,1,8,0:0:0:0:
256,192,176363,1,8,0:0:0:0:
256,192,176476,1,8,0:0:0:0:
256,192,176589,1,0,0:0:0:0:
256,192,176814,1,0,0:0:0:0:
256,192,177040,1,8,0:0:0:0:
256,192,177266,1,0,0:0:0:0:
256,192,177378,1,0,0:0:0:0:
256,192,177491,1,8,0:0:0:0:
256,192,177717,1,0,0:0:0:0:
256,192,177942,1,8,0:0:0:0:
256,192,178168,1,8,0:0:0:0:
256,192,178281,1,8,0:0:0:0:
256,192,178393,1,0,0:0:0:0:
256,192,178619,1,0,0:0:0:0:
256,192,178844,1,8,0:0:0:0:
256,192,179070,1,0,0:0:0:0:
256,192,179183,1,0,0:0:0:0:
256,192,179296,1,8,0:0:0:0:
256,192,179521,1,0,0:0:0:0:
256,192,179634,1,0,0:0:0:0:
256,192,179747,1,8,0:0:0:0:
256,192,179972,1,8,0:0:0:0:
256,192,180085,1,8,0:0:0:0:
256,192,180198,1,0,0:0:0:0:
256,192,180311,1,0,0:0:0:0:
256,192,180423,1,0,0:0:0:0:
256,192,180536,1,0,0:0:0:0:
256,192,180649,1,8,0:0:0:0:
256,192,180875,1,0,0:0:0:0:
256,192,181100,12,0,183541,0:0:0:0:
