osu file format v13

[General]
AudioFilename: Ano Mori de Matteru.mp3
AudioLeadIn: 500
PreviewTime: 36630
Countdown: 0
SampleSet: Soft
StackLeniency: 0.7
Mode: 0
LetterboxInBreaks: 0
WidescreenStoryboard: 1

[Editor]
DistanceSpacing: 1
BeatDivisor: 4
GridSize: 8
TimelineZoom: 1

[Metadata]
Title:Ano Mori de Matteru (TV Size)
TitleUnicode:あの森で待ってる (TVサイズ)
Artist:Bonjour Suzuki
ArtistUnicode:ボンジュール鈴木
Creator:wcx19911123
Version:Hard
Source:ユリ熊嵐
Tags:Yuri Kuma Arashi Lily Bear Storm opening Momochikun
BeatmapID:587391
BeatmapSetID:255701

[Difficulty]
HPDrainRate:6
CircleSize:4
OverallDifficulty:6.5
ApproachRate:8
SliderMultiplier:2.88
SliderTickRate:2

[Events]
//Background and Video events
0,0,"bg.jpg",0,0
//Break Periods
//Storyboard Layer 0 (Background)
//Storyboard Layer 1 (Fail)
//Storyboard Layer 2 (Pass)
//Storyboard Layer 3 (Foreground)
//Storyboard Sound Samples

[TimingPoints]
1346,681.818181818182,4,2,1,40,1,0
1346,-133.333333333333,4,2,1,40,0,0
5436,-133.333333333333,4,2,1,50,0,0
5607,-200,4,2,1,50,0,0
6119,681.818181818182,4,2,1,55,1,0
27937,-100,4,2,2,50,0,0
28107,-100,4,2,1,50,0,0
30664,-100,4,2,2,50,0,0
30834,-100,4,2,1,50,0,0
33391,-100,4,2,2,50,0,0
34073,-100,4,2,1,50,0,0
36119,-100,4,2,1,40,0,0
37141,-100,4,2,1,5,0,0
37312,-100,4,2,1,30,0,0
37482,-100,4,2,1,40,0,0
37823,-100,4,2,1,5,0,0
37994,-100,4,2,1,30,0,0
38164,-100,4,2,1,40,0,0
38505,-100,4,2,1,5,0,0
38846,-100,4,2,1,50,0,0
38931,-100,4,2,1,20,0,0
39187,-100,4,2,1,30,0,0
39528,-100,4,2,1,40,0,0
39869,-100,4,2,1,50,0,0
40210,681.818181818182,4,2,2,60,1,1
40210,-90.0900900900901,4,2,2,60,0,1
40550,-90.0900900900901,4,2,1,60,0,1
51630,-90.0900900900901,4,2,1,40,0,1
51800,-90.0900900900901,4,2,1,60,0,1
62028,-90.0900900900901,4,2,2,60,0,1
62369,-90.0900900900901,4,2,1,60,0,1
72937,-90.0900900900901,4,2,1,50,0,0
78391,-100,4,2,1,40,0,0
86573,-200,4,2,1,40,0,0
88619,-200,4,2,1,5,0,0

[Colours]
Combo1 : 85,128,255
Combo2 : 255,70,186
Combo3 : 0,249,105

[HitObjects]
104,144,1346,6,0,P|144:128|232:136,1,108.000004119873,2|0,0:0|0:0,0:0:0:0:
328,184,2027,2,0,P|384:192|440:176,1,108.000004119873,2|0,0:0|0:0,0:0:0:0:
504,72,2709,1,2,0:0:0:0:
384,24,3050,1,0,0:0:0:0:
272,88,3391,6,0,P|256:144|272:208,1,108.000004119873,2|0,0:0|0:0,0:0:0:0:
264,320,4073,2,0,P|208:368|152:368,1,108.000004119873,2|0,0:0|0:0,0:0:0:0:
56,328,4755,2,0,P|96:280|96:216,1,108.000004119873,2|0,0:0|0:0,0:0:0:0:
88,104,5436,5,4,0:1:0:0:
88,104,5607,2,0,L|176:96,1,72,0|0,0:0|0:0,0:0:0:0:
224,160,6119,6,0,P|248:176|296:184,1,72,0|0,1:0|0:0,0:0:0:0:
376,160,6459,2,0,L|400:88,1,72,0|4,0:0|0:0,0:0:0:0:
480,120,6800,2,0,L|456:192,1,72,8|0,0:0|0:0,0:0:0:0:
392,248,7141,1,0,1:0:0:0:
304,264,7312,2,0,P|272:264|224:240,1,72,0|0,0:0|0:0,0:0:0:0:
112,160,7653,6,0,P|144:208|144:304,1,144,8|4,0:0|0:0,0:0:0:0:
216,176,8164,2,0,P|240:128|272:112,1,72,8|8,0:0|0:0,0:0:0:0:
336,96,8505,1,0,0:0:0:0:
488,224,8846,5,0,1:0:0:0:
488,224,9016,1,0,0:0:0:0:
472,312,9187,2,0,P|456:344|424:368,1,72,0|4,0:0|0:0,0:0:0:0:
392,288,9528,2,0,L|312:272,1,72,8|0,0:0|0:0,0:0:0:0:
236,264,9869,2,0,P|204:280|180:312,1,72,0|4,1:0|0:0,0:0:0:0:
92,356,10209,5,0,0:0:0:0:
104,272,10380,2,0,L|120:120,1,144,8|4,0:0|0:0,0:0:0:0:
200,176,10891,1,8,0:0:0:0:
212,92,11062,2,0,L|220:20,1,72,8|0,0:0|0:0,0:0:0:0:
440,88,11573,6,0,P|456:128|448:176,1,72,0|0,1:0|0:0,0:0:0:0:
416,232,11914,1,0,0:0:0:0:
336,200,12084,2,0,P|296:200|240:232,1,72,4|8,0:0|0:0,0:0:0:0:
224,288,12425,1,0,0:0:0:0:
152,336,12596,2,0,P|96:344|72:336,1,72,0|4,1:0|0:0,0:0:0:0:
16,280,12937,6,0,L|32:208,1,72,0|8,0:0|0:0,0:0:0:0:
88,144,13278,1,0,0:0:0:0:
168,176,13448,2,0,L|152:248,1,72,4|8,0:0|0:0,0:0:0:0:
280,80,13959,2,0,L|248:224,1,144,0|0,0:0|1:0,0:0:0:0:
264,304,14471,5,0,0:0:0:0:
336,352,14641,2,0,P|376:344|400:320,1,72,0|4,0:0|0:0,0:0:0:0:
464,256,14982,2,0,P|424:240|400:208,1,72,8|0,0:0|0:0,0:0:0:0:
392,136,15323,1,0,1:0:0:0:
320,224,15494,6,0,P|272:240|176:216,1,144,4|8,0:0|0:0,0:0:0:0:
104,256,16005,2,0,P|56:224|48:200,1,72,0|4,0:0|0:0,0:0:0:0:
40,112,16346,1,8,0:0:0:0:
128,120,16516,1,8,0:0:0:0:
216,128,16687,1,0,0:0:0:0:
416,248,17028,5,0,1:0:0:0:
416,16,17369,2,0,P|384:56|376:96,1,72,0|4,0:0|0:0,0:0:0:0:
432,144,17709,2,0,P|464:184|464:224,1,72,8|0,0:0|0:0,0:0:0:0:
432,280,18050,2,0,P|400:304|352:304,1,72,0|4,1:0|0:0,0:0:0:0:
288,280,18391,5,0,0:0:0:0:
256,200,18562,1,8,0:0:0:0:
192,136,18732,2,0,P|160:120|112:120,1,72,0|4,0:0|0:0,0:0:0:0:
48,160,19073,1,8,0:0:0:0:
40,248,19244,1,0,0:0:0:0:
120,208,19414,2,0,P|168:208|200:224,2,72,0|0|0,0:0|0:0|1:0,0:0:0:0:
144,304,19925,5,0,0:0:0:0:
224,336,20096,2,0,P|264:336|304:320,1,72,0|4,0:0|0:0,0:0:0:0:
208,248,20437,1,8,0:0:0:0:
296,240,20607,2,0,P|336:224|360:200,1,72,0|0,0:0|1:0,0:0:0:0:
248,168,20948,1,4,0:0:0:0:
328,128,21119,6,0,P|360:96|368:56,1,72,0|8,0:0|0:0,0:0:0:0:
292,28,21459,2,0,P|260:60|252:100,1,72,0|4,0:0|0:0,0:0:0:0:
368,192,21800,2,0,P|416:152|444:72,1,144,8|0,0:0|0:0,0:0:0:0:
372,28,22312,1,0,0:0:0:0:
336,104,22482,6,0,P|280:136|256:136,1,72,0|0,1:0|0:0,0:0:0:0:
188,136,22823,2,0,P|140:128|116:112,1,72,0|4,0:0|0:0,0:0:0:0:
56,56,23164,1,8,0:0:0:0:
64,168,23334,2,0,L|72:320,1,144,0|0,0:0|0:0,0:0:0:0:
152,352,23846,6,0,P|216:344|240:320,1,72,0|8,0:0|0:0,0:0:0:0:
272,272,24187,1,0,0:0:0:0:
352,208,24357,2,0,P|288:192|240:128,1,144,4|0,0:0|0:0,0:0:0:0:
240,44,24869,2,0,P|264:20|312:12,1,72,0|0,0:0|0:0,0:0:0:0:
384,24,25209,5,0,1:0:0:0:
448,80,25380,1,0,0:0:0:0:
480,160,25550,2,0,P|488:208|480:240,1,72,0|4,0:0|0:0,0:0:0:0:
424,296,25891,2,0,L|336:288,1,72,8|0,0:0|0:0,0:0:0:0:
264,280,26232,1,0,1:0:0:0:
176,264,26403,6,0,L|88:256,1,72,4|0,0:0|0:0,0:0:0:0:
32,304,26744,2,0,L|24:368,2,36,8|0|0,0:0|0:0|0:0,0:0:0:0:
32,216,27084,1,4,0:0:0:0:
104,168,27255,2,0,P|128:128|128:96,1,72,8|8,0:0|0:0,0:0:0:0:
128,88,27937,6,0,P|160:128|208:136,1,72,4|0,0:0|0:0,0:0:0:0:
264,152,28278,2,0,P|312:152|344:136,1,72,0|4,0:0|0:0,0:0:0:0:
408,80,28619,2,0,L|416:152,1,72,8|0,0:0|0:0,0:0:0:0:
432,240,28959,1,0,0:0:0:0:
432,240,29130,1,0,0:0:0:0:
352,208,29300,6,0,P|296:200|208:232,1,144,0|0,0:0|0:0,0:0:0:0:
232,352,29812,2,0,P|272:360|312:352,2,72,4|8|0,0:0|0:0|0:0,0:0:0:0:
168,296,30323,1,0,0:0:0:0:
8,168,30664,6,0,P|48:160|88:120,1,72,4|0,0:0|0:0,0:0:0:0:
128,72,31005,2,0,P|168:48|216:48,1,72,0|4,0:0|0:0,0:0:0:0:
272,80,31346,2,0,L|320:136,1,72,8|0,0:0|0:0,0:0:0:0:
376,200,31687,1,0,0:0:0:0:
400,120,31857,2,0,P|432:96|488:96,1,72,4|0,0:0|0:0,0:0:0:0:
460,176,32198,5,0,0:0:0:0:
440,260,32369,2,0,P|400:284|360:284,1,72,0|4,0:0|0:0,0:0:0:0:
288,248,32709,2,0,P|208:240|144:280,2,144,8|0|4,0:0|0:0|0:0,0:0:0:0:
56,352,34073,6,0,L|40:304,2,48,8|0|0,0:0|0:0|0:0,0:0:0:0:
80,288,34414,2,0,L|96:240,2,48,0|0|0,0:0|0:0|0:0,0:0:0:0:
48,232,34755,2,0,P|32:184|40:136,1,72,0|8,0:0|0:0,0:0:0:0:
192,56,35266,2,0,P|208:104|200:152,1,72,4|8,0:0|0:0,0:0:0:0:
80,288,35778,1,4,0:0:0:0:
256,192,36119,1,0,0:0:0:0:
264,208,36800,6,0,P|296:240|464:248,1,216,0|0,0:0|0:0,0:0:0:0:
496,184,37482,2,0,P|424:168|336:56,1,216,0|0,0:0|0:0,0:0:0:0:
272,32,38164,2,0,B|160:16|112:112|112:112|88:116|80:136|80:136|88:160|88:160|76:184,1,288,0|0,0:0|0:0,0:0:0:0:
256,192,39016,12,4,40209,0:0:0:0:
208,128,40550,6,0,P|168:136|128:176,1,79.9200019511719,0|0,0:0|0:0,0:0:0:0:
104,248,40891,2,0,L|128:328,1,79.9200019511719,8|0,0:0|0:0,0:0:0:0:
216,360,41232,1,0,1:0:0:0:
272,280,41403,2,0,L|248:200,2,79.9200019511719,4|0|8,0:0|0:0|0:0,0:0:0:0:
360,312,41914,5,0,0:0:0:0:
448,272,42085,2,0,P|472:240|472:176,1,79.9200019511719,4|8,0:0|0:0,0:0:0:0:
448,112,42425,1,0,0:0:0:0:
368,56,42596,2,0,P|304:40|208:72,1,159.840003902344,0|0,0:0|1:0,0:0:0:0:
16,168,43278,6,0,P|64:200|80:240,1,79.9200019511719,0|0,0:0|0:0,0:0:0:0:
120,304,43619,2,0,P|160:320|208:312,1,79.9200019511719,8|0,0:0|0:0,0:0:0:0:
280,272,43960,1,0,1:0:0:0:
304,176,44130,2,0,L|280:96,1,79.9200019511719,4|0,0:0|0:0,0:0:0:0:
344,24,44471,6,0,L|384:32,2,39.960000975586,8|0|0,0:0|0:0|0:0,0:0:0:0:
248,8,44812,1,4,0:0:0:0:
192,88,44982,2,0,P|144:112|104:112,1,79.9200019511719,8|0,0:0|0:0,0:0:0:0:
24,208,45323,2,0,P|88:192|192:224,1,159.840003902344,0|0,0:0|1:0,0:0:0:0:
368,352,46005,6,0,P|416:344|448:320,1,79.9200019511719,0|4,0:0|0:0,0:0:0:0:
464,232,46346,2,0,L|440:144,1,79.9200019511719,8|0,0:0|0:0,0:0:0:0:
384,80,46687,1,0,1:0:0:0:
288,80,46857,1,0,0:0:0:0:
232,160,47028,6,0,P|232:200|256:240,1,79.9200019511719,0|8,0:0|0:0,0:0:0:0:
384,192,47369,2,0,P|336:176|296:184,1,79.9200019511719,0|4,0:0|0:0,0:0:0:0:
248,312,47710,2,0,B|304:312|324:256|324:256|344:248|376:280,1,159.840003902344,8|0,0:0|0:0,0:0:0:0:
152,256,48391,6,0,P|96:272|56:336,2,119.880002926758,0|0|0,1:0|0:0|0:0,0:0:0:0:
248,280,49073,1,8,0:0:0:0:
96,120,49414,1,0,1:0:0:0:
192,136,49585,1,4,0:0:0:0:
256,64,49755,5,0,0:0:0:0:
160,48,49925,2,0,L|112:40,2,39.960000975586,8|0|0,0:0|0:0|0:0,0:0:0:0:
256,64,50266,1,4,0:0:0:0:
336,120,50437,2,0,P|368:168|368:272,1,159.840003902344,8|0,0:0|0:0,0:0:0:0:
144,352,51119,5,0,1:0:0:0:
40,136,51460,2,0,P|72:120|128:128,1,79.9200019511719,0|4,0:0|0:0,0:0:0:0:
184,192,51800,2,0,P|216:216|272:216,1,79.9200019511719,8|0,0:0|0:0,0:0:0:0:
344,184,52141,2,0,L|384:112,1,79.9200019511719,0|0,1:0|0:0,0:0:0:0:
464,64,52482,5,4,0:0:0:0:
472,160,52653,2,0,L|432:232,1,79.9200019511719,8|0,0:0|0:0,0:0:0:0:
352,280,52994,1,4,0:0:0:0:
264,240,53164,2,0,P|216:240|168:272,1,79.9200019511719,8|0,0:0|0:0,0:0:0:0:
88,352,53505,2,0,P|184:360|248:328,1,159.840003902344,0|0,0:0|1:0,0:0:0:0:
328,128,54187,6,0,P|304:72|280:56,1,79.9200019511719,0|4,0:0|0:0,0:0:0:0:
200,32,54528,1,8,0:0:0:0:
112,72,54698,1,0,0:0:0:0:
192,128,54869,2,0,P|208:160|208:208,1,79.9200019511719,0|0,1:0|0:0,0:0:0:0:
160,288,55210,5,0,0:0:0:0:
72,328,55380,2,0,L|32:328,2,39.960000975586,8|0|0,0:0|0:0|0:0,0:0:0:0:
192,376,55721,2,0,P|232:368|264:344,2,79.9200019511719,4|8|0,0:0|0:0|0:0,0:0:0:0:
64,320,56232,2,0,B|32:248|104:240|64:168,1,159.840003902344,0|0,0:0|1:0,0:0:0:0:
256,48,56914,5,0,0:0:0:0:
320,120,57085,1,4,0:0:0:0:
228,140,57255,1,8,0:0:0:0:
448,72,57596,2,0,P|488:88|520:128,1,79.9200019511719,0|0,1:0|0:0,0:0:0:0:
512,256,57937,6,0,P|472:296|368:320,1,159.840003902344,4|0,0:0|0:0,0:0:0:0:
280,304,58448,1,0,0:0:0:0:
208,240,58619,1,8,0:0:0:0:
16,160,58960,2,0,P|56:160|96:136,1,79.9200019511719,0|0,0:0|0:0,0:0:0:0:
224,32,59300,6,0,B|160:32|136:80|136:80|160:100|164:128,1,159.840003902344,0|0,1:0|0:0,0:0:0:0:
148,220,59812,1,4,0:0:0:0:
72,280,59982,1,8,0:0:0:0:
280,352,60323,2,0,P|328:328|344:304,1,79.9200019511719,0|0,1:0|0:0,0:0:0:0:
368,216,60664,5,4,0:0:0:0:
352,120,60835,2,0,L|344:80,2,39.960000975586,8|0|0,0:0|0:0|0:0,0:0:0:0:
368,216,61175,1,4,0:0:0:0:
264,152,61346,2,0,P|208:136|160:152,1,79.9200019511719,8|0,0:0|0:0,0:0:0:0:
128,216,61687,2,0,P|184:232|232:216,1,79.9200019511719,0|0,0:0|0:0,0:0:0:0:
320,96,62028,6,0,P|256:64|144:72,1,159.840003902344,4|0,0:0|0:0,0:0:0:0:
88,112,62539,1,0,0:0:0:0:
160,176,62710,2,0,P|176:216|168:264,1,79.9200019511719,8|0,0:0|0:0,0:0:0:0:
112,328,63050,2,0,P|80:288|80:240,1,79.9200019511719,0|4,1:0|0:0,0:0:0:0:
76,164,63391,5,0,0:0:0:0:
160,112,63562,1,8,0:0:0:0:
296,296,63903,1,4,0:0:0:0:
392,280,64073,2,0,L|488:264,1,79.9200019511719,8|0,0:0|0:0,0:0:0:0:
504,176,64414,2,0,P|488:128|448:96,1,79.9200019511719,0|0,0:0|0:0,0:0:0:0:
344,16,64755,6,0,P|320:64|336:176,1,159.840003902344,0|0,1:0|0:0,0:0:0:0:
400,232,65266,1,0,0:0:0:0:
328,296,65437,2,0,P|264:320|160:296,1,159.840003902344,8|0,0:0|1:0,0:0:0:0:
96,248,65948,1,4,0:0:0:0:
160,176,66119,5,0,0:0:0:0:
120,88,66289,2,0,L|96:40,2,39.960000975586,8|0|0,0:0|0:0|0:0,0:0:0:0:
160,176,66630,1,4,0:0:0:0:
240,232,66800,2,0,P|288:240|400:208,1,159.840003902344,8|0,0:0|0:0,0:0:0:0:
440,128,67312,1,0,0:0:0:0:
464,272,67482,6,0,P|440:320|400:344,1,79.9200019511719,0|0,1:0|0:0,0:0:0:0:
328,360,67823,2,0,L|240:344,1,79.9200019511719,0|4,0:0|0:0,0:0:0:0:
120,304,68164,2,0,P|160:296|192:272,1,79.9200019511719,8|0,0:0|0:0,0:0:0:0:
240,192,68505,1,0,1:0:0:0:
232,96,68675,1,0,0:0:0:0:
136,72,68846,6,0,L|144:160,1,79.9200019511719,4|8,0:0|0:0,0:0:0:0:
152,248,69187,1,0,0:0:0:0:
64,288,69357,2,0,L|72:376,1,79.9200019511719,4|8,0:0|0:0,0:0:0:0:
336,328,69869,1,0,0:0:0:0:
264,264,70039,1,0,0:0:0:0:
248,168,70210,6,0,P|256:112|344:40,1,159.840003902344,0|0,1:0|0:0,0:0:0:0:
424,40,70721,1,4,0:0:0:0:
384,128,70891,2,0,L|400:208,1,79.9200019511719,8|0,0:0|0:0,0:0:0:0:
464,280,71232,1,0,1:0:0:0:
368,296,71403,2,0,L|352:384,1,79.9200019511719,0|4,0:0|0:0,0:0:0:0:
280,256,71744,6,0,L|272:216,2,39.960000975586,8|0|0,0:0|0:0|0:0,0:0:0:0:
224,336,72085,1,0,0:0:0:0:
128,344,72255,2,0,P|80:336|8:232,1,159.840003902344,8|0,0:0|0:0,0:0:0:0:
16,112,72766,1,0,0:0:0:0:
16,112,72937,6,0,P|64:160|168:176,1,159.840003902344,0|0,1:0|0:0,0:0:0:0:
248,160,73448,1,0,0:0:0:0:
320,96,73619,2,0,L|344:8,1,79.9200019511719,8|0,0:0|0:0,0:0:0:0:
440,32,73960,2,0,P|472:88|472:120,1,79.9200019511719,0|4,1:0|0:0,0:0:0:0:
408,192,74300,6,0,L|424:272,1,79.9200019511719,0|8,0:0|0:0,0:0:0:0:
444,364,74641,1,0,0:0:0:0:
352,336,74812,1,4,0:0:0:0:
260,308,74982,1,8,0:0:0:0:
24,320,75323,2,0,P|80:296|96:256,1,79.9200019511719,0|0,0:0|0:0,0:0:0:0:
192,248,75664,6,0,P|144:208|120:112,1,159.840003902344,0|0,1:0|0:0,0:0:0:0:
144,24,76175,1,0,0:0:0:0:
240,24,76346,2,0,P|272:48|288:96,1,79.9200019511719,8|0,0:0|0:0,0:0:0:0:
288,180,76687,1,0,1:0:0:0:
208,232,76857,2,0,P|176:264|168:312,1,79.9200019511719,4|0,0:0|0:0,0:0:0:0:
264,312,77198,6,0,L|320:320,2,39.960000975586,8|0|0,0:0|0:0|0:0,0:0:0:0:
168,297,77539,1,4,0:0:0:0:
72,284,77710,1,8,0:0:0:0:
112,48,78050,2,0,P|152:32|200:40,1,79.9200019511719,0|0,0:0|0:0,0:0:0:0:
296,72,78391,6,0,P|248:88|200:168,1,144,2|0,0:0|0:0,0:0:0:0:
304,320,79073,2,0,P|328:248|304:176,1,144,2|0,0:0|0:0,0:0:0:0:
88,200,79755,6,0,P|120:232|224:248,1,144,2|0,0:0|0:0,0:0:0:0:
352,208,80437,1,2,0:0:0:0:
376,64,80778,1,0,0:0:0:0:
440,192,81119,6,0,B|443:266|381:293|381:293|368:344|368:344|328:304|264:320,1,288,2|2,0:0|0:0,0:0:0:0:
96,336,82141,2,0,P|144:328|176:304,1,72,0|0,0:0|0:0,0:0:0:0:
208,256,82482,6,0,P|208:176|168:120,1,144,2|0,0:0|0:0,0:0:0:0:
46,75,83164,2,0,P|94:115|182:123,1,144,2|0,0:0|0:0,0:0:0:0:
312,80,83846,5,2,0:0:0:0:
408,352,84528,2,0,P|432:296|432:208,1,144,2|0,0:0|0:0,0:0:0:0:
384,128,85210,5,2,0:0:0:0:
308,52,85550,1,0,0:0:0:0:
204,52,85891,1,2,0:0:0:0:
128,128,86232,1,0,0:0:0:0:
220,280,86573,6,0,B|176:300|148:248|180:216|208:188|208:188|236:164|232:136|256:116|280:136|276:164|304:188|304:188|332:216|364:248|336:300|292:280,1,432,2|0,0:0|0:0,0:0:0:0:
