osu file format v13

[General]
AudioFilename: Ano Mori de Matteru.mp3
AudioLeadIn: 500
PreviewTime: 36630
Countdown: 0
SampleSet: Soft
StackLeniency: 0.7
Mode: 0
LetterboxInBreaks: 0
WidescreenStoryboard: 1

[Editor]
DistanceSpacing: 1
BeatDivisor: 4
GridSize: 8
TimelineZoom: 1

[Metadata]
Title:Ano Mori de Matteru (TV Size)
TitleUnicode:あの森で待ってる (TVサイズ)
Artist:Bonjour Suzuki
ArtistUnicode:ボンジュール鈴木
Creator:wcx19911123
Version:Easy
Source:ユリ熊嵐
Tags:Yuri Kuma Arashi Lily Bear Storm opening Momochikun
BeatmapID:588143
BeatmapSetID:255701

[Difficulty]
HPDrainRate:2
CircleSize:3
OverallDifficulty:2
ApproachRate:3
SliderMultiplier:1.6
SliderTickRate:2

[Events]
//Background and Video events
0,0,"bg.jpg",0,0
//Break Periods
//Storyboard Layer 0 (Background)
//Storyboard Layer 1 (Fail)
//Storyboard Layer 2 (Pass)
//Storyboard Layer 3 (Foreground)
//Storyboard Sound Samples

[TimingPoints]
1346,681.818181818182,4,2,1,40,1,0
5436,-100,4,2,1,50,0,0
6119,681.818181818182,4,2,1,55,1,0
20437,-100,4,1,1,55,0,0
20607,-100,4,2,1,55,0,0
24528,-100,4,1,1,55,0,0
24698,-100,4,2,1,55,0,0
27937,-100,4,2,2,50,0,0
28619,-100,4,2,1,50,0,0
29982,-100,4,1,1,50,0,0
30323,-100,4,2,1,50,0,0
30664,-100,4,2,2,50,0,0
31005,-100,4,2,1,50,0,0
32709,-100,4,1,1,50,0,0
33050,-100,4,2,1,50,0,0
33391,-100,4,2,2,50,0,0
34073,-100,4,2,1,50,0,0
36119,-100,4,2,1,40,0,0
37141,-100,4,2,1,5,0,0
37482,-100,4,2,1,40,0,0
38505,-100,4,2,1,5,0,0
38846,-100,4,2,1,40,0,0
40210,681.818181818182,4,2,2,60,1,1
40550,-100,4,2,1,60,0,1
62028,-100,4,2,2,60,0,1
62369,-100,4,2,1,60,0,1
66800,-100,4,1,1,60,0,1
67141,-100,4,2,1,60,0,1
72937,-100,4,2,1,50,0,0
78391,-100,4,2,1,40,0,0
86914,-100,4,2,1,30,0,0
87425,-100,4,2,1,20,0,0
87937,-100,4,2,1,10,0,0
88278,-100,4,2,1,5,0,0

[Colours]
Combo1 : 85,128,255
Combo2 : 255,70,186
Combo3 : 0,249,105

[HitObjects]
144,88,1346,6,0,P|112:152|120:248,1,160,2|2,0:0|0:0,0:0:0:0:
240,344,2709,2,0,L|328:360,2,80,2|0|2,0:0|0:0|0:0,0:0:0:0:
200,192,4073,2,0,B|264:152|288:216|360:184,2,160,2|2|4,0:0|0:0|0:1,0:0:0:0:
104,320,6119,6,0,P|64:288|48:240,1,80,0|0,1:0|0:0,0:0:0:0:
40,184,6800,2,0,L|40:104,1,80,8|4,0:0|0:0,0:0:0:0:
104,56,7482,1,0,1:0:0:0:
184,48,7823,2,0,P|208:48|264:72,1,80,0|8,0:0|0:0,0:0:0:0:
312,128,8505,2,0,P|360:152|400:144,2,80,0|0|0,0:0|1:0|0:0,0:0:0:0:
368,72,9528,5,8,0:0:0:0:
444,96,9869,1,4,0:0:0:0:
460,176,10209,2,0,L|460:256,1,80,0|0,1:0|0:0,0:0:0:0:
384,280,10891,2,0,L|384:360,1,80,8|0,0:0|0:0,0:0:0:0:
304,368,11573,6,0,P|264:368|168:304,1,160,0|8,1:0|0:0,0:0:0:0:
128,232,12596,1,4,0:0:0:0:
208,232,12937,2,0,P|248:216|272:184,2,80,0|0|8,1:0|0:0|0:0,0:0:0:0:
128,232,13959,2,0,P|96:224|64:192,1,80,0|0,0:0|1:0,0:0:0:0:
48,112,14641,5,0,0:0:0:0:
104,56,14982,2,0,P|168:48|224:80,2,120,8|4|0,0:0|0:0|0:0,0:0:0:0:
48,112,16346,2,0,L|48:192,1,80,8|0,0:0|0:0,0:0:0:0:
88,264,17028,5,0,1:0:0:0:
160,232,17369,2,0,L|240:232,1,80,0|8,0:0|0:0,0:0:0:0:
312,264,18050,1,4,0:0:0:0:
392,256,18391,2,0,P|432:240|456:208,1,80,0|0,1:0|0:0,0:0:0:0:
480,136,19073,2,0,L|480:56,1,80,8|0,0:0|0:0,0:0:0:0:
408,24,19755,5,0,1:0:0:0:
336,56,20096,2,0,P|312:96|320:176,2,120,0|4|0,0:0|0:0|1:0,0:0:0:0:
264,20,21459,1,0,0:0:0:0:
200,68,21800,2,0,P|136:68|112:52,1,80,8|0,0:0|0:0,0:0:0:0:
80,128,22482,6,0,P|144:152|240:136,1,160,0|8,1:0|0:0,0:0:0:0:
304,104,23505,1,4,0:0:0:0:
376,144,23846,2,0,P|416:136|496:160,2,120,0|4|0,1:0|0:0|0:0,0:0:0:0:
304,184,25209,5,0,1:0:0:0:
256,248,25550,1,0,0:0:0:0:
192,296,25891,2,0,P|144:304|72:280,2,120,8|4|0,0:0|0:0|0:0,0:0:0:0:
256,248,27255,2,0,L|256:208,1,40,8|0,0:0|0:0,0:0:0:0:
256,88,27937,6,0,P|196:56|92:64,1,160,4|8,0:0|0:0,0:0:0:0:
36,100,28959,1,4,0:0:0:0:
104,144,29300,2,0,P|144:164|224:152,2,120,0|0|0,0:0|0:0|0:0,0:0:0:0:
56,208,30664,6,0,P|64:248|152:336,1,160,4|8,0:0|0:0,0:0:0:0:
224,344,31687,1,4,0:0:0:0:
296,312,32028,2,0,P|376:320|416:304,2,120,0|0|0,0:0|0:0|0:0,0:0:0:0:
232,264,33391,5,4,0:0:0:0:
168,120,34073,1,8,0:0:0:0:
248,136,34414,2,0,L|368:120,2,120,4|8|8,0:0|0:0|0:0,0:0:0:0:
192,196,35778,2,0,P|176:236|184:284,1,80,4|0,0:0|0:0,0:0:0:0:
312,360,36800,6,0,P|384:320|416:248,1,160
424,96,38164,2,0,B|369:82|325:124|325:124|325:93|306:77,1,160
32,232,40210,5,4,0:0:0:0:
80,296,40550,1,0,0:0:0:0:
152,328,40891,2,0,P|208:328|248:304,1,80,8|4,0:0|0:0,0:0:0:0:
288,264,41573,2,0,L|288:224,1,40,0|8,1:0|0:0,0:0:0:0:
256,152,42085,2,0,L|256:112,1,40,4|8,0:0|0:0,0:0:0:0:
312,56,42596,1,0,0:0:0:0:
392,56,42937,6,0,P|456:104|480:200,1,160,0|8,1:0|0:0,0:0:0:0:
464,256,43960,1,4,0:0:0:0:
408,312,44300,2,0,L|352:312,1,40,0|8,1:0|0:0,0:0:0:0:
296,280,44812,2,0,L|248:280,1,40,4|8,0:0|0:0,0:0:0:0:
184,312,45323,1,0,0:0:0:0:
104,312,45664,6,0,P|48:272|16:168,1,160,0|8,1:0|0:0,0:0:0:0:
16,108,46687,1,4,0:0:0:0:
56,40,47028,2,0,P|96:24|144:32,1,80,0|0,1:0|0:0,0:0:0:0:
200,72,47710,1,8,0:0:0:0:
264,120,48050,2,0,P|304:128|344:120,2,80,0|0|0,0:0|1:0|0:0,0:0:0:0:
192,152,49073,6,0,P|160:184|144:296,1,160,8|0,0:0|1:0,0:0:0:0:
200,352,50096,1,0,0:0:0:0:
280,360,50437,2,0,P|320:352|352:320,1,80,8|0,0:0|0:0,0:0:0:0:
368,248,51119,5,0,1:0:0:0:
320,184,51460,2,0,P|312:152|328:96,1,80,0|8,0:0|0:0,0:0:0:0:
376,48,52141,1,4,0:0:0:0:
440,96,52482,2,0,L|440:144,1,40,0|8,1:0|0:0,0:0:0:0:
488,200,52994,2,0,L|488:248,1,40,4|8,0:0|0:0,0:0:0:0:
440,304,53505,1,0,0:0:0:0:
376,352,53846,6,0,P|296:352|224:304,1,160,0|8,1:0|0:0,0:0:0:0:
192,240,54869,1,4,0:0:0:0:
184,160,55210,2,0,L|184:120,1,40,0|8,1:0|0:0,0:0:0:0:
264,88,55721,2,0,L|264:136,1,40,4|8,0:0|0:0,0:0:0:0:
264,208,56232,1,0,0:0:0:0:
192,240,56573,6,0,P|136:248|40:200,1,160,0|8,1:0|0:0,0:0:0:0:
16,128,57596,1,4,0:0:0:0:
64,64,57937,2,0,P|128:40|232:72,1,160,0|8,1:0|0:0,0:0:0:0:
256,128,58960,1,0,0:0:0:0:
312,184,59300,6,0,P|352:192|392:184,2,80,0|0|8,1:0|0:0|0:0,0:0:0:0:
236,204,60323,1,4,0:0:0:0:
176,256,60664,2,0,L|136:256,1,40,0|8,1:0|0:0,0:0:0:0:
112,336,61175,2,0,L|160:336,1,40,4|8,0:0|0:0,0:0:0:0:
232,336,61687,1,0,0:0:0:0:
312,320,62028,6,0,P|352:280|368:176,1,160,4|8,0:0|0:0,0:0:0:0:
328,112,63050,1,4,0:0:0:0:
264,64,63391,2,0,L|224:64,1,40,0|8,1:0|0:0,0:0:0:0:
160,112,63903,2,0,L|96:112,1,40,4|8,0:0|0:0,0:0:0:0:
56,160,64414,1,0,0:0:0:0:
48,240,64755,6,0,P|88:296|176:328,1,160,0|8,1:0|0:0,0:0:0:0:
248,304,65778,1,4,0:0:0:0:
296,240,66119,2,0,P|336:224|424:240,2,120,0|4|0,1:0|0:0|0:0,0:0:0:0:
216,232,67482,6,0,P|176:208|136:88,1,160,0|8,1:0|0:0,0:0:0:0:
160,32,68505,1,4,0:0:0:0:
240,32,68846,2,0,L|288:32,1,40,0|8,1:0|0:0,0:0:0:0:
344,80,69357,2,0,L|384:80,1,40,4|8,0:0|0:0,0:0:0:0:
448,128,69869,1,0,0:0:0:0:
488,200,70210,6,0,P|488:240|416:336,1,160,0|8,1:0|0:0,0:0:0:0:
344,352,71232,1,4,0:0:0:0:
264,352,71573,2,0,L|216:352,1,40,0|8,1:0|0:0,0:0:0:0:
168,296,72085,2,0,L|120:296,1,40,4|8,0:0|0:0,0:0:0:0:
48,296,72596,1,0,0:0:0:0:
88,224,72937,6,0,P|96:160|48:80,1,160,0|8,1:0|0:0,0:0:0:0:
112,32,73960,1,4,0:0:0:0:
160,96,74300,2,0,L|208:96,1,40,0|8,1:0|0:0,0:0:0:0:
272,64,74812,2,0,L|320:64,1,40,4|8,0:0|0:0,0:0:0:0:
392,64,75323,1,0,0:0:0:0:
352,136,75664,6,0,P|336:184|368:296,1,160,0|8,1:0|0:0,0:0:0:0:
424,336,76687,1,4,0:0:0:0:
352,368,77028,2,0,L|312:368,1,40,0|8,1:0|0:0,0:0:0:0:
240,336,77539,2,0,L|200:336,1,40,4|8,0:0|0:0,0:0:0:0:
120,336,78050,1,0,0:0:0:0:
72,272,78391,6,0,P|56:232|88:120,1,160,2|2,0:0|0:0,0:0:0:0:
232,56,79755,2,0,P|248:96|216:208,1,160,2|2,0:0|0:0,0:0:0:0:
72,272,81119,6,0,B|160:264|136:320|224:312,1,160,2|2,0:0|0:0,0:0:0:0:
296,280,82141,1,0,0:0:0:0:
344,216,82482,2,0,P|352:176|304:64,1,160,2|2,0:0|0:0,0:0:0:0:
152,104,83846,6,0,P|144:144|192:256,1,160,2|2,0:0|0:0,0:0:0:0:
256,288,84869,1,0,0:0:0:0:
325,251,85210,2,0,P|364:182|360:104,2,160,2|2|2,0:0|0:0|0:0,0:0:0:0:
256,192,86914,12,0,88619,0:0:0:0:
