osu file format v9

[General]
AudioFilename: Boney M - Rasputin.mp3
AudioLeadIn: 0
PreviewTime: -1
Countdown: 1
SampleSet: Soft
StackLeniency: 0.7
Mode: 2
LetterboxInBreaks: 1

[Editor]
Bookmarks: 15,5875,65171,256187
DistanceSpacing: 0.8
BeatDivisor: 4
GridSize: 8

[Metadata]
Title:Rasputin
Artist:Boney M
Creator:mebins
Version:Insane
Source:
Tags:

[Difficulty]
HPDrainRate:8
CircleSize:5
OverallDifficulty:10
ApproachRate:7
SliderMultiplier:1.4
SliderTickRate:1

[Events]
//Background and Video events
0,0,"b_6493_Boney_M_-The_Magic_Of_Boney_M_-2006.jpg"
//Break Periods
//Storyboard Layer 0 (Background)
//Storyboard Layer 1 (Fail)
//Storyboard Layer 2 (Pass)
//Storyboard Layer 3 (Foreground)
//Storyboard Sound Samples
//Background Colour Transformations
3,100,163,162,255

[TimingPoints]
250.004122166146,468.75,4,2,0,47,1,0
36649,-100,4,2,0,47,0,1
70210,-100,4,2,0,47,0,0
191894,-100,4,2,0,47,0,1
244577,-100,4,2,0,47,0,0

[Colours]
Combo1 : 255,150,0
Combo2 : 5,240,5
Combo3 : 5,5,240
Combo4 : 240,5,5

[HitObjects]
248,152,4937,1,0
248,152,5406,1,0
248,152,5640,1,0
248,152,5875,1,0
128,168,6343,1,0
256,144,6929,1,0
160,120,7281,1,0
232,128,7632,1,0
176,128,7867,1,0
288,112,8335,1,0
408,120,8804,5,0
304,168,9273,1,0
232,160,9625,1,0
176,144,9859,1,0
272,104,10328,1,0
232,160,10796,1,0
152,248,11265,1,0
216,240,11500,1,0
288,216,11851,1,0
328,120,12320,1,0
232,136,12789,1,0
168,208,13257,1,0
216,232,13492,5,0
264,208,13609,1,0
184,160,14078,1,0
184,288,14664,1,0
264,232,15015,1,0
320,184,15367,1,0
368,144,15601,1,0
240,144,16187,1,0
152,136,16539,1,0
224,224,17007,1,0
280,208,17242,1,0
344,160,17593,1,0
224,176,18179,5,0
120,160,18414,1,0
176,248,19000,1,2
208,216,19234,1,2
248,184,19468,1,2
184,280,19937,1,0
104,208,20406,1,0
216,216,20875,1,2
272,216,21109,1,2
320,184,21343,1,2
208,248,21929,1,0
296,232,22281,1,0
168,232,22750,1,0
288,216,23218,1,0
192,248,23687,1,0
160,248,24507,5,0
352,256,24976,1,0
176,304,25327,1,0
416,216,25796,1,0
256,192,26382,12,0,28140
144,128,28726,5,0
376,152,29195,1,0
176,192,29664,1,0
328,240,30367,1,0
368,224,30601,1,0
192,272,31070,1,0
208,264,31187,1,0
248,256,31304,1,0
368,272,31539,1,0
184,184,32359,1,0
168,160,32476,1,0
184,168,32593,1,0
280,160,32945,1,0
336,104,33062,1,0
312,208,33531,1,0
352,120,34000,1,0
312,168,34234,1,0
192,224,34468,1,0
272,208,34820,1,0
360,208,34937,1,0
336,200,35054,1,0
280,192,35289,1,0
208,272,35523,1,0
272,208,36460,1,0
288,240,36929,1,0
304,136,37398,1,0
224,128,37515,5,0
240,144,37632,1,0
280,136,37750,1,0
296,176,37867,1,0
232,160,37984,1,0
288,168,38218,1,0
304,208,38453,1,0
232,216,38687,1,0
304,208,38921,1,0
336,280,39273,1,0
304,208,39390,1,0
336,232,39507,1,0
336,160,39859,1,0
472,360,40914,1,0
384,168,41382,1,0
344,184,41617,1,0
256,64,41851,1,0
248,168,42320,1,0
320,208,42789,1,0
304,120,43257,5,0
304,112,43492,1,0
304,112,43843,1,0
200,152,44195,1,0
408,144,44664,1,0
248,192,45250,1,0
248,176,45367,1,0
240,80,45718,5,0
296,88,45953,1,0
240,88,46187,1,0
248,192,46304,1,0
296,96,46421,1,0
264,96,46539,1,0
288,96,46656,1,0
232,104,46890,1,0
256,104,47007,1,0
248,128,47125,1,0
256,152,47242,1,0
248,120,47359,1,0
272,120,47476,1,0
224,96,47710,1,0
280,112,47945,1,0
280,136,48062,1,0
256,152,48179,1,0
312,120,48414,5,0
336,120,48531,1,0
360,128,48648,1,0
416,144,48882,1,0
464,168,49117,1,0
464,224,49351,1,0
456,248,49468,1,0
432,248,49585,1,0
376,248,49820,1,0
352,240,49937,1,0
328,232,50054,1,0
272,216,50289,1,0
248,208,50406,1,0
192,208,50640,1,0
192,152,50875,1,0
272,144,51226,5,0
352,136,51343,1,0
224,176,51578,1,0
248,176,51812,1,0
296,152,52046,1,0
392,80,52164,1,0
392,80,52281,1,0
360,104,52515,1,0
352,136,52632,1,0
352,136,52750,1,0
304,160,52984,1,0
304,160,53101,1,0
304,160,53218,1,0
280,176,53335,1,0
248,168,53570,1,0
232,176,53687,1,0
208,176,53804,1,0
208,176,54039,1,0
208,176,54390,5,0
248,168,54390,1,0
280,176,54625,1,0
160,200,54859,1,0
160,200,55093,1,0
160,200,55210,1,0
160,200,55445,1,0
152,216,55562,1,0
296,168,56031,5,0
296,192,56148,1,0
280,208,56265,1,0
296,248,56382,1,0
280,272,56500,1,0
256,280,56617,1,0
240,304,56734,1,0
216,320,56851,1,0
224,296,56968,1,0
200,296,57085,1,0
200,264,57203,1,0
176,272,57320,1,0
120,264,57554,1,0
264,264,57671,1,0
240,256,57789,1,0
264,288,57906,1,0
240,288,58023,1,0
192,248,58140,1,0
240,240,58375,1,0
136,232,58492,5,0
192,248,58726,1,0
176,192,58960,1,0
192,248,59195,1,0
88,256,59429,2,0,B|416:64|464:88,1,385
368,152,61421,1,0
240,192,61890,2,0,B|208:208|432:288,1,210
64,152,63414,2,0,B|-40:160|248:128|8:144,3,175
128,216,65640,1,0
320,248,66460,1,0
288,144,67046,5,0
432,144,67515,1,0
280,224,68218,1,0
264,224,68453,1,0
368,208,68921,1,0
344,216,69039,1,0
256,152,69507,1,0
336,272,69976,1,0
344,248,70562,2,0,B|128:32,1,280
88,272,71617,2,0,B|448:24,1,420
448,232,73375,2,0,B|288:32,1,245
248,168,74664,1,0
344,136,75250,1,0
232,232,75601,1,0
248,224,75718,1,0
272,160,76421,1,0
264,152,76656,1,0
264,152,76890,1,0
264,152,77125,1,0
288,192,77359,1,0
264,152,77593,1,0
352,96,78296,5,0
336,144,78882,1,0
264,120,79351,1,0
336,56,79820,1,0
336,56,80406,1,0
240,80,80640,1,0
256,144,80875,1,0
216,200,81343,1,0
88,240,82281,1,0
448,264,82750,1,0
88,176,82867,1,0
472,216,82984,1,0
216,160,83218,1,0
296,208,83570,1,0
288,128,83687,1,0
248,232,84156,1,0
296,144,84625,1,0
248,248,85093,1,0
296,64,85210,5,0
288,144,85562,1,0
248,96,85679,1,0
320,80,86031,1,0
320,96,86617,1,0
312,96,86968,1,0
200,136,87437,1,0
320,96,87554,1,0
208,128,87906,1,0
192,136,88023,1,0
416,80,89898,5,0
184,96,90367,1,0
304,72,90835,1,0
288,104,90953,1,0
288,96,91304,1,0
248,200,91773,1,0
248,200,92007,1,0
224,144,92125,1,0
232,168,92242,1,0
248,216,92476,1,0
224,160,92710,1,0
240,160,92828,1,0
288,128,93179,1,0
304,144,93296,1,0
288,224,93648,1,0
240,152,93765,1,0
256,200,94000,1,0
256,200,94117,1,0
296,160,94351,1,0
240,128,94585,5,0
248,136,94703,1,0
272,160,94820,1,0
304,200,95054,1,0
304,200,95289,1,0
296,232,95406,1,0
296,232,95640,1,0
40,272,96812,2,0,B|392:40,1,420
376,280,99039,6,0,B|88:64,1,350
216,64,101617,2,0,B|400:320,1,315
208,224,103140,2,0,B|432:32,1,280
224,192,105015,1,0
368,128,105484,1,0
224,192,105835,1,0
288,136,106187,1,0
272,152,106539,1,0
288,144,106890,1,0
288,136,107593,1,0
328,144,107710,1,0
288,192,108062,1,0
400,136,109234,1,0
368,168,109703,1,0
264,192,110289,1,0
352,296,110757,5,0
112,272,111226,1,0
144,80,111460,1,0
328,64,112046,1,0
416,120,112281,1,0
336,176,112632,1,0
304,304,112750,1,0
104,256,113218,1,0
200,56,113687,1,0
272,24,114507,1,0
248,264,114976,1,0
64,176,115445,1,0
408,184,115914,1,0
192,256,116382,1,0
232,168,116851,1,0
368,296,116968,5,0
144,200,117320,1,0
392,128,117789,1,0
160,96,118257,1,0
360,144,118726,1,0
192,184,119195,1,0
296,112,119664,1,0
360,232,119781,1,0
160,280,120250,1,0
392,256,120718,1,0
192,272,121187,1,0
320,112,121656,1,0
120,176,122125,1,0
368,152,122593,1,0
280,96,123062,1,0
336,80,123531,1,0
168,32,124000,1,0
336,16,124468,1,0
328,112,124820,1,0
208,136,124937,1,0
208,272,125875,5,0
288,208,126226,1,0
360,256,126343,1,0
208,216,126812,1,0
376,152,127281,1,0
272,200,127750,1,0
336,184,128218,1,0
248,248,128687,1,0
304,240,129156,1,0
208,280,129625,1,0
240,288,130093,1,0
336,256,130562,1,0
216,288,130796,5,0
296,144,131500,1,0
272,120,132085,1,0
296,96,132554,1,0
200,272,133375,1,0
160,112,133492,1,0
288,144,133960,1,0
368,192,134312,1,0
128,192,134429,1,0
320,248,134898,1,0
488,80,135484,1,0
104,248,135953,2,0,B|368:64,1,315
272,192,137359,1,0
480,88,138062,1,0
200,184,138179,1,0
352,160,138531,1,0
272,240,139000,1,0
232,208,139117,1,0
304,280,139585,5,0
352,176,140054,1,0
248,240,140406,1,0
264,96,140523,1,0
160,240,140757,2,0,B|448:32|432:64,2,315
176,192,142867,1,0
288,240,143218,1,0
200,200,143453,1,0
152,176,143804,1,0
280,144,143921,1,0
104,256,144742,1,0
328,288,145679,1,0
112,224,145796,5,0
224,216,146265,1,0
304,120,146734,1,0
264,136,147203,1,0
336,224,147437,1,0
288,272,148140,1,0
296,160,148609,1,0
272,184,149078,1,0
320,152,149546,1,0
280,200,149781,1,0
320,152,150015,1,0
312,224,150367,1,0
320,152,151070,5,0
296,200,152359,1,0
216,304,152945,1,0
296,144,153179,1,0
336,184,153414,1,0
208,144,153765,1,0
320,200,154234,1,0
288,200,154351,1,0
320,200,154820,1,0
160,224,155171,1,0
270,107,155640,1,0
272,144,156226,1,0
368,112,156695,1,0
336,208,157164,1,0
336,208,158101,1,0
248,272,158570,1,0
16,0,160093,1,0
408,72,160445,1,0
320,136,160914,1,0
232,248,161500,1,0
352,168,161617,5,0
304,168,161851,1,0
368,192,162320,1,0
312,192,162554,1,0
280,232,162671,1,0
304,216,163140,1,0
280,224,163257,1,0
248,120,164078,1,0
232,144,164546,1,0
280,136,164781,1,0
344,104,165132,1,0
264,168,165718,1,0
240,200,165835,1,0
352,160,166187,1,0
296,224,166539,1,0
320,272,167476,1,0
368,64,167593,1,0
272,160,168062,1,0
296,176,168179,1,0
296,64,168414,1,0
368,136,168882,1,0
272,88,169000,1,0
408,128,169351,1,0
312,208,169820,1,0
184,224,169937,1,0
16,144,170406,1,0
96,216,170875,1,0
152,80,171343,5,0
80,272,171695,1,0
104,272,171812,1,0
80,272,172281,1,0
96,272,172398,1,0
128,160,172750,1,0
216,224,173218,1,0
272,232,173804,1,0
272,232,173921,1,0
328,256,174273,1,0
344,216,174859,1,0
248,168,175328,1,0
400,224,175796,1,0
464,200,176265,1,0
248,128,176968,5,0
288,160,177554,1,0
248,208,178023,1,0
320,208,178492,1,0
240,272,178960,1,0
320,272,179429,1,0
264,312,179781,1,0
336,320,180250,1,0
256,216,180835,1,0
336,272,181304,1,0
248,184,181773,1,0
336,216,182125,1,0
256,136,182710,5,0
352,200,183179,1,0
352,200,184117,1,0
288,112,184585,1,0
352,200,185171,1,0
336,96,185523,1,0
368,160,185992,1,0
336,96,186460,1,0
368,160,186929,1,0
264,120,187398,1,0
312,216,187867,1,0
208,144,188335,1,0
264,256,188804,1,0
144,152,189390,5,0
200,264,189742,1,0
104,192,190328,1,0
80,224,191148,1,0
152,288,191617,1,0
232,112,192085,1,0
320,152,192554,1,0
216,200,193023,1,0
336,224,193492,1,0
176,288,193960,1,0
344,272,194546,1,0
216,328,195015,1,0
344,320,195484,1,0
208,184,195835,1,0
240,64,196304,1,0
304,80,196539,1,0
296,96,196656,1,0
296,96,197359,1,0
208,48,197828,1,0
224,64,197945,1,0
320,112,198296,5,0
208,192,198765,1,0
232,160,198882,1,0
304,200,199117,1,0
200,272,199703,1,0
328,280,200171,1,0
320,232,200406,1,0
224,336,200640,1,0
216,240,201109,1,0
184,248,201578,1,0
208,224,201695,1,0
272,224,201929,1,0
184,200,202515,1,0
224,128,202867,1,0
312,136,202984,1,0
200,160,203453,1,0
288,72,203921,1,0
256,120,204156,1,0
168,160,204390,1,0
240,48,204859,1,0
168,160,205328,1,0
264,224,205796,1,0
56,144,206500,1,0
280,208,207203,1,0
368,192,207671,1,0
256,256,208140,1,0
112,32,208609,5,0
80,200,209078,2,0,B|368:80,2,280
80,144,212007,1,0
184,168,212476,1,0
320,184,212945,1,0
408,144,213414,1,0
448,216,213882,1,0
160,216,214820,1,0
224,192,215289,1,0
288,256,215757,1,0
296,312,216695,1,0
216,336,217164,1,0
512,56,217632,5,0
256,176,218570,1,0
176,200,219625,1,0
256,224,219976,1,0
240,272,220445,1,0
136,272,220914,1,0
256,192,222320,12,0,229585
256,72,230640,5,0
336,72,231460,5,0
144,136,231812,5,0
304,120,232398,1,0
224,248,232867,1,0
144,232,233335,1,0
240,176,233687,1,0
184,136,234156,1,0
208,192,234976,1,0
280,176,235445,1,0
112,80,236500,1,0
184,144,237671,1,0
512,48,238375,5,0
208,208,238960,1,0
160,200,239429,1,0
216,160,239898,1,0
216,216,240835,1,0
312,200,241304,1,0
336,80,241773,1,0
416,128,242242,1,0
304,160,242828,1,0
360,200,243179,1,0
256,88,245054,1,0
232,248,245523,1,0
312,240,246109,1,0
248,160,246460,1,0
512,64,247046,5,0
464,88,247281,1,0
304,296,247515,1,0
360,224,247984,1,0
328,184,248218,1,0
384,128,248453,1,0
216,296,249273,1,0
160,192,249625,1,0
272,88,250328,1,0
360,192,251031,1,0
304,264,251382,1,0
152,176,252671,1,0
256,160,253140,1,0
256,160,253609,1,0
344,168,254078,1,0
344,168,254546,1,0
312,224,254781,1,0
248,256,255015,1,0
344,168,255601,1,0
200,176,256070,1,0
336,184,256656,5,0
280,216,256773,1,0
376,192,257359,1,0
384,256,257945,1,0
296,192,258414,1,0
288,296,258882,1,0
232,264,259351,1,0
176,272,259820,1,0
200,264,259937,1,0
368,240,260640,1,0
104,264,260757,1,0
96,232,261226,1,0
128,224,261343,1,0
112,200,261695,1,0
200,208,262164,1,0
240,232,262632,1,0
512,56,263570,5,0
304,160,264156,1,0
320,112,264507,1,0
352,88,265093,1,0
384,72,265562,1,0
408,96,265914,1,0
384,168,266500,1,0
272,240,267437,1,0
240,248,267906,1,0
224,224,268492,1,0
232,192,268960,1,0
264,160,269312,1,0
296,112,269898,1,0
280,96,270250,1,0
240,96,270718,1,0
200,136,271187,1,0
208,192,271890,1,0
208,264,272476,5,0
144,280,273531,1,0
136,224,274000,1,0
160,168,274468,1,0
224,80,275406,1,0
256,48,275875,1,0
296,16,276343,1,0
336,24,276812,1,0
200,272,277164,1,0
384,16,277281,1,0
424,32,277867,1,0
448,64,278335,1,0
