osu file format v9

[General]
AudioFilename: Boney M - Rasputin.mp3
AudioLeadIn: 0
PreviewTime: -1
Countdown: 1
SampleSet: Soft
StackLeniency: 0.7
Mode: 0
LetterboxInBreaks: 1

[Editor]
Bookmarks: 65171,256187
DistanceSpacing: 0.8
BeatDivisor: 4
GridSize: 8

[Metadata]
Title:Rasputin
Artist:Boney M
Creator:mebins
Version:Easy
Source:
Tags:

[Difficulty]
HPDrainRate:2
CircleSize:3
OverallDifficulty:0
ApproachRate:5
SliderMultiplier:1.4
SliderTickRate:1

[Events]
//Background and Video events
0,0,"b_6493_Boney_M_-The_Magic_Of_Boney_M_-2006.jpg"
//Break Periods
2,24590,26003
2,208340,213268
//Storyboard Layer 0 (Background)
//Storyboard Layer 1 (Fail)
//Storyboard Layer 2 (Pass)
//Storyboard Layer 3 (Foreground)
//Storyboard Sound Samples
//Background Colour Transformations
3,100,163,162,255

[TimingPoints]
250.004122166146,468.75,4,2,0,47,1,0
51465,-100,4,2,0,47,0,1
132151,-100,4,2,0,47,0,0

[HitObjects]
184,168,5406,2,8,B|256:192,2,70
440,176,7281,2,0,B|368:208,2,70
48,216,9390,2,0,B|112:264,2,70
384,216,11265,2,0,B|344:272,2,70
40,248,13140,2,8,B|120:288,2,70
440,224,15015,2,8,B|360:264,2,70
128,88,17125,2,8,B|224:88,2,70
128,304,19000,2,8,B|216:304,2,70
88,144,20640,2,0,B|152:48|256:8|368:8|456:64|496:168,1,490
504,264,22750,2,0,B|512:336|288:360|160:384|72:208,1,490
256,192,27203,12,0,31656
256,192,32593,12,0,35406
192,128,36578,5,0
296,112,37046,1,0
232,208,37515,1,0
344,184,37984,1,0
280,280,38453,1,0
384,272,38921,1,0
320,352,39390,1,0
432,336,39859,1,0
440,224,40328,1,0
328,200,40796,1,0
216,192,41265,1,0
104,176,41734,1,0
144,72,42203,1,0
296,88,42789,1,0
120,224,44078,2,0,B|200:96|200:96|320:192|320:192|408:64|408:64|400:200|400:200,1,595
392,160,46187,2,0,B|312:32|312:32|192:128|192:128|104:0|104:0|112:136|112:136,1,595
120,328,48414,2,0,B|280:328|280:328|272:176|272:176|104:176|104:176|120:344,2,630
192,240,53335,1,0
192,240,53921,1,0
192,240,54390,1,0
192,240,54859,1,0
192,240,55796,5,0
208,352,56265,1,0
184,240,56734,1,0
272,304,57203,1,0
192,240,57671,1,0
304,224,58140,1,0
192,240,58609,1,0
256,152,59078,1,0
24,80,60015,2,0,B|160:168,3,140
464,96,61656,2,0,B|328:184,3,140
360,120,63296,2,0,B|296:248|288:248,3,140
240,256,64937,2,0,B|304:384|312:384,3,140
152,320,67046,2,0,B|312:536|352:376|520:368|656:96|120:192,1,805
96,128,70093,1,0
184,264,70562,2,0,B|176:40|-16:32|-16:32,1,280
40,48,71734,1,0
8,96,71968,2,0,B|16:320|160:312|160:320,1,280
416,152,73375,1,0
432,168,73843,1,0
136,224,76187,5,0
232,216,76539,1,0
104,240,77125,1,0
232,216,77593,1,0
160,288,78062,1,0
256,280,78531,1,0
184,352,79000,1,0
272,320,79351,1,0
312,200,79937,1,0
368,272,80289,1,0
376,144,80757,1,0
432,256,81343,1,0
432,152,81812,1,0
504,240,82281,1,0
472,136,82750,1,0
360,112,83218,1,0
336,224,83687,1,0
256,136,84156,1,0
264,248,84625,1,0
184,160,85093,1,0
192,280,85562,1,0
120,176,86148,5,0
120,272,86500,1,0
24,176,87085,1,0
56,272,87554,1,0
144,216,88023,1,0
224,256,88375,1,0
264,136,88843,1,0
312,248,89312,1,0
344,128,89781,1,0
400,240,90250,1,0
416,112,90835,1,0
456,200,91187,1,0
488,72,91773,1,0
496,176,92242,1,0
400,136,92710,1,0
376,232,93179,1,0
296,152,93648,1,0
288,256,94117,1,0
224,160,94585,1,0
216,272,95054,1,0
168,152,95757,5,0
168,240,95992,1,0
112,128,96460,1,0
288,312,97515,2,0,B|400:312,1,105
328,104,98335,1,0
312,160,98570,1,0
384,144,98921,1,0
320,216,99390,1,0
432,208,99859,1,0
376,304,100328,1,0
240,320,100679,1,0
144,328,102554,2,0,B|56:208|56:160|152:64|264:56|368:72|432:224|352:256|320:328,1,630
232,264,105132,2,0,B|336:256|336:264,1,105
232,248,105953,2,0,B|224:128,1,105
232,248,106773,2,0,B|48:248|48:48|256:64,1,385
256,192,109703,12,0,113453
48,184,114742,5,0
192,216,115328,1,0
272,112,115914,1,0
288,224,116382,1,0
360,136,116851,1,0
376,240,117320,1,0
416,136,117789,1,0
432,240,118257,1,0
336,160,118726,1,0
296,288,119312,1,0
248,208,119664,1,0
208,336,120250,1,0
176,248,120601,1,0
96,360,121187,5,0
88,264,121656,1,0
168,224,122007,1,0
248,280,122476,1,0
304,168,122945,1,0
360,280,123414,1,0
360,144,124000,1,0
408,224,124351,1,0
440,104,124820,1,0
472,232,125406,1,0
400,168,125875,1,0
368,272,126343,1,0
312,192,126695,1,0
336,320,127281,1,0
272,256,127632,1,0
264,304,128218,1,0
192,248,128570,1,0
80,328,129156,1,0
96,232,129507,1,0
224,304,130093,5,0
208,200,130562,1,0
296,288,131031,1,0
264,184,131500,1,0
344,280,131968,1,0
304,168,132437,1,0
392,240,132906,1,0
320,152,133375,1,0
432,176,133843,1,0
320,120,134312,1,0
432,96,134781,1,0
320,120,135250,1,0
328,40,135718,1,0
320,120,136187,1,0
240,32,136656,1,0
304,128,137125,5,0
176,112,137710,1,0
280,144,138179,1,0
184,192,138648,1,0
280,200,139000,1,0
160,248,139468,1,0
288,216,140054,1,0
248,312,140523,1,0
296,216,140992,1,0
352,304,141460,1,0
296,216,141929,1,0
392,272,142398,1,0
304,192,142867,1,0
408,248,143335,1,0
304,192,143921,1,0
248,288,144976,6,0,B|96:168|120:64|240:16|304:40|336:128|336:136,1,420
330,120,146500,2,0,B|432:-16|608:144|480:200|360:240|344:288|240:296|248:304,1,490
176,216,148609,1,0
240,112,149078,1,0
264,232,149546,1,0
280,176,149781,1,0
328,216,150015,1,0
336,152,150250,1,0
400,176,150484,1,0
256,192,152593,12,0,158335
168,96,159976,5,0
232,184,160445,1,0
288,96,160914,1,0
304,136,161148,1,0
336,104,161382,1,0
336,200,161734,1,0
264,232,162085,1,0
216,216,162320,1,0
216,144,162671,1,0
256,120,162906,1,0
336,128,163257,1,0
248,272,163960,5,0
312,264,164195,1,0
360,216,164429,1,0
384,168,164664,1,0
272,152,165132,1,0
184,232,165601,1,0
248,296,165953,1,0
304,280,166187,1,0
344,240,166421,1,0
216,24,167476,5,0
336,48,167945,1,0
264,152,168414,1,0
328,184,168765,1,0
328,232,169000,1,0
216,232,169468,1,0
184,200,169703,1,0
216,120,170054,1,0
264,88,170289,1,0
344,104,170640,1,0
376,152,170875,1,0
256,248,171460,5,0
320,280,171812,1,0
368,256,172046,1,0
416,232,172281,1,0
384,320,172632,1,0
256,312,173218,1,0
224,280,173453,1,0
216,240,173687,1,0
240,208,173921,1,0
352,160,174390,1,0
384,160,175093,1,0
384,160,175562,1,0
384,160,176031,1,0
192,200,178375,5,0
184,296,178492,1,0
232,200,178960,1,0
280,288,179312,1,0
232,200,179781,1,0
344,264,180367,1,0
120,256,180835,5,0
232,200,180835,1,0
344,208,181304,1,0
232,168,181773,1,0
336,136,182242,1,0
232,168,182710,1,0
280,72,183179,1,0
232,168,183648,1,0
176,96,184000,1,0
232,168,184468,1,0
112,120,185054,1,0
216,184,185523,1,0
104,200,185992,1,0
216,184,186460,1,0
120,264,186929,1,0
216,184,187515,5,0
224,288,187984,1,0
216,184,188335,1,0
288,272,188804,1,0
240,184,189273,1,0
328,248,189742,1,0
248,160,190210,1,0
336,184,190562,1,0
248,160,191148,1,0
352,160,191617,1,0
248,160,192085,1,0
312,88,192437,1,0
280,208,192906,1,0
312,88,193375,1,0
280,208,193843,1,0
400,152,194429,1,0
288,128,194898,1,0
336,24,195367,1,0
312,136,195835,1,0
224,48,196304,1,0
336,24,196773,5,0
312,136,197242,1,0
208,200,197710,1,0
248,80,198179,1,0
264,200,198648,1,0
152,144,199234,1,0
216,80,199585,1,0
296,160,200054,1,0
152,144,200523,1,0
216,56,200992,1,0
296,160,201460,1,0
152,144,201929,1,0
232,232,202398,1,0
304,120,202984,1,0
224,72,203335,1,0
152,152,203804,1,0
216,240,204273,1,0
280,136,204742,1,0
184,80,205210,1,0
168,184,205796,5,0
240,272,206148,1,0
264,160,206617,1,0
376,216,207085,1,0
256,160,207671,1,0
360,216,208140,1,0
256,192,214468,12,0,219976
160,192,222320,5,0
280,176,222789,1,0
400,216,223257,1,0
200,312,224195,1,0
320,328,224664,1,0
424,264,225132,1,0
256,192,228062,12,0,229234
152,144,230054,6,0,B|312:32|472:64|480:232|224:376|32:352|32:200|160:136,1,735
128,224,233687,1,0
232,184,234156,1,0
272,160,234390,1,0
288,272,234859,1,0
224,272,235093,1,0
184,144,235679,1,0
160,216,237554,1,0
280,184,238023,1,0
384,144,238492,1,0
360,256,238960,1,0
256,280,239429,1,0
160,280,239898,1,0
160,192,240250,1,0
120,296,241304,1,0
232,272,241773,1,0
160,184,242242,1,0
184,320,242828,1,0
264,256,243296,1,0
136,88,245054,6,0,B|208:128,1,70
184,56,245523,2,0,B|248:112,1,70
208,192,246109,2,0,B|320:64,1,140
376,96,246929,2,0,B|328:88|144:64|56:152|112:336|392:336|392:328,1,560
336,248,249156,2,0,B|136:64|128:32,1,280
96,192,250679,1,0
168,160,251031,1,0
200,256,251617,1,0
144,160,252906,2,0,B|208:224,1,70
184,136,253609,2,0,B|264:192,1,70
128,232,254898,2,0,B|448:208,1,315
432,216,256773,2,0,B|112:48,1,350
120,72,258062,2,0,B|125:418|440:240,1,455
128,80,262046,2,0,B|136:176,1,70
288,72,262632,2,0,B|296:160,1,70
168,200,263453,2,0,B|232:312|304:192,1,175
376,184,264390,2,0,B|312:72|240:192,1,175
256,192,266382,12,0,269546
160,168,269898,5,0
232,136,270250,1,0
176,224,270718,1,0
216,320,271187,1,0
272,248,271539,1,0
312,184,271890,1,0
328,136,272125,1,0
232,88,272593,1,0
184,144,272945,1,0
328,264,273765,1,0
344,208,274000,1,0
288,160,274351,1,0
240,176,274585,1,0
176,264,275054,1,0
288,264,275523,1,0
336,232,275757,1,0
384,200,275992,1,0
424,160,276226,1,0
152,144,277398,1,0
248,208,277867,1,0
