osu file format v13

[General]
AudioFilename: BONDE DA OSKLEY.mp3
AudioLeadIn: 0
PreviewTime: 60939
Countdown: 0
SampleSet: Soft
StackLeniency: 0.7
Mode: 0
LetterboxInBreaks: 1
WidescreenStoryboard: 0

[Editor]
Bookmarks: 29555,53786,60939,75709,79401,94401,107093,131324,138478,156939
DistanceSpacing: 0.9
BeatDivisor: 4
GridSize: 4
TimelineZoom: 1.5

[Metadata]
Title:Sereia do Mar
TitleUnicode:Sereia do Mar
Artist:Bonde da Oskley
ArtistUnicode:Bonde da Oskley
Creator:ALust
Version:Insane
Source:
Tags:funk fabriciorby fabricio4p asterio blue dragon gaba amigoproducoes amigos produções marceo marcelo lima portuguese português
BeatmapID:555113
BeatmapSetID:240158

[Difficulty]
HPDrainRate:7
CircleSize:4
OverallDifficulty:7.5
ApproachRate:8
SliderMultiplier:2
SliderTickRate:2

[Events]
//Background and Video events
0,0,"IMBATIVEISDOFUNK.jpg",0,0
Video,-180,"BONDE DA OSKLEY VIDEO.avi"
//Break Periods
2,53755,60189
2,94370,106343
2,131293,137728
//Storyboard Layer 0 (Background)
//Storyboard Layer 1 (Fail)
//Storyboard Layer 2 (Pass)
//Storyboard Layer 3 (Foreground)
//Storyboard Sound Samples

[TimingPoints]
1863,461.538461538462,4,2,0,100,1,0
31401,-100,4,2,0,80,0,0
53555,-100,4,2,0,80,0,0
60939,-100,4,2,0,100,0,0
66016,-100,4,2,0,80,0,0
79401,-100,4,2,0,80,0,1
79863,-100,4,2,0,100,0,1
81247,-100,4,2,0,80,0,1
81709,-100,4,2,0,100,0,1
83093,-100,4,2,0,80,0,1
83555,-100,4,2,0,100,0,1
84939,-100,4,2,0,80,0,1
85170,-100,4,2,0,100,0,1
85632,-100,4,2,0,65,0,1
85863,-100,4,2,0,100,0,1
86786,-100,4,2,0,65,0,1
87247,-100,4,2,0,100,0,1
88632,-100,4,2,0,65,0,1
89093,-100,4,2,0,100,0,1
90478,-100,4,2,0,65,0,1
90939,-100,4,2,0,100,0,1
92324,-100,4,2,0,65,0,1
92555,-100,4,2,0,100,0,1
93247,-100,4,2,0,65,0,1
93709,-100,4,2,0,80,0,1
94170,-100,4,2,0,65,0,0
109170,-100,4,2,0,100,0,0
109863,-100,4,2,0,80,0,0
110093,-100,4,2,0,80,0,0
110786,-100,4,2,0,55,0,0
112632,-100,4,2,0,65,0,0
112863,-100,4,2,0,100,0,0
116324,-100,4,2,0,65,0,0
116555,-100,4,2,0,100,0,0
123709,-100,4,2,0,65,0,0
125786,-100,4,2,0,100,0,0
131093,-100,4,2,0,65,0,0
138478,-100,4,2,0,100,0,0
143555,-100,4,2,0,80,0,0
156939,-100,4,2,0,80,0,1
171709,-100,4,2,0,100,0,0

[Colours]
Combo1 : 0,128,128
Combo2 : 40,255,95
Combo3 : 18,124,255

[HitObjects]
256,192,29555,12,4,31401,0:0:0:0:
256,120,31863,6,0,L|152:120,1,100
152,220,32324,2,0,B|200:200|300:248|356:220,2,200,8|0|8,0:0|0:0|0:0,0:0:0:0:
192,300,33478,5,0,0:0:0:0:
328,312,33709,1,0,0:0:0:0:
300,148,33939,1,0,0:0:0:0:
152,140,34170,1,8,0:0:0:0:
104,288,34401,1,0,0:0:0:0:
234,347,34632,2,0,L|330:311,1,100
440,257,35093,5,6,0:0:0:0:
84,148,35555,1,0,0:0:0:0:
132,72,35786,1,0,0:0:0:0:
160,196,36016,2,0,P|216:216|240:252,1,100,8|0,0:0|0:0,0:0:0:0:
156,288,36478,1,0,0:0:0:0:
252,120,36709,1,0,0:0:0:0:
356,288,36939,5,8,0:0:0:0:
428,148,37170,1,0,0:0:0:0:
352,196,37401,2,0,P|296:216|272:252,1,100
163,350,37863,2,8,P|124:319|112:272,1,100,8|0,0:0|0:0,0:0:0:0:
216,184,38324,2,8,P|190:237|199:280,1,100,0|0,0:0|0:0,0:0:0:0:
272,344,38786,5,4,0:0:0:0:
356,288,39016,2,0,P|420:260|444:224,1,100
331,151,39478,2,0,L|355:203,2,50,0|0|8,0:0|0:0|0:0,0:0:0:0:
156,96,39939,2,0,P|92:124|68:160,1,100
181,233,40401,2,0,L|136:188,2,50,0|0|8,0:0|0:0|0:0,0:0:0:0:
256,324,40863,5,0,0:0:0:0:
256,192,41093,2,0,L|184:120,1,100,0|0,0:0|0:0,0:0:0:0:
296,116,41555,2,0,L|368:188,1,100,8|0,0:0|0:0,0:0:0:0:
372,280,42016,2,0,P|424:260|452:220,1,100,0|0,0:0|0:0,0:0:0:0:
176,32,42478,2,0,P|124:52|96:96,1,100,6|0,0:0|0:0,0:0:0:0:
96,320,42939,5,0,0:0:0:0:
180,280,43170,2,0,L|232:296,1,50
100,228,43401,2,4,P|72:184|68:128,1,100,8|0,0:0|0:0,0:0:0:0:
176,32,43863,1,0,0:0:0:0:
208,160,44093,2,0,L|180:208,1,50
244,80,44324,6,0,P|296:68|356:88,1,100,8|0,0:0|0:0,0:0:0:0:
296,156,44786,1,0,0:0:0:0:
100,228,45016,1,0,0:0:0:0:
140,108,45247,2,4,P|88:88|56:44,1,100,8|0,0:0|0:0,0:0:0:0:
372,276,45709,2,0,P|424:296|456:340,1,100,0|0,0:0|0:0,0:0:0:0:
256,192,46170,1,6,0:0:0:0:
256,192,46401,12,4,48016,0:0:0:0:
184,144,48247,5,0,0:0:0:0:
256,264,48478,1,0,0:0:0:0:
328,144,48709,1,0,0:0:0:0:
152,252,48939,2,0,L|60:308,1,100,8|0,0:0|0:0,0:0:0:0:
360,252,49401,2,0,L|452:308,1,100
328,144,49863,5,8,0:0:0:0:
265,80,50093,1,0,0:0:0:0:
329,17,50324,1,0,0:0:0:0:
392,80,50555,1,0,0:0:0:0:
184,240,50786,1,8,0:0:0:0:
247,304,51016,1,0,0:0:0:0:
183,367,51247,1,0,0:0:0:0:
120,304,51478,1,0,0:0:0:0:
304,156,51709,6,0,B|340:168|340:204|404:196,1,100,8|0,0:0|0:0,0:0:0:0:
448,284,52170,1,0,0:0:0:0:
208,156,52401,2,0,B|172:168|172:204|108:196,1,100,0|8,0:0|0:0,0:0:0:0:
64,284,52863,1,0,0:0:0:0:
256,368,53093,2,0,L|256:260,1,100,0|0,0:0|0:0,0:0:0:0:
256,84,53555,1,6,0:0:0:0:
196,88,60939,5,6,0:0:0:0:
316,88,61170,1,0,0:0:0:0:
132,180,61401,1,0,0:0:0:0:
380,180,61632,1,0,0:0:0:0:
196,272,61863,2,0,P|148:292|96:288,1,100,8|0,0:0|0:0,0:0:0:0:
316,312,62324,2,0,P|364:292|416:296,1,100,0|0,0:0|0:0,0:0:0:0:
380,180,62786,5,8,0:0:0:0:
196,272,63016,1,0,0:0:0:0:
196,84,63247,1,0,0:0:0:0:
316,312,63477,1,0,0:0:0:0:
380,180,63709,2,8,P|440:212|472:208,1,100,8|0,0:0|0:0,0:0:0:0:
300,212,64170,2,0,P|240:180|208:184,1,100
48,340,64632,6,0,L|148:340,1,100,6|0,0:0|0:0,0:0:0:0:
232,264,65093,2,0,L|132:264,1,100,0|0,0:0|0:0,0:0:0:0:
259,340,65555,2,0,P|306:358|352:342,1,100,8|0,0:0|0:0,0:0:0:0:
306,279,66016,1,0,0:0:0:0:
183,325,66247,6,0,P|127:341|83:321,1,100,0|8,0:0|0:0,0:0:0:0:
332,79,66709,2,0,P|378:62|424:77,1,100
236,172,67170,1,0,0:0:0:0:
312,360,67401,2,0,L|362:273,1,100,8|0,0:0|0:0,0:0:0:0:
312,184,67863,2,0,L|261:270,1,100,0|0,0:0|0:0,0:0:0:0:
124,316,68324,5,4,0:0:0:0:
144,108,68555,1,0,0:0:0:0:
256,172,68786,1,0,0:0:0:0:
68,200,69017,1,0,0:0:0:0:
230,275,69247,2,0,B|294:247|366:291|438:255,1,200,8|0,0:0|0:0,0:0:0:0:
176,216,69939,1,0,0:0:0:0:
368,180,70170,6,0,L|340:128,1,50,8|0,0:0|0:0,0:0:0:0:
176,216,70516,1,0,0:0:0:0:
176,216,70632,1,0,0:0:0:0:
200,104,70863,1,0,0:0:0:0:
310,315,71093,2,0,B|288:328|252:304|212:320,1,100,8|0,0:0|0:0,0:0:0:0:
272,236,71555,2,0,B|312:220|348:244|380:228,1,100
104,176,72016,5,6,0:0:0:0:
208,280,72247,1,0,0:0:0:0:
216,56,72478,1,0,0:0:0:0:
128,272,72709,1,0,0:0:0:0:
36,104,72939,1,8,0:0:0:0:
272,236,73170,1,0,0:0:0:0:
256,128,73401,2,0,L|256:28,1,100
376,180,73863,6,0,L|376:280,1,100,4|0,0:0|0:0,0:0:0:0:
312,332,74324,2,0,P|262:340|213:331,2,100,0|0|8,0:0|0:0|0:0,0:0:0:0:
456,232,75016,1,0,0:0:0:0:
376,180,75247,2,0,P|326:171|277:179,1,100,0|0,0:0|0:0,0:0:0:0:
200,228,75709,1,4,0:0:0:0:
256,192,77555,12,0,78939,0:0:0:0:
189,104,79401,6,0,B|136:116|88:72|40:112,1,150,6|0,0:0|0:0,0:0:0:0:
32,128,79863,1,0,0:0:0:0:
0,220,80093,1,0,0:0:0:0:
60,300,80324,1,8,0:0:0:0:
160,292,80555,1,0,0:0:0:0:
196,200,80786,2,0,L|280:144,1,100,0|0,0:0|0:0,0:0:0:0:
400,132,81247,5,8,0:0:0:0:
476,208,81478,1,0,0:0:0:0:
332,208,81709,1,0,0:0:0:0:
400,36,81939,1,0,0:0:0:0:
476,208,82170,1,8,0:0:0:0:
400,132,82401,1,0,0:0:0:0:
260,276,82632,1,0,0:0:0:0:
276,148,82863,1,0,0:0:0:0:
400,132,83093,5,6,0:0:0:0:
95,308,83555,1,0,0:0:0:0:
56,232,83786,1,0,0:0:0:0:
132,193,84016,1,8,0:0:0:0:
170,269,84247,1,0,0:0:0:0:
59,146,84478,1,0,0:0:0:0:
172,104,84709,2,0,B|192:112|228:96|276:108,1,100,0|8,0:0|0:0,0:0:0:0:
400,132,85170,5,0,0:0:0:0:
395,234,85401,2,0,B|352:224|316:240|296:232,1,100,0|0,0:0|0:0,0:0:0:0:
432,328,85863,1,8,0:0:0:0:
232,332,86093,1,0,0:0:0:0:
328,332,86324,1,0,0:0:0:0:
164,272,86555,1,0,0:0:0:0:
164,272,86670,1,0,0:0:0:0:
164,272,86786,5,6,2:0:0:0:
132,77,87247,1,0,0:0:0:0:
379,77,87478,1,0,0:0:0:0:
215,211,87709,1,8,0:0:0:0:
295,211,87939,1,0,0:0:0:0:
191,135,88170,1,0,0:0:0:0:
320,135,88401,1,0,0:0:0:0:
256,88,88632,5,8,2:0:0:0:
378,345,89093,1,0,0:0:0:0:
131,345,89324,1,0,0:0:0:0:
296,212,89555,1,8,0:0:0:0:
191,288,89785,1,0,0:0:0:0:
320,288,90016,1,0,0:0:0:0:
216,212,90247,1,0,0:0:0:0:
255,335,90478,5,6,2:0:0:0:
448,80,90939,1,0,0:0:0:0:
404,160,91170,1,0,0:0:0:0:
324,116,91401,1,8,0:0:0:0:
236,108,91632,1,0,0:0:0:0:
160,152,91863,1,0,0:0:0:0:
132,236,92093,1,0,0:0:0:0:
376,336,92324,6,0,B|348:308|296:324|276:272,1,100,4|0,2:0|0:0,0:0:0:0:
156,64,92786,1,0,0:0:0:0:
248,200,93016,1,0,0:0:0:0:
292,212,93132,1,0,0:0:0:0:
336,208,93247,2,0,P|392:176|404:132,1,100,8|0,2:0|0:0,0:0:0:0:
328,36,93709,1,0,0:0:0:0:
92,164,93939,1,0,0:0:0:0:
324,304,94170,1,6,2:0:0:0:
256,192,107093,12,4,108939,0:0:0:0:
256,192,109401,6,0,P|220:244|176:256,1,100
104,308,109863,1,8,2:0:0:0:
52,180,110093,1,0,0:0:0:0:
16,288,110324,1,0,0:0:0:0:
168,180,110555,1,0,0:0:0:0:
180,224,110670,1,0,0:0:0:0:
208,260,110786,6,0,P|260:276|312:256,1,100,8|0,2:0|0:0,0:0:0:0:
304,124,111247,2,0,P|252:108|200:128,1,100,0|0,2:0|0:0,0:0:0:0:
108,232,111709,1,10,0:0:0:0:
181,333,111940,1,0,0:0:0:0:
300,294,112171,1,0,2:0:0:0:
300,169,112402,1,0,0:0:0:0:
181,132,112632,5,6,2:0:0:0:
368,128,113093,1,0,0:0:0:0:
420,228,113324,2,0,P|444:232|465:245,1,50
416,304,113555,2,0,P|372:328|300:316,1,100,8|0,0:0|0:0,0:0:0:0:
144,256,114016,1,0,0:0:0:0:
92,156,114247,2,0,P|60:148|44:136,1,50
96,80,114478,6,0,P|140:56|212:68,1,100,8|0,0:0|0:0,0:0:0:0:
264,104,114939,1,0,0:0:0:0:
268,192,115170,1,0,0:0:0:0:
196,244,115401,1,8,0:0:0:0:
184,156,115632,1,0,0:0:0:0:
352,216,115863,1,0,0:0:0:0:
208,332,116093,1,0,0:0:0:0:
184,156,116324,5,6,0:0:0:0:
160,56,116555,1,0,0:0:0:0:
160,56,116670,1,0,0:0:0:0:
160,56,116786,2,0,L|76:124,1,100
352,56,117247,2,0,L|436:124,1,100,8|0,0:0|0:0,0:0:0:0:
96,296,117709,2,0,B|120:344|120:344|172:352,2,100,0|0|8,0:0|0:0|0:0,0:0:0:0:
332,120,118401,5,0,0:0:0:0:
136,192,118632,1,0,0:0:0:0:
332,264,118863,1,0,0:0:0:0:
180,120,119093,1,8,0:0:0:0:
376,192,119324,1,0,0:0:0:0:
180,264,119555,1,0,0:0:0:0:
256,72,119786,1,0,0:0:0:0:
332,264,120016,5,6,0:0:0:0:
256,332,120247,1,0,0:0:0:0:
180,264,120478,2,0,P|136:232|84:236,1,100
44,288,120824,1,0,0:0:0:0:
44,288,120940,1,8,0:0:0:0:
256,332,121170,1,0,0:0:0:0:
332,264,121401,2,0,P|376:232|428:236,1,100
468,288,121747,1,0,0:0:0:0:
468,288,121863,5,8,0:0:0:0:
476,188,122093,1,0,0:0:0:0:
384,152,122324,1,0,0:0:0:0:
164,108,122555,1,0,0:0:0:0:
116,240,122785,1,8,0:0:0:0:
256,332,123016,1,0,0:0:0:0:
288,152,123247,1,0,0:0:0:0:
208,180,123478,1,0,0:0:0:0:
276,240,123709,1,6,0:0:0:0:
256,192,123939,12,4,125555,0:0:0:0:
192,240,125786,6,0,L|88:240,1,100,0|0,0:0|0:0,0:0:0:0:
320,192,126247,2,0,L|424:192,1,100,0|8,0:0|0:0,0:0:0:0:
192,132,126709,2,0,L|88:132,1,100,0|0,0:0|0:0,0:0:0:0:
320,84,127170,2,0,L|424:84,1,100,0|8,0:0|0:0,0:0:0:0:
236,56,127632,5,0,0:0:0:0:
320,192,127863,1,0,0:0:0:0:
236,56,128093,1,0,0:0:0:0:
140,192,128324,2,0,L|36:192,1,100,8|0,0:0|0:0,0:0:0:0:
248,192,128786,1,0,0:0:0:0:
140,302,129017,1,0,0:0:0:0:
248,192,129247,5,8,0:0:0:0:
320,248,129478,1,0,0:0:0:0:
316,340,129709,1,0,0:0:0:0:
140,302,129939,1,0,0:0:0:0:
68,246,130170,1,8,0:0:0:0:
72,154,130401,1,0,0:0:0:0:
168,109,130632,1,0,0:0:0:0:
248,193,130863,1,0,0:0:0:0:
328,109,131093,1,6,0:0:0:0:
316,296,138478,5,6,0:0:0:0:
196,296,138709,1,0,0:0:0:0:
380,204,138940,1,0,0:0:0:0:
132,204,139171,1,0,0:0:0:0:
316,112,139402,2,0,P|364:92|416:96,1,100,8|0,0:0|0:0,0:0:0:0:
196,72,139863,2,0,P|148:92|96:88,1,100,0|0,0:0|0:0,0:0:0:0:
132,204,140325,5,8,0:0:0:0:
316,112,140555,1,0,0:0:0:0:
316,300,140786,1,0,0:0:0:0:
196,72,141016,1,0,0:0:0:0:
132,204,141248,2,8,P|72:172|40:176,1,100,8|0,0:0|0:0,0:0:0:0:
212,172,141709,2,0,P|272:204|304:200,1,100
464,44,142171,6,0,L|364:44,1,100,6|0,0:0|0:0,0:0:0:0:
280,120,142632,2,0,L|380:120,1,100,0|0,0:0|0:0,0:0:0:0:
253,44,143093,2,0,P|206:26|160:42,1,100,8|0,0:0|0:0,0:0:0:0:
206,105,143555,1,0,0:0:0:0:
329,59,143786,6,0,P|385:43|429:63,1,100,0|8,0:0|0:0,0:0:0:0:
179,304,144248,2,0,P|133:321|87:306,1,100
304,276,144709,1,0,0:0:0:0:
200,24,144940,2,0,L|150:111,1,100,8|0,0:0|0:0,0:0:0:0:
200,200,145402,2,0,L|251:114,1,100,0|0,0:0|0:0,0:0:0:0:
388,68,145863,5,4,0:0:0:0:
368,276,146094,1,0,0:0:0:0:
256,212,146325,1,0,0:0:0:0:
444,184,146556,1,0,0:0:0:0:
282,109,146786,2,0,B|218:137|146:93|74:129,1,200,8|0,0:0|0:0,0:0:0:0:
336,168,147478,1,0,0:0:0:0:
144,204,147709,6,0,L|172:256,1,50,8|0,0:0|0:0,0:0:0:0:
336,168,148055,1,0,0:0:0:0:
336,168,148171,1,0,0:0:0:0:
312,280,148402,1,0,0:0:0:0:
202,69,148632,2,0,B|224:56|260:80|300:64,1,100,8|0,0:0|0:0,0:0:0:0:
240,148,149094,2,0,B|200:164|164:140|132:156,1,100
408,208,149555,5,6,0:0:0:0:
304,104,149786,1,0,0:0:0:0:
296,328,150017,1,0,0:0:0:0:
384,112,150248,1,0,0:0:0:0:
476,280,150478,1,8,0:0:0:0:
240,148,150709,1,0,0:0:0:0:
256,256,150940,2,0,L|256:356,1,100
136,204,151401,6,0,L|136:104,1,100,4|0,0:0|0:0,0:0:0:0:
200,52,151862,2,0,P|249:43|298:52,2,100,0|0|8,0:0|0:0|0:0,0:0:0:0:
56,152,152554,1,0,0:0:0:0:
136,204,152785,2,0,P|185:212|234:204,1,100,0|0,0:0|0:0,0:0:0:0:
312,156,153247,1,4,0:0:0:0:
256,192,155093,12,0,156478,0:0:0:0:
256,192,156939,5,6,0:0:0:0:
156,332,157401,1,0,0:0:0:0:
94,141,157632,1,0,0:0:0:0:
256,24,157863,1,8,0:0:0:0:
417,141,158093,1,0,0:0:0:0:
355,332,158324,1,0,0:0:0:0:
256,24,158555,1,0,0:0:0:0:
156,332,158786,5,8,0:0:0:0:
356,52,159247,1,0,0:0:0:0:
418,243,159478,1,0,0:0:0:0:
256,360,159709,1,8,0:0:0:0:
95,243,159939,1,0,0:0:0:0:
157,52,160170,1,0,0:0:0:0:
256,360,160401,1,0,0:0:0:0:
356,52,160632,5,4,2:0:0:0:
256,280,161093,1,0,0:0:0:0:
184,180,161324,1,0,0:0:0:0:
328,180,161555,1,8,0:0:0:0:
256,280,161786,1,0,0:0:0:0:
112,80,162017,1,0,0:0:0:0:
400,80,162248,1,0,0:0:0:0:
112,240,162478,6,0,B|72:256|52:280|20:280,1,100,8|0,0:0|0:0,0:0:0:0:
256,96,162939,1,0,0:0:0:0:
400,240,163170,2,0,B|440:256|460:280|492:280,1,100,0|8,0:0|0:0,0:0:0:0:
256,348,163632,1,0,0:0:0:0:
256,267,163863,1,0,0:0:0:0:
257,187,164093,1,0,0:0:0:0:
257,187,164209,1,0,0:0:0:0:
257,187,164324,5,4,0:0:0:0:
144,144,164786,1,0,0:0:0:0:
256,96,165016,1,0,0:0:0:0:
368,144,165247,1,8,0:0:0:0:
56,280,165478,1,0,0:0:0:0:
256,204,165708,1,0,0:0:0:0:
456,280,165939,1,0,0:0:0:0:
256,356,166170,5,8,2:0:0:0:
368,240,166632,1,0,0:0:0:0:
256,288,166862,1,0,0:0:0:0:
144,240,167093,1,8,0:0:0:0:
456,104,167324,1,0,0:0:0:0:
256,180,167554,1,0,0:0:0:0:
56,104,167785,1,0,0:0:0:0:
256,28,168016,5,4,0:0:0:0:
103,345,168478,1,0,0:0:0:0:
176,313,168709,1,0,0:0:0:0:
144,240,168939,1,8,0:0:0:0:
70,272,169170,1,0,0:0:0:0:
256,336,169401,2,0,P|308:348|356:328,1,100,0|0,0:0|0:0,0:0:0:0:
424,264,169863,5,4,0:0:0:0:
448,164,170093,1,0,0:0:0:0:
256,32,170324,2,0,L|256:136,1,100,0|0,0:0|0:0,0:0:0:0:
152,172,170786,1,8,0:0:0:0:
360,344,171016,1,0,0:0:0:0:
96,260,171247,1,0,0:0:0:0:
424,264,171478,1,0,0:0:0:0:
256,264,171709,1,6,0:0:0:0:
