osu file format v13

[General]
AudioFilename: BONDE DA OSKLEY.mp3
AudioLeadIn: 0
PreviewTime: 60939
Countdown: 0
SampleSet: Soft
StackLeniency: 0.7
Mode: 0
LetterboxInBreaks: 1
WidescreenStoryboard: 0

[Editor]
Bookmarks: 31632,47555,60478,78824
DistanceSpacing: 1
BeatDivisor: 4
GridSize: 4
TimelineZoom: 1

[Metadata]
Title:Sereia do Mar
TitleUnicode:Sereia do Mar
Artist:Bonde da Oskley
ArtistUnicode:Bonde da Oskley
Creator:ALust
Version:Collab Insane
Source:
Tags:funk fabriciorby fabricio4p asterio blue dragon gaba amigoproducoes amigos produções marceo marcelo lima portuguese português
BeatmapID:555109
BeatmapSetID:240158

[Difficulty]
HPDrainRate:7
CircleSize:4
OverallDifficulty:7
ApproachRate:8
SliderMultiplier:2
SliderTickRate:2

[Events]
//Background and Video events
0,0,"IMBATIVEISDOFUNK.jpg",0,0
Video,-180,"BONDE DA OSKLEY VIDEO.avi"
//Break Periods
2,53755,60189
2,94370,104497
2,131293,137728
//Storyboard Layer 0 (Background)
//Storyboard Layer 1 (Fail)
//Storyboard Layer 2 (Pass)
//Storyboard Layer 3 (Foreground)
//Storyboard Sound Samples

[TimingPoints]
1863,461.538461538462,4,2,0,70,1,0
79401,-100,4,2,0,70,0,1
94170,-100,4,1,0,70,0,0
106863,-100,4,2,0,70,0,0
152670,-123.456790123457,4,2,0,70,0,0
156939,-100,4,2,0,70,0,1
171709,-100,4,1,0,70,0,0

[Colours]
Combo1 : 0,128,128
Combo2 : 40,255,95
Combo3 : 18,124,255

[HitObjects]
256,192,29555,12,4,31401,0:0:0:0:
48,32,31863,5,0,0:0:0:0:
128,88,32093,1,0,0:0:0:0:
80,176,32324,2,0,P|92:234|219:294,1,200,8|0,0:0|0:0,0:0:0:0:
192,184,33016,1,0,0:0:0:0:
284,250,33247,6,0,P|299:151|235:77,1,200,8|0,0:0|0:0,0:0:0:0:
174,271,33939,1,0,0:0:0:0:
370,301,34170,1,8,0:0:0:0:
264,348,34401,1,0,0:0:0:0:
388,214,34632,1,0,0:0:0:0:
192,184,34863,1,0,0:0:0:0:
284,250,35093,6,0,P|299:151|235:77,1,200,8|0,0:0|0:0,0:0:0:0:
132,84,35786,1,0,0:0:0:0:
92,177,36016,2,0,B|191:184,1,100,8|0,0:0|0:0,0:0:0:0:
301,194,36478,1,0,0:0:0:0:
296,84,36709,1,0,0:0:0:0:
400,51,36939,5,8,0:0:0:0:
470,135,37170,1,0,0:0:0:0:
417,231,37401,2,0,B|361:343,1,100,0|0,0:0|0:0,0:0:0:0:
164,312,37863,2,0,B|220:200,1,100,8|0,0:0|0:0,0:0:0:0:
314,224,38324,2,0,B|258:336,1,100,0|0,0:0|0:0,0:0:0:0:
60,312,38786,6,0,B|116:200,1,100,4|0,0:0|0:0,0:0:0:0:
160,144,39247,2,0,B|170:107|208:102|222:60,2,100,0|0|8,0:0|0:0|0:0,0:0:0:0:
256,192,39939,1,0,0:0:0:0:
352,144,40170,2,0,B|342:107|304:102|290:60,2,100,0|0|8,0:0|0:0|0:0,0:0:0:0:
256,192,40863,5,0,0:0:0:0:
256,192,41093,1,0,0:0:0:0:
160,224,41324,2,0,B|179:277|234:292,1,100,0|8,0:0|0:0,0:0:0:0:
331,262,41786,2,0,B|368:220|356:169,1,100,0|0,0:0|0:0,0:0:0:0:
290,94,42247,2,0,B|241:78|194:109,1,100,0|8,0:0|0:0,0:0:0:0:
160,224,42709,5,0,0:0:0:0:
256,192,42939,1,0,0:0:0:0:
104,144,43170,1,0,0:0:0:0:
56,232,43401,2,0,P|79:292|206:319,1,200,8|0,0:0|0:0,0:0:0:0:
296,304,44093,1,0,0:0:0:0:
376,240,44324,5,8,0:0:0:0:
280,208,44555,1,0,0:0:0:0:
352,136,44786,1,0,0:0:0:0:
256,112,45016,1,0,0:0:0:0:
307,27,45247,2,0,P|206:28|159:109,1,200,8|0,0:0|0:0,0:0:0:0:
176,208,46170,1,4,0:0:0:0:
256,192,46401,12,0,48016,0:0:0:0:
128,176,48247,5,0,0:0:0:0:
192,96,48478,1,8,0:0:0:0:
256,176,48709,1,0,0:0:0:0:
320,96,48939,1,0,0:0:0:0:
384,176,49170,1,0,0:0:0:0:
384,280,49401,1,8,0:0:0:0:
128,276,49863,6,0,L|128:171,1,100,4|0,0:0|0:0,0:0:0:0:
76,107,50324,1,8,0:0:0:0:
217,215,50555,1,0,0:0:0:0:
39,210,50786,1,0,0:0:0:0:
185,108,51016,1,0,0:0:0:0:
128,276,51247,2,0,P|175:315|217:320,1,100,8|0,0:0|0:0,0:0:0:0:
292,320,51709,5,0,0:0:0:0:
212,240,51939,1,0,0:0:0:0:
292,240,52170,1,8,0:0:0:0:
212,320,52401,1,0,0:0:0:0:
292,158,52632,2,0,P|336:174|372:222,1,100,0|0,0:0|0:0,0:0:0:0:
212,320,53093,2,0,P|168:306|132:256,1,100,8|0,0:0|0:0,0:0:0:0:
248,96,53555,1,6,0:0:0:0:
440,352,60939,5,4,0:0:0:0:
360,296,61170,1,0,0:0:0:0:
456,256,61401,1,8,0:0:0:0:
456,256,61632,1,0,0:0:0:0:
456,256,61863,2,0,B|489:218|497:162|480:116|432:76,1,200,0|8,0:0|0:0,0:0:0:0:
368,176,62555,1,0,0:0:0:0:
296,104,62786,5,4,0:0:0:0:
224,176,63016,1,0,0:0:0:0:
200,80,63247,1,8,0:0:0:0:
200,80,63478,1,0,0:0:0:0:
200,80,63709,2,0,B|162:47|106:39|58:63|34:119,1,200,0|8,0:0|0:0,0:0:0:0:
65,213,64401,1,0,0:0:0:0:
28,306,64632,5,0,0:0:0:0:
100,375,64863,1,0,0:0:0:0:
190,332,65093,1,8,0:0:0:0:
172,233,65324,1,0,0:0:0:0:
232,153,65555,2,0,B|270:120|326:112|374:136|398:192,1,200,0|8,0:0|0:0,0:0:0:0:
416,295,66247,1,0,0:0:0:0:
304,228,66478,5,0,0:0:0:0:
512,198,66709,1,0,0:0:0:0:
455,78,66939,1,8,0:0:0:0:
315,103,67170,1,0,0:0:0:0:
315,103,67401,2,0,P|277:129|219:132,2,100,0|0|8,0:0|0:0|0:0,0:0:0:0:
144,64,68093,1,0,0:0:0:0:
88,144,68324,5,0,0:0:0:0:
88,248,68555,1,0,0:0:0:0:
144,328,68786,1,8,0:0:0:0:
144,328,69016,1,0,0:0:0:0:
144,328,69247,2,0,B|344:328,1,200,0|8,0:0|0:0,0:0:0:0:
398,201,69939,1,0,0:0:0:0:
343,31,70170,5,0,0:0:0:0:
432,96,70401,1,0,0:0:0:0:
288,201,70632,1,8,0:0:0:0:
253,96,70863,1,0,0:0:0:0:
432,96,71093,2,0,B|432:304,1,200,0|8,0:0|0:0,0:0:0:0:
256,192,71786,1,0,0:0:0:0:
352,224,72016,5,4,0:0:0:0:
216,304,72247,1,0,0:0:0:0:
160,224,72478,1,8,0:0:0:0:
296,304,72709,1,0,0:0:0:0:
154,142,72939,2,0,B|164:105|202:100|216:58,2,100,0|0|8,0:0|0:0|0:0,0:0:0:0:
130,265,73632,1,0,0:0:0:0:
208,328,73863,5,0,0:0:0:0:
304,328,74093,1,0,0:0:0:0:
384,264,74324,1,8,0:0:0:0:
358,143,74555,1,0,0:0:0:0:
358,143,74786,2,0,B|348:106|310:101|296:59,2,100,0|0|8,0:0|0:0|0:0,0:0:0:0:
256,351,75709,1,4,0:0:0:0:
256,192,75939,12,0,78939,0:0:0:0:
255,83,79401,5,4,0:0:0:0:
472,40,79863,1,8,0:0:0:0:
376,72,80093,1,0,0:0:0:0:
312,144,80324,1,0,0:0:0:0:
350,243,80555,2,0,B|404:227|414:171,1,100,0|8,0:0|0:0,0:0:0:0:
255,83,81016,1,0,0:0:0:0:
144,243,81247,6,0,B|144:315|216:363|296:331,1,200,0|8,0:0|0:0,0:0:0:0:
376,296,81939,1,0,0:0:0:0:
424,208,82170,1,0,0:0:0:0:
344,152,82401,1,0,0:0:0:0:
249,145,82632,2,0,B|247:204|290:233,1,100,8|0,0:0|0:0,0:0:0:0:
288,56,83093,6,0,B|216:27|148:76|148:148,1,200,0|8,0:0|0:0,0:0:0:0:
221,231,83786,1,0,0:0:0:0:
59,100,84016,1,0,0:0:0:0:
8,200,84247,1,0,0:0:0:0:
44,303,84478,1,8,0:0:0:0:
153,318,84709,1,0,0:0:0:0:
221,231,84939,6,0,B|274:249|284:306,2,100,0|0|8,0:0|0:0|0:0,0:0:0:0:
292,80,85632,1,0,0:0:0:0:
376,228,85863,1,0,0:0:0:0:
344,144,86093,2,8,B|298:175|246:147,2,100,0|8|0,0:0|0:0|0:0,0:0:0:0:
372,108,86670,1,0,0:0:0:0:
376,64,86786,5,4,0:0:0:0:
72,328,87247,1,8,0:0:0:0:
152,272,87478,1,0,0:0:0:0:
232,328,87709,1,0,0:0:0:0:
312,272,87939,2,0,B|278:226|223:228,2,100,0|8|0,0:0|0:0|0:0,0:0:0:0:
400,328,88632,6,0,B|429:258|395:178|308:150,1,200,0|8,0:0|0:0,0:0:0:0:
424,120,89324,1,0,0:0:0:0:
344,64,89555,1,0,0:0:0:0:
248,56,89786,1,0,0:0:0:0:
152,56,90016,2,0,B|152:126|224:152,1,100,8|0,0:0|0:0,0:0:0:0:
296,152,90478,6,0,B|320:224|296:296|200:328,1,200,0|8,0:0|0:0,0:0:0:0:
128,328,91170,2,0,B|126:258|188:228,1,100,0|0,0:0|0:0,0:0:0:0:
207,155,91632,2,0,B|202:90|136:58,1,100,0|8,0:0|0:0,0:0:0:0:
104,160,92093,1,0,0:0:0:0:
2,167,92324,6,0,B|8:234|76:262,2,100,0|0|8,0:0|0:0|0:0,0:0:0:0:
42,75,93016,1,0,0:0:0:0:
141,66,93247,1,0,0:0:0:0:
214,133,93478,1,0,0:0:0:0:
187,229,93709,2,8,B|209:289|295:279,1,100,8|0,0:0|0:0,0:0:0:0:
364,265,94170,1,4,0:0:0:0:
256,192,105247,12,4,108939,0:0:0:0:
64,40,109401,5,8,0:0:0:0:
136,112,109632,1,0,0:0:0:0:
64,184,109863,1,0,0:0:0:0:
176,352,110324,1,8,0:0:0:0:
256,288,110555,1,0,0:0:0:0:
336,352,110786,5,0,0:0:0:0:
456,248,111247,1,8,0:0:0:0:
482,141,111478,1,0,0:0:0:0:
392,76,111709,1,0,0:0:0:0:
301,137,111939,1,0,0:0:0:0:
301,137,112170,2,0,B|283:187|298:237,2,100,8|0|0,0:0|0:0|0:0,0:0:0:0:
104,336,113093,5,8,0:0:0:0:
56,248,113324,1,0,0:0:0:0:
160,248,113555,2,0,B|232:224|304:248|336:344,1,200,0|8,0:0|0:0,0:0:0:0:
424,336,114247,1,0,0:0:0:0:
448,240,114478,5,0,0:0:0:0:
448,136,114709,1,0,0:0:0:0:
384,56,114939,1,8,0:0:0:0:
328,136,115170,1,0,0:0:0:0:
328,136,115401,2,0,B|256:160|184:136|152:40,2,200,0|8|0,0:0|0:0|0:0,0:0:0:0:
296,232,116555,5,0,0:0:0:0:
232,312,116786,1,8,0:0:0:0:
133,297,117016,2,0,B|74:281|61:219,2,100,0|0|0,0:0|0:0|0:0,0:0:0:0:
159,200,117709,1,8,0:0:0:0:
80,136,117939,1,0,0:0:0:0:
160,200,118170,5,0,0:0:0:0:
80,136,118401,1,0,0:0:0:0:
176,96,118632,1,8,0:0:0:0:
176,96,118863,2,0,B|230:78|239:15,2,100,0|0|0,0:0|0:0|0:0,0:0:0:0:
176,96,119555,1,8,0:0:0:0:
248,168,119786,1,0,0:0:0:0:
361,158,120016,6,0,B|356:101|313:74,2,100,0|0|8,0:0|0:0|0:0,0:0:0:0:
184,64,120709,1,0,0:0:0:0:
96,104,120939,1,0,0:0:0:0:
96,104,121170,1,0,0:0:0:0:
64,200,121401,2,0,B|136:176|208:200|240:296,1,200,8|0,0:0|0:0,0:0:0:0:
320,320,122093,5,0,0:0:0:0:
392,248,122324,1,8,0:0:0:0:
464,320,122555,1,0,0:0:0:0:
464,320,122786,2,0,B|464:80,2,200,0|8|4,0:0|0:0|0:0,0:0:0:0:
256,192,123939,12,0,125555,0:0:0:0:
136,192,125786,5,0,0:0:0:0:
256,95,126016,1,8,0:0:0:0:
376,192,126247,1,0,0:0:0:0:
256,288,126478,1,0,0:0:0:0:
256,192,126709,1,0,0:0:0:0:
256,95,126939,1,8,0:0:0:0:
60,140,127401,6,0,P|48:208|64:252,1,100
144,288,127863,1,8,0:0:0:0:
144,288,128093,2,0,L|256:288,2,100,0|0|0,0:0|0:0|0:0,0:0:0:0:
256,192,128786,2,0,L|356:192,1,100,8|0,0:0|0:0,0:0:0:0:
452,224,129247,5,0,0:0:0:0:
356,93,129478,1,0,0:0:0:0:
510,143,129709,1,8,0:0:0:0:
452,62,129939,1,0,0:0:0:0:
356,193,130170,2,0,P|328:244|288:276,1,100
196,272,130632,2,0,L|88:272,1,100,8|0,0:0|0:0,0:0:0:0:
36,192,131093,1,4,0:0:0:0:
400,192,138478,5,4,0:0:0:0:
328,264,138709,1,0,0:0:0:0:
256,192,138939,1,8,0:0:0:0:
184,264,139170,1,0,0:0:0:0:
232,356,139401,2,0,B|152:380|92:340|84:260,1,200,0|8,0:0|0:0,0:0:0:0:
96,160,140093,1,0,0:0:0:0:
160,88,140324,5,0,0:0:0:0:
256,64,140555,1,0,0:0:0:0:
352,88,140786,1,8,0:0:0:0:
424,160,141016,1,0,0:0:0:0:
443,63,141247,2,0,B|515:79|547:159|503:225,1,200,0|8,0:0|0:0,0:0:0:0:
432,288,141939,1,0,0:0:0:0:
353,224,142170,6,0,B|320:264|335:320,2,100,0|0|8,0:0|0:0|0:0,0:0:0:0:
280,152,142863,1,0,0:0:0:0:
245,42,143093,2,0,B|179:66|147:135|180:206,1,200,0|8,0:0|0:0,0:0:0:0:
308,280,143786,1,0,0:0:0:0:
118,271,144016,5,0,0:0:0:0:
216,323,144247,1,0,0:0:0:0:
229,224,144478,2,0,B|256:271|307:280,1,100,8|0,0:0|0:0,0:0:0:0:
321,175,144939,2,0,B|253:148|234:64|286:5,1,200,0|8,0:0|0:0,0:0:0:0:
360,80,145632,1,0,0:0:0:0:
312,240,145863,5,0,0:0:0:0:
440,144,146093,1,0,0:0:0:0:
280,144,146324,1,8,0:0:0:0:
416,240,146555,1,0,0:0:0:0:
512,242,146786,2,0,B|510:318|433:362|365:325,1,200,0|8,0:0|0:0,0:0:0:0:
280,272,147478,1,0,0:0:0:0:
208,200,147709,5,0,0:0:0:0:
280,128,147939,1,0,0:0:0:0:
208,56,148170,1,8,0:0:0:0:
136,128,148401,1,0,0:0:0:0:
136,128,148632,1,0,0:0:0:0:
31,89,148863,2,0,B|6:157|46:229|119:240,1,200,0|2,0:0|0:0,0:0:0:0:
224,248,149555,5,0,0:0:0:0:
320,216,149786,1,0,0:0:0:0:
368,128,150016,1,8,0:0:0:0:
344,32,150247,1,0,0:0:0:0:
436,55,150478,2,0,B|488:106|473:192|406:222,1,200,0|8,0:0|0:0,0:0:0:0:
284,264,151170,1,0,0:0:0:0:
400,352,151401,5,0,0:0:0:0:
304,360,151632,1,0,0:0:0:0:
284,264,151863,2,0,B|228:288|180:248,1,100,8|0,0:0|0:0,0:0:0:0:
124,176,152324,1,0,0:0:0:0:
80,264,152555,1,0,0:0:0:0:
0,240,152786,6,0,B|-24:304|24:384|144:392|184:312|224:208|56:160|56:160|232:176|256:8|256:8|280:176|456:160|456:160|288:208|328:312|368:392|488:384|536:304|512:240,1,1458.000024333,8|4,0:0|0:0,2:2:0:0:
464,48,157401,5,0,0:0:0:0:
376,88,157632,1,0,0:0:0:0:
448,160,157863,1,8,0:0:0:0:
392,240,158093,2,0,B|368:288|312:304,3,100,0|0|0|8,0:0|0:0|0:0|0:0,0:0:0:0:
48,48,159247,5,0,0:0:0:0:
136,88,159478,1,0,0:0:0:0:
64,160,159709,1,8,0:0:0:0:
128,240,159939,2,0,B|152:288|208:304,3,100,0|0|0|8,0:0|0:0|0:0|0:0,0:0:0:0:
392,192,161093,5,0,0:0:0:0:
256,48,161324,1,0,0:0:0:0:
112,192,161555,1,8,0:0:0:0:
256,336,161786,1,0,0:0:0:0:
256,192,162016,1,0,0:0:0:0:
256,192,162247,1,0,0:0:0:0:
256,192,162478,1,8,0:0:0:0:
456,48,162939,5,0,0:0:0:0:
256,192,163170,1,8,0:0:0:0:
256,192,163632,1,0,0:0:0:0:
56,48,163863,1,8,0:0:0:0:
256,192,164324,1,4,0:0:0:0:
56,336,164786,5,0,0:0:0:0:
96,248,165016,1,0,0:0:0:0:
176,312,165247,2,0,B|224:280|216:216,1,100,8|0,0:0|0:0,0:0:0:0:
152,152,165709,1,0,0:0:0:0:
64,112,165939,1,0,0:0:0:0:
144,48,166170,1,8,0:0:0:0:
456,48,166632,5,0,0:0:0:0:
416,136,166862,1,0,0:0:0:0:
336,72,167093,2,0,B|288:104|296:168,1,100,8|0,0:0|0:0,0:0:0:0:
360,232,167555,1,0,0:0:0:0:
448,272,167785,1,0,0:0:0:0:
368,336,168016,1,8,0:0:0:0:
120,192,168478,5,0,0:0:0:0:
256,48,168709,1,0,0:0:0:0:
400,192,168939,1,8,0:0:0:0:
256,336,169170,1,0,0:0:0:0:
256,192,169401,1,0,0:0:0:0:
256,192,169632,1,0,0:0:0:0:
256,192,169863,1,8,0:0:0:0:
256,266,170324,6,4,B|291:227|374:262|374:367|291:415|172:398|120:336|120:213|199:174|256:165|256:165|256:60,1,600,0|4,0:0|0:0,0:0:0:0:
