osu file format v13

[General]
AudioFilename: BONDE DA OSKLEY.mp3
AudioLeadIn: 0
PreviewTime: 60939
Countdown: 0
SampleSet: Soft
StackLeniency: 0.7
Mode: 0
LetterboxInBreaks: 1
WidescreenStoryboard: 0

[Editor]
Bookmarks: 29555,49863,64286,79401,107093
DistanceSpacing: 1
BeatDivisor: 2
GridSize: 4
TimelineZoom: 0.6999999

[Metadata]
Title:Sereia do Mar
TitleUnicode:Sereia do Mar
Artist:Bonde da Oskley
ArtistUnicode:Bonde da Oskley
Creator:ALust
Version:Collab Easy
Source:
Tags:funk fabriciorby fabricio4p asterio blue dragon gaba amigoproducoes amigos produções marceo marcelo lima portuguese português
BeatmapID:555112
BeatmapSetID:240158

[Difficulty]
HPDrainRate:3
CircleSize:3
OverallDifficulty:2
ApproachRate:3
SliderMultiplier:0.999999999999999
SliderTickRate:1

[Events]
//Background and Video events
0,0,"IMBATIVEISDOFUNK.jpg",0,0
Video,-180,"BONDE DA OSKLEY VIDEO.avi"
//Break Periods
2,53755,59499
2,94370,103807
2,131293,137038
//Storyboard Layer 0 (Background)
//Storyboard Layer 1 (Fail)
//Storyboard Layer 2 (Pass)
//Storyboard Layer 3 (Foreground)
//Storyboard Sound Samples

[TimingPoints]
1863,461.538461538462,4,2,0,60,1,0
79401,-100,4,2,0,60,0,1
94170,-100,4,2,0,60,0,0
156939,-100,4,2,0,60,0,1
171709,-100,4,2,0,60,0,0

[Colours]
Combo1 : 0,128,128
Combo2 : 40,255,95
Combo3 : 18,124,255

[HitObjects]
256,192,27709,12,4,30016,0:0:0:0:
32,81,31401,5,4,0:0:0:0:
119,32,31863,2,0,P|135:80|119:127,1,99.9999999999999,0|8,0:0|0:0,0:0:0:0:
48,200,32786,1,0,0:0:0:0:
120,272,33247,1,8,0:0:0:0:
192,200,33709,1,0,0:0:0:0:
264,272,34170,1,8,0:0:0:0:
352,320,34632,2,0,B|440:264|440:264,1,99.9999999999999,0|8,0:0|0:0,0:0:0:0:
436,168,35555,6,0,B|436:112,2,50,0|0|8,0:0|0:0|0:0,0:0:0:0:
344,132,36478,1,0,0:0:0:0:
332,32,36939,2,0,P|284:48|252:88,1,99.9999999999999,8|0,0:0|0:0,0:0:0:0:
152,85,37863,2,0,P|120:47|73:31,2,99.9999999999999,8|0|4,0:0|0:0|0:0,0:0:0:0:
247,125,39247,5,0,0:0:0:0:
173,192,39709,1,8,0:0:0:0:
95,255,40170,2,0,B|39:215,2,50,0|0|8,0:0|0:0|0:0,0:0:0:0:
173,316,41093,1,0,0:0:0:0:
253,255,41555,1,8,0:0:0:0:
331,316,42016,2,0,P|379:308|403:260,1,99.9999999999999,0|8,0:0|0:0,0:0:0:0:
353,179,42939,6,0,B|409:179,2,50,0|0|8,0:0|0:0|0:0,0:0:0:0:
252,179,43863,2,0,B|252:123|252:123,2,50,0|0|8,0:0|0:0|0:0,0:0:0:0:
203,266,44786,1,0,0:0:0:0:
256,350,45247,2,0,B|540:378|540:2|256:42,1,599.999999999999,0|4,0:0|0:0,0:0:0:0:
220,132,48478,5,0,0:0:0:0:
135,79,48939,1,8,0:0:0:0:
72,157,49401,1,0,0:0:0:0:
134,235,49863,2,0,B|134:283,2,50,8|0|0,0:0|0:0|0:0,0:0:0:0:
220,182,50786,2,0,B|220:134,2,50,0|0|0,0:0|0:0|0:0,0:0:0:0:
247,277,51709,6,0,P|303:277|351:237,1,99.9999999999999,8|0,0:0|0:0,0:0:0:0:
417,192,52632,2,0,L|473:192,2,50,0|0|0,0:0|0:0|0:0,0:0:0:0:
323,156,53555,1,6,0:0:0:0:
440,136,60939,6,0,P|452:88|440:40,2,99.9999999999999,4|0|8,0:0|0:0|0:0,0:0:0:0:
360,200,62324,1,0,0:0:0:0:
360,296,62786,2,0,B|460:296,2,99.9999999999999,8|0|8,0:0|0:0|0:0,0:0:0:0:
272,328,64170,1,0,0:0:0:0:
192,272,64632,5,8,0:0:0:0:
108,328,65093,1,0,0:0:0:0:
78,232,65555,2,0,P|130:201|152:163,1,99.9999999999999,8|0,0:0|0:0,0:0:0:0:
52,128,66478,1,8,0:0:0:0:
132,72,66939,2,0,B|132:16,2,50,0|0|8,0:0|0:0|0:0,0:0:0:0:
232,71,67863,1,0,0:0:0:0:
324,108,68324,5,8,0:0:0:0:
396,177,68786,1,0,0:0:0:0:
394,276,69247,1,8,0:0:0:0:
308,328,69709,2,0,P|256:340|206:329,1,99.9999999999999,0|8,0:0|0:0,0:0:0:0:
256,232,70632,2,0,L|256:176,2,50,0|0|8,0:0|0:0|0:0,0:0:0:0:
160,208,71555,6,0,P|149:160|160:107,1,99.9999999999999,0|4,0:0|0:0,0:0:0:0:
255,85,72478,2,0,P|266:133|255:186,1,99.9999999999999,0|8,0:0|0:0,0:0:0:0:
160,208,73401,1,0,0:0:0:0:
160,308,73863,2,0,L|264:308,1,99.9999999999999,8|0,0:0|0:0,0:0:0:0:
360,308,74786,2,0,L|460:308,1,99.9999999999999,8|0,0:0|0:0,0:0:0:0:
256,192,75709,12,0,78016,0:0:0:0:
255,172,79401,5,4,0:0:0:0:
183,102,79863,2,0,P|130:93|73:105,1,99.9999999999999,0|8,0:0|0:0,0:0:0:0:
16,172,80786,1,0,0:0:0:0:
16,272,81247,1,8,0:0:0:0:
96,336,81709,2,0,P|144:348|200:332,1,99.9999999999999,0|8,0:0|0:0,0:0:0:0:
292,324,82632,2,0,L|364:324,2,50,0|0|8,0:0|0:0|0:0,0:0:0:0:
288,224,83555,6,0,L|288:124,1,99.9999999999999,0|8,0:0|0:0,0:0:0:0:
324,32,84478,2,0,P|352:48|368:72,2,50,0|0|8,0:0|0:0|0:0,0:0:0:0:
259,111,85401,2,0,P|237:100|221:82,2,50,0|0|8,0:0|0:0|0:0,0:0:0:0:
196,184,86324,2,0,L|196:288,1,99.9999999999999,0|4,0:0|0:0,0:0:0:0:
280,332,87247,6,0,P|328:343|376:331,1,99.9999999999999,0|8,0:0|0:0,0:0:0:0:
456,272,88170,1,0,0:0:0:0:
456,172,88632,1,8,0:0:0:0:
380,108,89093,2,0,P|331:96|283:108,1,99.9999999999999,0|8,0:0|0:0,0:0:0:0:
207,172,90016,2,0,P|175:176|143:160,2,50,0|0|8,0:0|0:0|0:0,0:0:0:0:
300,208,90939,6,0,P|311:256|300:309,1,99.9999999999999,0|8,0:0|0:0,0:0:0:0:
206,336,91863,1,0,0:0:0:0:
110,309,92324,2,0,P|99:261|110:208,1,99.9999999999999,8|0,0:0|0:0,0:0:0:0:
178,140,93247,2,0,P|234:140|270:112,1,99.9999999999999,8|0,0:0|0:0,0:0:0:0:
196,44,94170,1,6,0:0:0:0:
256,192,105247,12,4,107555,0:0:0:0:
256,293,108939,6,0,L|256:192,1,99.9999999999999,4|0,0:0|0:0,0:0:0:0:
256,92,109863,2,0,L|156:92,1,99.9999999999999,8|0,0:0|0:0,0:0:0:0:
72,148,110786,2,0,P|60:196|78:246,1,99.9999999999999,8|0,0:0|0:0,0:0:0:0:
164,192,111709,2,0,L|268:192,2,99.9999999999999,8|0|8,0:0|0:0|0:0,0:0:0:0:
164,292,113093,5,0,0:0:0:0:
256,336,113555,2,0,P|312:340|356:324,1,99.9999999999999,8|0,0:0|0:0,0:0:0:0:
396,236,114478,2,0,L|396:136,2,99.9999999999999,8|0|8,0:0|0:0|0:0,0:0:0:0:
296,236,115863,1,0,0:0:0:0:
296,136,116324,5,4,0:0:0:0:
220,72,116786,2,0,P|168:84|140:120,1,99.9999999999999,0|8,0:0|0:0,0:0:0:0:
56,172,117709,2,0,P|87:209|136:220,1,99.9999999999999,0|8,0:0|0:0,0:0:0:0:
232,188,118632,2,0,L|274:214,2,50,0|0|8,0:0|0:0|0:0,0:0:0:0:
220,288,119555,2,0,P|272:304|328:292,1,99.9999999999999,0|8,0:0|0:0,0:0:0:0:
396,236,120478,6,0,L|396:136,1,99.9999999999999,0|8,0:0|0:0,0:0:0:0:
328,64,121401,1,0,0:0:0:0:
276,148,121863,2,0,L|184:200,1,99.9999999999999,8|0,0:0|0:0,0:0:0:0:
100,244,122786,2,0,P|88:296|116:332,1,99.9999999999999,8|0,0:0|0:0,0:0:0:0:
256,192,123709,12,0,126017,0:0:0:0:
128,236,127401,6,0,P|104:276|56:304,2,99.9999999999999,8|0|8,0:0|0:0|0:0,0:0:0:0:
228,236,128786,1,0,0:0:0:0:
328,236,129247,2,0,L|412:300,1,99.9999999999999,8|0,0:0|0:0,0:0:0:0:
460,212,130170,2,0,L|376:148,1,99.9999999999999,8|0,0:0|0:0,0:0:0:0:
280,148,131093,1,6,0:0:0:0:
56,192,138478,6,0,L|156:192,1,99.9999999999999,4|0,0:0|0:0,0:0:0:0:
256,192,139401,2,0,L|328:120,1,99.9999999999999,8|0,0:0|0:0,0:0:0:0:
408,64,140324,2,0,L|460:64,2,50,8|0|0,0:0|0:0|0:0,0:0:0:0:
408,164,141247,2,0,L|464:164,2,50,8|0|0,0:0|0:0|0:0,0:0:0:0:
408,264,142170,6,0,P|356:288|308:280,1,99.9999999999999,8|0,0:0|0:0,0:0:0:0:
240,216,143093,2,0,L|136:216,1,99.9999999999999,8|0,0:0|0:0,0:0:0:0:
80,136,144016,2,0,L|24:136,2,50,8|0|0,0:0|0:0|0:0,0:0:0:0:
140,48,144939,2,0,L|240:48,1,99.9999999999999,8|0,0:0|0:0,0:0:0:0:
328,80,145863,6,0,P|364:128|328:252,1,200,4|8,0:0|0:0,0:0:0:0:
256,324,147247,1,0,0:0:0:0:
184,252,147709,2,0,P|141:166|184:80,1,200,8|8,0:0|0:0,0:0:0:0:
236,168,149093,1,0,0:0:0:0:
296,248,149555,6,0,P|372:268|460:192,1,200,4|8,0:0|0:0,0:0:0:0:
360,164,150939,2,0,P|312:147|261:147,2,99.9999999999999,0|8|0,0:0|0:0|0:0,0:0:0:0:
444,110,152324,1,8,0:0:0:0:
385,27,152786,2,0,P|335:26|288:9,1,99.9999999999999,0|4,0:0|0:0,0:0:0:0:
256,192,153709,12,4,155555,0:0:0:0:
256,80,156939,6,0,L|256:180,1,99.9999999999999,4|0,0:0|0:0,0:0:0:0:
356,192,157863,2,0,P|388:236|324:352,1,200,8|8,0:0|0:0,0:0:0:0:
256,280,159247,1,0,0:0:0:0:
184,350,159709,2,0,P|120:280|156:192,1,200,8|8,0:0|0:0,0:0:0:0:
256,177,161093,5,0,0:0:0:0:
256,76,161555,2,0,L|360:76,2,99.9999999999999,8|0|8,0:0|0:0|0:0,0:0:0:0:
256,177,162939,1,0,0:0:0:0:
256,177,163401,2,0,P|312:173|355:200,1,99.9999999999999
343,293,164324,5,4,0:0:0:0:
256,344,164786,2,0,L|152:344,1,99.9999999999999,0|8,0:0|0:0,0:0:0:0:
88,272,165709,2,0,L|28:272,2,50,0|0|8,0:0|0:0|0:0,0:0:0:0:
156,200,166632,2,0,L|260:200,1,99.9999999999999,0|8,0:0|0:0,0:0:0:0:
332,136,167555,2,0,L|392:136,2,50,0|0|8,0:0|0:0|0:0,0:0:0:0:
256,68,168478,6,0,P|192:64|108:160,1,200
108,260,169863,1,8,0:0:0:0:
200,296,170324,2,0,L|304:296,1,99.9999999999999,0|8,0:0|0:0,0:0:0:0:
336,204,171247,2,0,L|232:204,1,99.9999999999999,0|6,0:0|0:0,0:0:0:0:
