osu file format v9

[General]
AudioFilename: 06 Bond - Wintersun.mp3
AudioLeadIn: 0
PreviewTime: 60220
Countdown: 0
SampleSet: Normal
StackLeniency: 0.7
Mode: 0
LetterboxInBreaks: 0

[Editor]
Bookmarks: 178866,182199,185533,189720
DistanceSpacing: 1
BeatDivisor: 4
GridSize: 8

[Metadata]
Title:Wintersun
Artist:Bond
Creator:Gabi
Version:Hard
Source:
Tags:

[Difficulty]
HPDrainRate:8
CircleSize:4
OverallDifficulty:8
ApproachRate:7
SliderMultiplier:1.7
SliderTickRate:1

[Events]
//Background and Video events
0,0,"princesse-of-ice.jpg"
//Break Periods
2,87399,102966
2,130941,132966
2,134274,136299
2,137608,139633
2,140941,142133
2,175748,187981
//Storyboard Layer 0 (Background)
//Storyboard Layer 1 (Fail)
//Storyboard Layer 2 (Pass)
//Storyboard Layer 3 (Foreground)
//Storyboard Sound Samples
//Background Colour Transformations
3,100,0,0,0

[TimingPoints]
20533,416.666666666667,4,1,1,40,1,0
33866,-100,4,2,0,60,0,0
37095,-100,4,1,2,50,0,0
37303,-100,4,2,2,60,0,0
37928,-100,4,1,2,50,0,0
38137,-100,4,2,2,60,0,0
38762,-100,4,1,2,50,0,0
38970,-100,4,2,2,60,0,0
39595,-100,4,1,2,50,0,0
39803,-100,4,2,2,60,0,0
40012,-100,4,1,2,50,0,0
40116,-100,4,2,2,60,0,0
40324,-100,4,1,2,50,0,0
40428,-100,4,2,2,60,0,0
43762,-100,4,1,2,50,0,0
43970,-100,4,2,2,60,0,0
44178,-100,4,2,1,60,0,0
44387,-100,4,2,2,60,0,0
44595,-100,4,1,2,50,0,0
44803,-100,4,2,1,60,0,0
45324,-100,4,2,2,60,0,0
45428,-100,4,1,2,50,0,0
45637,-100,4,2,2,60,0,0
45845,-100,4,2,1,60,0,0
46053,-100,4,2,2,60,0,0
46262,-100,4,1,2,50,0,0
47095,-100,4,2,2,60,0,0
50428,-100,4,1,2,50,0,0
50637,-100,4,2,2,60,0,0
51262,-100,4,1,2,50,0,0
51470,-100,4,2,2,60,0,0
52095,-100,4,1,2,50,0,0
52303,-100,4,2,2,60,0,0
52928,-100,4,1,2,50,0,0
53137,-100,4,2,2,60,0,0
56991,-100,4,2,1,50,0,0
60324,-100,4,2,2,70,0,0
60428,-100,4,1,2,60,0,0
60637,-100,4,2,2,70,0,0
61262,-100,4,1,2,60,0,0
61470,-100,4,2,2,70,0,0
62095,-100,4,1,2,60,0,0
62303,-100,4,2,2,70,0,0
62928,-100,4,1,2,60,0,0
63137,-100,4,2,2,70,0,0
63762,-100,4,1,2,60,0,0
63970,-100,4,2,2,70,0,0
64595,-100,4,1,2,60,0,0
64803,-100,4,2,2,70,0,0
65428,-100,4,1,2,60,0,0
65637,-100,4,2,2,70,0,0
66262,-100,4,1,2,60,0,0
66470,-100,4,2,2,70,0,0
67095,-100,4,1,2,60,0,0
67303,-100,4,2,2,70,0,0
67928,-100,4,1,2,60,0,0
68137,-100,4,2,2,70,0,0
68762,-100,4,1,2,60,0,0
68970,-100,4,2,2,70,0,0
69595,-100,4,1,2,60,0,0
69803,-100,4,2,2,70,0,0
70428,-100,4,1,2,60,0,0
70637,-100,4,2,2,70,0,0
71262,-100,4,1,2,60,0,0
71470,-100,4,2,2,70,0,0
72095,-100,4,1,2,60,0,0
72303,-100,4,2,2,70,0,0
72928,-100,4,1,2,60,0,0
73970,-100,4,2,2,70,0,0
74595,-100,4,1,2,60,0,0
74803,-100,4,2,2,70,0,0
75428,-100,4,1,2,60,0,0
75637,-100,4,2,2,70,0,0
76262,-100,4,1,2,60,0,0
76470,-100,4,2,2,70,0,0
77095,-100,4,1,2,60,0,0
77303,-100,4,2,2,70,0,0
77928,-100,4,1,2,60,0,0
78137,-100,4,2,2,70,0,0
78762,-100,4,1,2,60,0,0
78970,-100,4,2,2,70,0,0
79595,-100,4,1,2,60,0,0
79803,-100,4,2,2,70,0,0
80428,-100,4,1,2,60,0,0
80637,-100,4,2,2,70,0,0
81262,-100,4,1,2,50,0,0
81470,-100,4,2,2,70,0,0
81887,-100,4,1,2,50,0,0
82303,-100,4,2,2,70,0,0
82928,-100,4,1,2,60,0,0
83137,-100,4,2,2,70,0,0
83553,-100,4,1,2,60,0,0
83762,-100,4,1,2,55,0,0
83970,-100,4,2,2,70,0,0
84283,-100,4,1,2,60,0,0
84595,-100,4,1,2,55,0,0
84803,-100,4,2,2,70,0,0
85116,-100,4,1,2,60,0,0
85428,-100,4,1,2,55,0,0
85637,-100,4,2,2,70,0,0
85949,-100,4,1,2,55,0,0
86053,-100,4,2,2,70,0,0
86366,-100,4,1,2,55,0,0
86470,-100,4,2,2,70,0,0
86574,-100,4,1,2,60,0,0
86783,-100,4,1,2,55,0,0
86887,-100,4,1,2,60,0,0
87199,-100,4,2,1,70,0,0
103866,-100,4,2,1,70,0,0
145533,-100,4,2,1,0,0,0
147303,-100,4,2,1,10,0,0
147512,-100,4,2,1,20,0,0
147720,-100,4,2,1,30,0,0
147928,-100,4,2,1,40,0,0
148137,-100,4,2,1,50,0,0
148345,-100,4,2,1,60,0,0
148553,-100,4,2,1,70,0,0
149178,-100,4,2,2,70,0,0
149595,-100,4,1,2,60,0,0
149803,-100,4,2,2,70,0,0
150428,-100,4,1,2,60,0,0
150637,-100,4,2,2,70,0,0
151262,-100,4,1,2,60,0,0
151470,-100,4,2,2,70,0,0
152095,-100,4,1,2,60,0,0
152303,-100,4,2,2,70,0,0
152928,-100,4,1,2,60,0,0
153137,-100,4,2,2,70,0,0
153762,-100,4,1,2,60,0,0
153970,-100,4,2,2,70,0,0
154595,-100,4,1,2,60,0,0
154803,-100,4,2,2,70,0,0
155428,-100,4,1,2,60,0,0
155637,-100,4,2,2,70,0,0
156262,-100,4,1,2,60,0,0
156470,-100,4,2,2,70,0,0
157095,-100,4,1,2,60,0,0
157303,-100,4,2,2,70,0,0
157928,-100,4,1,2,60,0,0
158137,-100,4,2,2,70,0,0
158762,-100,4,1,2,60,0,0
158970,-100,4,2,2,70,0,0
159595,-100,4,1,2,60,0,0
159803,-100,4,2,2,70,0,0
160428,-100,4,1,2,60,0,0
160637,-100,4,2,2,70,0,0
161262,-100,4,1,2,60,0,0
162303,-100,4,2,2,70,0,0
162928,-100,4,1,2,60,0,0
163137,-100,4,2,2,70,0,0
163762,-100,4,1,2,60,0,0
163970,-100,4,2,2,70,0,0
164595,-100,4,1,2,60,0,0
164803,-100,4,2,2,70,0,0
165428,-100,4,1,2,60,0,0
165637,-100,4,2,2,70,0,0
166262,-100,4,1,2,60,0,0
166470,-100,4,2,2,70,0,0
167095,-100,4,1,2,60,0,0
167303,-100,4,2,2,70,0,0
167928,-100,4,1,2,60,0,0
168137,-100,4,2,2,70,0,0
168762,-100,4,1,2,60,0,0
168970,-100,4,2,2,70,0,0
169595,-100,4,1,2,60,0,0
169803,-100,4,2,2,70,0,0
170220,-100,4,1,2,60,0,0
170637,-100,4,2,2,70,0,0
171262,-100,4,1,2,60,0,0
171470,-100,4,2,2,70,0,0
171887,-100,4,1,2,60,0,0
172303,-100,4,2,2,70,0,0
172616,-100,4,1,2,60,0,0
172720,-100,4,2,2,70,0,0
172928,-100,4,1,2,60,0,0
173137,-100,4,2,2,70,0,0
173449,-100,4,1,2,60,0,0
173553,-100,4,2,2,70,0,0
173762,-100,4,1,2,60,0,0
173970,-100,4,2,2,70,0,0
174283,-100,4,1,2,60,0,0
174387,-100,4,2,2,70,0,0
174699,-100,4,1,2,60,0,0
175012,-100,4,2,2,70,0,0
175116,-100,4,1,2,60,0,0
175548,416.666666666667,4,2,1,70,1,0
198777,-100,4,2,1,50,0,0
199298,-100,4,2,1,60,0,0
199714,-100,4,2,1,70,0,0
200131,-100,4,2,1,80,0,0
200548,-100,4,2,1,90,0,0
200964,-100,4,2,1,100,0,0
202110,-100,4,2,1,0,0,0

[Colours]
Combo1 : 11,61,153
Combo2 : 0,168,168
Combo3 : 226,226,226

[HitObjects]
128,64,20532,1,2
128,64,20637,1,0
224,40,20845,1,2
224,40,20949,1,0
288,120,21157,1,2
384,88,21366,2,0,B|504:24,2,127.5,2|2|2
464,152,22199,1,2
464,152,22303,1,0
368,192,22512,1,2
368,192,22616,1,0
272,152,22824,1,2
176,192,23033,1,2
96,320,23345,1,2
192,280,23553,1,0
192,280,23658,1,2
384,320,23866,5,2
384,320,23970,1,0
288,344,24178,1,2
288,344,24283,1,0
224,264,24491,1,2
128,296,24699,2,0,B|8:360,2,127.5,2|2|2
48,232,25533,1,2
48,232,25637,1,0
144,192,25845,1,2
144,192,25949,1,0
240,232,26158,1,2
336,192,26366,1,2
416,64,26678,1,2
320,104,26887,1,0
320,104,26991,1,2
184,240,27199,5,2
160,264,27303,1,0
136,288,27408,1,0
160,312,27512,1,0
184,336,27616,1,2
256,288,27824,1,0
328,336,28033,1,2
352,312,28137,1,0
376,288,28241,1,0
352,264,28345,1,0
328,240,28449,1,2
256,192,28658,1,0
184,144,28866,5,2
160,120,28970,1,0
136,96,29074,1,0
160,72,29178,1,0
184,48,29283,1,2
256,96,29491,1,0
328,48,29699,1,2
352,72,29803,1,0
376,96,29908,1,0
352,120,30012,1,0
328,144,30116,1,2
256,192,30324,1,0
56,320,30533,5,2
80,304,30637,1,0
168,248,30845,1,2
192,264,30949,1,0
280,312,31158,1,2
368,368,31366,2,0,B|440:352|464:264,1,127.5,0|2
408,192,31887,1,0
432,176,31991,1,2
512,120,32199,5,2
488,104,32303,1,0
424,24,32512,1,2
400,40,32616,1,0
376,56,32720,1,2
312,112,32928,1,0
328,136,33033,1,2
344,160,33137,1,0
360,184,33241,1,2
344,208,33345,1,2
328,232,33449,1,2
312,256,33553,1,2
328,280,33658,1,0
344,304,33762,1,0
360,328,33866,5,2
184,280,34178,1,2
184,304,34283,1,0
24,256,34491,1,2
24,280,34595,1,0
24,304,34699,1,2
104,352,34908,1,2
104,328,35012,1,0
104,304,35116,1,2
184,160,35324,5,2
184,184,35428,1,0
184,208,35533,1,2
24,128,35741,1,2
24,152,35845,1,0
24,176,35949,1,2
104,232,36158,5,2
104,208,36262,1,0
104,184,36366,1,2
104,64,36574,1,2
104,88,36678,1,0
104,112,36783,1,2
184,88,36991,1,2
400,64,37199,6,0,B|384:200,1,127.5,0|0
408,224,37616,2,0,B|304:248,1,85,8|0
104,336,38033,2,0,B|224:312,1,85,0|0
216,200,38449,1,8
56,232,38657,1,0
112,64,38866,6,0,B|128:208,1,127.5,0|0
104,224,39282,2,0,B|208:248,1,85,8|0
240,328,39699,1,0
336,304,39907,1,0
336,304,40012,1,0
384,216,40220,1,0
384,216,40324,1,0
464,192,40532,5,2
408,8,40845,1,2
408,32,40949,1,0
344,112,41157,1,2
344,136,41262,1,0
344,160,41366,1,2
264,40,41574,1,2
264,64,41678,1,0
264,88,41782,1,2
232,200,41991,5,2
232,224,42095,1,0
232,248,42199,1,2
152,128,42407,1,2
152,152,42512,1,0
152,176,42616,1,2
120,280,42824,5,2
120,304,42928,1,0
120,328,43032,1,2
40,208,43241,1,0
40,232,43345,1,0
40,256,43449,1,2
40,128,43657,1,2
128,72,43866,5,0
128,72,43970,2,0,B|216:48,1,85,0|0
232,24,44282,2,0,B|320:48,1,85,8|0
384,120,44699,2,0,B|472:144,3,85,0|0|8|0
384,312,45532,5,0
384,312,45637,2,0,B|296:336,1,85,0|0
280,360,45949,2,0,B|192:336,1,85,8|0
136,256,46366,2,0,B|-16:288,2,127.5,0|0|0
184,192,47199,5,2
48,80,47512,1,2
72,96,47616,1,0
152,24,47824,1,2
160,48,47928,1,0
168,72,48032,1,2
256,16,48241,1,2
256,40,48345,1,0
256,64,48449,1,2
360,24,48657,5,2
352,48,48762,1,0
344,72,48866,1,2
464,80,49074,1,2
440,96,49178,1,0
416,112,49282,1,2
488,192,49491,5,2
464,192,49595,1,0
440,192,49699,1,2
464,304,49907,1,2
440,288,50012,1,0
416,272,50116,1,2
328,192,50324,1,2
264,304,50532,5,0
248,328,50637,1,0
144,344,50845,1,0
120,352,50949,1,8
40,288,51157,1,0
0,192,51366,5,0
15,168,51470,1,0
119,152,51678,1,0
144,144,51782,1,8
223,208,51991,1,0
248,304,52199,5,0
264,328,52303,1,0
368,344,52512,1,0
392,352,52616,1,8
472,288,52824,1,0
512,192,53032,5,0
497,168,53137,1,0
393,152,53345,1,0
368,144,53449,1,8
289,208,53657,1,0
256,320,53866,5,2
88,320,54178,1,2
64,320,54282,1,0
120,240,54491,1,2
96,232,54595,1,0
72,224,54699,1,2
176,176,54907,1,2
160,160,55012,1,0
144,144,55116,1,2
256,160,55324,5,2
256,136,55428,1,0
256,112,55532,1,2
336,176,55741,1,2
352,160,55845,1,0
368,144,55949,1,2
392,240,56157,5,2
416,232,56262,1,0
440,224,56366,1,2
400,320,56574,1,2
424,320,56678,1,0
448,320,56782,1,2
328,320,56991,1,2
256,368,57199,5,4
256,16,58032,1,4
32,192,58866,5,4
480,192,59282,1,4
32,192,59699,1,4
480,192,60116,1,4
400,192,60324,1,0
416,64,60532,6,0,B|288:64,1,127.5,0|0
256,48,60949,1,8
152,48,61157,1,0
96,136,61366,2,0,B|248:136,1,127.5,0|0
256,152,61782,1,8
360,152,61991,1,0
416,248,62199,2,0,B|272:248,1,127.5,0|0
256,232,62616,1,8
152,232,62824,1,0
96,320,63032,2,0,B|224:320,1,127.5,0|0
256,336,63449,1,8
360,336,63657,1,0
464,280,63866,6,0,B|464:376,2,85,0|0|8
400,192,64491,1,0
328,104,64699,2,0,B|328:0,2,85,0|0|8
256,192,65324,1,0
184,280,65532,2,0,B|184:384,2,85,0|0|8
112,192,66157,1,0
48,104,66366,2,0,B|48:0,2,85,0|0|8
112,192,66991,1,0
88,360,67199,6,0,B|168:352|208:272,1,127.5
224,296,67616,1,8
320,320,67824,1,0
424,264,68032,2,0,B|344:256|304:176,1,127.5
288,200,68449,1,8
192,224,68657,1,0
88,168,68866,2,0,B|168:160|208:80,1,127.5
224,104,69282,1,8
320,128,69491,1,0
424,72,69699,2,0,B|344:64|304:-16,1,127.5
288,8,70116,1,8
192,40,70324,1,0
152,144,70532,6,0,B|110:165|72:144,2,85,0|0|8
256,192,71157,1,0
360,240,71366,2,0,B|401:261|440:240,2,85,0|0|8
256,288,71991,1,0
152,336,72199,2,0,B|111:357|72:336,2,85,0|0|8
256,384,72824,1,0
256,288,73032,2,0,B|256:160,2,127.5,0|0|0
400,288,73866,5,0
464,352,74074,1,0
488,264,74282,1,8
424,200,74491,1,0
337,225,74699,2,0,B|184:224,1,127.5,0|0
240,248,75116,2,0,B|176:328,1,85,8|0
112,288,75532,5,0
48,352,75741,1,0
24,264,75949,1,8
88,200,76157,1,0
176,224,76366,2,0,B|329:225,1,127.5,0|0
273,201,76782,2,0,B|337:121,1,85,8|0
136,72,77199,6,0,B|64:160,1,85
184,272,77616,2,0,B|256:192,1,85,8|0
240,80,78032,2,0,B|144:192,1,127.5
136,208,78449,1,8
88,272,78657,1,0
376,312,78866,6,0,B|448:224,1,85
328,112,79283,2,0,B|256:192,1,85,8|0
272,304,79699,2,0,B|368:192,1,127.5
376,176,80116,1,8
424,112,80324,1,0
456,192,80533,5,0
456,192,80637,1,0
424,272,80845,1,0
424,272,80949,1,8
344,304,81158,1,0
256,304,81366,2,0,B|112:304,2,127.5,0|8|0
56,192,82199,5,0
56,192,82303,1,0
88,112,82512,1,0
88,112,82616,1,8
168,80,82824,1,0
256,80,83033,2,0,B|400:80,2,127.5,0|8|0
312,160,83866,5,4
312,160,83970,1,0
400,224,84178,1,0
400,224,84283,1,0
200,160,84699,5,4
200,160,84803,1,0
112,224,85012,1,0
112,224,85116,1,0
216,352,85533,5,4
216,352,85637,1,0
296,312,85845,1,0
296,312,85949,1,4
296,312,86053,1,0
256,232,86262,1,0
256,208,86366,1,4
256,184,86470,1,0
256,160,86574,1,0
256,136,86678,1,0
256,112,86783,1,4
312,32,86991,1,0
200,32,87199,1,4
48,32,103866,6,0,B|224:32,3,170,0|8|0|8
464,136,105533,2,0,B|288:136,3,170,0|8|0|8
48,248,107199,2,0,B|224:248,3,170,0|8|0|8
464,352,108866,2,0,B|288:352,3,170,0|8|0|8
104,200,110533,6,0,B|112:296|216:336,1,170,0|8
408,184,111366,2,0,B|400:88|296:48,1,170,0|8
104,200,112199,2,0,B|112:296|216:336,1,170,0|8
408,184,113033,2,0,B|400:88|296:48,1,170,0|8
48,352,113866,6,0,B|232:352,1,170,0|8
464,248,114699,2,0,B|296:248,1,170,0|8
48,136,115533,2,0,B|240:136,1,170,0|8
464,32,116366,2,0,B|296:32,1,170,0|8
64,80,117199,6,0,B|64:200,1,85,0|2
144,200,117616,1,8
72,248,117824,2,0,B|-8:304,2,85,2|0|2
144,288,118449,1,8
216,328,118658,1,2
304,328,118866,6,0,B|392:328,1,85,0|2
352,248,119283,1,8
440,248,119491,2,0,B|520:304,2,85,2|0|2
440,160,120116,1,8
392,88,120324,1,2
368,96,120428,1,0
344,104,120533,5,0
256,96,120741,1,2
168,104,120949,1,8
88,72,121158,2,0,B|-16:32,2,85,2|0|2
48,152,121783,1,8
128,184,121991,1,2
88,256,122199,6,0,B|192:256,1,85,0|2
256,288,122616,1,8
339,256,122824,2,0,B|443:256,2,85,2|0|2
376,176,123449,1,8
416,104,123658,1,2
432,80,123762,1,0
448,56,123866,1,0
368,32,124074,5,2
288,56,124283,1,8
264,136,124491,1,2
336,296,124908,1,2
416,272,125116,1,8
440,192,125324,1,2
176,88,125741,5,2
96,112,125949,1,8
72,192,126158,1,2
144,352,126574,1,2
224,328,126783,1,8
248,248,126991,1,2
352,112,127408,5,2
352,232,127616,2,0,B|272:304,1,85,8|2
160,272,128033,1,0
160,152,128241,2,0,B|248:72,1,85,2|8
256,192,128658,1,2
256,192,128866,6,0,B|256:368,3,170
472,192,130533,5,2
472,192,130637,1,2
472,192,130741,1,2
256,40,133866,5,2
256,40,133970,1,2
256,40,134074,1,2
40,192,137199,5,2
40,192,137303,1,2
40,192,137408,1,2
256,344,140533,5,2
256,344,140637,1,2
256,344,140741,1,2
176,72,143033,5,2
256,32,143241,1,0
336,72,143449,1,2
256,192,143866,1,2
256,192,144074,6,0,B|256:248,1,42.5,2|0
208,352,144491,2,0,B|160:376,2,42.5,2|0|0
304,352,144908,2,0,B|352:376,2,42.5,2|0|0
256,280,145324,2,0,B|256:232,1,42.5,2|0
256,192,145533,12,0,147199
256,192,147303,12,4,148866
32,80,149178,5,0
56,96,149283,2,0,B|168:96,1,85,8|0
216,48,149699,2,0,B|248:104|216:176,1,127.5,0|0
200,192,150116,2,0,B|104:192,1,85,8|0
296,336,150533,2,0,B|264:280|296:208,1,127.5
312,192,150949,2,0,B|408:192,1,85,8|0
472,144,151366,2,0,B|504:200|472:272,1,127.5
456,288,151783,2,0,B|360:288,1,85,8|0
288,344,152199,5,0
264,336,152303,2,0,B|176:312,1,85
160,320,152616,2,0,B|56:352,1,85,8|0
0,208,153033,1,0
24,216,153137,2,0,B|112:240,1,85
128,232,153449,2,0,B|232:200,1,85,8|0
504,168,153866,5,0
480,160,153970,2,0,B|392:136,1,85
376,144,154283,2,0,B|272:176,1,85,8|0
216,32,154699,1,0
240,40,154803,2,0,B|328:64,1,85
344,56,155116,2,0,B|448:24,1,85,8|0
472,112,155533,6,0,B|512:176|456:256,1,127.5
448,256,155949,2,0,B|344:256,1,85,8|0
312,320,156366,1,0
288,336,156470,2,0,B|176:336,1,85
176,352,156783,1,8
88,352,156991,1,0
40,272,157199,6,0,B|0:208|56:128,1,127.5
64,128,157616,2,0,B|168:128,1,85,8|0
200,64,158032,1,0
224,48,158137,2,0,B|336:48,1,85
336,32,158449,1,8
424,32,158657,1,0
384,144,158866,5,0
384,144,158970,1,0
424,216,159178,1,0
424,216,159282,1,8
384,288,159491,1,0
328,352,159699,5,0
328,352,159803,1,0
256,304,160012,1,0
256,304,160116,1,8
184,352,160324,1,0
128,288,160532,5,0
128,288,160637,1,0
88,216,160845,1,0
88,216,160949,1,8
128,144,161157,1,0
216,144,161366,2,0,B|352:144,2,127.5
168,48,162199,6,0,B|96:184,1,127.5
96,184,162616,2,0,B|208:160,1,85,8|0
88,264,163032,2,0,B|-24:288,1,85
208,288,163449,2,0,B|320:264,1,85,8|0
344,336,163866,6,0,B|416:200,1,127.5
416,200,164282,2,0,B|304:224,1,85,8|0
424,120,164699,2,0,B|536:96,1,85
304,96,165116,2,0,B|192:120,1,85,8|0
136,136,165532,5,0
56,168,165741,1,0
32,248,165949,1,8
8,328,166157,1,0
88,312,166366,1,0
112,304,166470,2,0,B|200:280,1,85
200,312,166782,2,0,B|304:280,1,85,8|0
376,248,167199,5,0
456,216,167407,1,0
480,136,167616,1,8
504,56,167824,1,0
424,72,168032,1,0
400,80,168137,2,0,B|312:104,1,85
312,72,168449,2,0,B|208:104,1,85,8|0
160,160,168866,5,0
160,160,168970,1,0
200,232,169178,1,0
200,232,169282,1,8
160,304,169491,1,0
240,304,169699,2,0,B|392:304,2,127.5,0|8|0
352,224,170532,5,0
352,224,170637,1,0
312,152,170845,1,0
312,152,170949,1,8
352,80,171157,1,0
272,80,171366,2,0,B|120:80,2,127.5,0|8|0
200,152,172199,5,0
200,152,172303,1,0
144,216,172512,1,0
144,216,172616,1,0
144,304,172824,1,0
312,360,173032,5,0
312,360,173137,1,0
368,296,173345,1,0
368,296,173449,1,0
368,208,173657,1,0
344,24,173866,6,0,B|248:120,1,127.5
208,96,174282,2,0,B|304:192,1,127.5
344,168,174699,2,0,B|248:264,1,127.5
256,288,175116,1,0
208,360,175324,1,0
304,360,175548,1,4
40,328,188881,6,0,B|88:360,3,42.5,0|0|2|0
96,328,189297,2,0,B|144:296,3,42.5,0|0|2|0
152,328,189714,2,0,B|200:360,3,42.5,0|0|2|0
208,328,190131,2,0,B|256:296,3,42.5,0|0|2|0
264,328,190547,6,0,B|312:360,3,42.5,0|0|2|0
320,328,190964,2,0,B|368:296,3,42.5,0|0|2|0
376,328,191381,2,0,B|424:360,3,42.5,0|0|2|0
432,328,191797,2,0,B|480:296,3,42.5,0|0|2|0
472,272,192214,6,0,B|472:160,1,85,0|2
392,8,192631,2,0,B|392:112,1,85,0|2
304,272,193047,2,0,B|304:187,1,85,0|2
208,16,193464,2,0,B|208:120,1,85,0|2
120,272,193881,2,0,B|120:187,1,85,0|2
40,16,194297,2,0,B|40:104,1,85,0|2
40,184,194714,5,0
40,200,194818,1,0
40,216,194922,1,2
40,232,195027,1,0
40,248,195131,1,0
40,264,195235,1,0
40,280,195339,1,2
40,296,195443,1,0
40,312,195547,6,0,B|40:376,2,42.5,0|0|2
128,272,195964,2,0,B|128:320,2,42.5,0|0|2
216,312,196381,2,0,B|216:360,2,42.5,0|0|2
296,272,196797,2,0,B|296:336,2,42.5,0|0|2
384,312,197214,2,0,B|384:376,2,42.5,0|0|2
472,272,197631,2,0,B|472:336,2,42.5,0|0|2
416,208,198047,5,2
400,192,198152,1,0
392,168,198256,1,2
400,144,198360,1,0
416,128,198464,1,2
464,56,198672,1,2
392,16,198881,5,2
382,34,198985,1,0
368,50,199089,1,2
352,64,199193,1,0
333,74,199297,1,2
313,80,199402,1,0
291,82,199506,1,2
271,74,199610,1,0
251,65,199714,2,0,B|184:38,3,42.5,0|0|2|0
216,88,200131,2,0,B|160:80,3,42.5,0|0|2|0
184,120,200547,2,0,B|128:128,3,42.5,0|0|2|0
168,160,200964,2,0,B|112:184,3,42.5,0|0|2|0
160,200,201381,2,0,B|112:232,3,42.5,0|0|2|0
160,240,201797,2,0,B|120:280,2,42.5,0|0|2
256,192,202214,12,0,205547
