osu file format v8

[General]
AudioFilename: Strange Paradise (Short ver).mp3
AudioLeadIn: 0
PreviewTime: 49230
Countdown: 0
SampleSet: Soft
StackLeniency: 0.7
Mode: 0
LetterboxInBreaks: 1

[Editor]
Bookmarks: 19657,23157
DistanceSpacing: 0.800000011920929
BeatDivisor: 4
GridSize: 8

[Metadata]
Title:Strange Paradise (Short Ver.)
Artist:Bond
Creator:kazumikos
Version:Special
Source:
Tags:Shine Sallad4ever Alexander Borodin Polovtsian dances

[Difficulty]
HPDrainRate:6
CircleSize:5
OverallDifficulty:8
ApproachRate:7
SliderMultiplier:1.8
SliderTickRate:1

[Events]
//Background and Video events
0,0,"BG3.jpg"
//Break Periods
2,65357,80257
2,113107,128257
//Storyboard Layer 0 (Background)
//Storyboard Layer 1 (Fail)
//Storyboard Layer 2 (Pass)
//Storyboard Layer 3 (Foreground)
Sprite,Foreground,Centre,"BG\text2.2.png",320,240 M,0,23750,,186,311 S,0,23750,,0.5999999 F,0,23750,25250,0,1 F,0,25250,26750,1 F,0,26750,28250,1,0
Sprite,Foreground,Centre,"BG\text1.2.png",320,240 M,0,17250,,160,122 S,0,17250,,0.5532798 F,0,17250,18250,0.01200001,1 F,0,18250,19250,1 F,0,19250,20250,1,0
Sprite,Foreground,Centre,"BG\text3.2.png",320,240 M,0,19657,,454,155 S,0,19657,,0.54944 F,0,19657,21157,0,1 F,0,21157,21657,1 F,0,21657,23157,1,0
//Storyboard Sound Samples
//Background Colour Transformations
3,100,163,162,255

[TimingPoints]
3157,500,4,2,1,70,1,0
18282,-100,4,2,1,50,0,0
18657,-100,4,2,1,30,0,0
19032,-100,4,2,1,20,0,0
19532,-100,4,2,1,70,0,0
22282,-100,4,2,1,60,0,0
22657,-100,4,2,1,40,0,0
23032,-100,4,2,1,30,0,0
23532,-100,4,2,1,70,0,0
26282,-100,4,2,1,40,0,0
26657,-100,4,2,1,30,0,0
27032,-100,4,2,1,20,0,0
27532,-100,4,2,1,70,0,0
30282,-100,4,2,1,60,0,0
30657,-100,4,2,1,40,0,0
31032,-100,4,2,1,30,0,0
33032,-100,4,2,2,70,0,0
49032,-100,4,2,1,70,0,0
129032,-100,4,2,1,5,0,0
130532,-100,4,2,1,20,0,0
132782,-100,4,2,1,30,0,0
135032,-100,4,2,1,45,0,0
137032,-100,4,2,1,55,0,0
138782,-100,4,2,1,65,0,0
141032,-100,4,2,1,70,0,0
161157,-100,4,2,1,70,0,1
175157,-100,4,2,1,70,0,0

[Colours]
Combo1 : 0,174,87
Combo2 : 255,255,255
Combo3 : 85,200,255
Combo4 : 2,91,67
Combo5 : 0,47,94

[HitObjects]
256,80,17157,2,0,B|216:96|192:120|184:176|184:176|240:144|264:152|280:176|264:224|232:256|208:296|240:304|288:280,1,360
344,280,18407,1,2
400,192,18782,1,2
344,104,19157,1,2
232,192,19657,6,0,B|232:152|216:120|192:88|152:80|152:80|176:152|152:184|112:208|56:192|40:232,1,360
64,296,20907,1,0
136,312,21157,1,0
208,312,21407,1,0
256,256,21657,6,0,B|296:208|264:168|264:168|304:192|328:200|360:160,1,180
408,192,22407,1,2
352,96,22782,1,2
248,96,23157,1,2
320,224,23657,6,0,B|336:264|328:288|272:320|272:352|312:368|344:360|328:328,2,180
360,168,24907,1,0
376,104,25157,2,0,B|352:72|320:40|264:24|200:32|200:32|248:72|240:96|192:112|184:136|200:168|232:144,1,360
282,194,26407,1,2
362,265,26782,1,2
282,194,27157,1,2
256,104,27657,6,0,B|304:136|304:136|352:136|360:136|392:144|400:176|376:200|352:184,2,180
312,56,28907,1,0
256,16,29157,1,0
200,56,29407,1,0
149,106,29657,6,0,B|149:186|149:186|109:130|69:114|53:178,1,180
64,208,30407,1,2
160,248,30782,1,2
256,192,31157,1,2
256,192,31407,12,0,32657
256,56,33157,5,0
256,88,33282,1,0
256,120,33407,1,0
256,192,33657,1,8
256,328,34157,5,0
256,296,34282,1,0
256,264,34407,1,0
256,192,34657,1,4
400,160,35157,5,0
416,192,35282,1,0
400,224,35407,1,0
336,192,35657,1,8
336,120,35907,1,0
336,48,36157,5,0
304,56,36282,1,0
272,80,36407,1,0
258,113,36532,1,0
256,152,36657,1,0
256,272,37157,5,0
256,240,37282,1,0
232,216,37407,1,0
184,272,37657,2,0,B|136:272|136:272|144:240|136:208|88:208|88:208|88:168,1,180,8|0
88,171,38282,1,0
88,171,38407,2,0,B|88:128|88:128|112:104|112:72,1,90,0|4
224,56,39157,5,0
256,32,39282,1,0
288,56,39407,1,0
256,120,39657,1,8
256,192,39907,5,0
328,192,40157,1,0
352,216,40282,1,0
368,248,40407,1,0
352,280,40532,1,0
328,304,40657,1,0
416,192,41157,6,0,B|464:192,2,45
376,128,41657,2,0,B|376:48|376:48|352:64|328:80|296:88|272:64|264:80,1,180,8|0
246,75,42282,2,0,B|214:75|190:75,1,45
152,128,42657,1,4
256,240,43157,5,0
288,224,43282,1,0
320,224,43407,2,0,B|368:224|368:224|384:256|416:256,1,90,0|8
440,192,43907,5,0
400,128,44157,1,0
376,96,44282,1,0
344,80,44407,1,0
312,72,44532,1,0
280,72,44657,1,0
168,192,45157,5,0
152,224,45282,1,0
168,256,45407,1,0
232,224,45657,2,0,B|296:224|296:224|264:280|264:296|288:320|312:312,1,180,8|0
336,296,46282,1,0
368,312,46407,2,0,B|432:312|432:248,1,90,0|4
304,192,47157,5,0
279,165,47282,1,0
256,136,47407,1,0
208,192,47657,2,0,B|208:248|208:248|176:264|184:288,1,90,8|0
256,328,48157,6,0,B|256:280,4,45
256,40,49157,6,0,B|272:80|256:120|256:120|240:144|224:152|192:176|192:176|256:160|304:184|304:184|248:200|240:256,1,360
256,304,50407,1,0
256,304,50532,1,0
256,304,50657,1,4
304,248,50907,1,0
352,192,51157,1,0
219,119,51657,5,0
291,119,51907,1,0
219,119,52157,2,0,B|225:178|241:210|265:218|289:178|292:105,1,180,0|0
256,56,52907,5,0
328,56,53157,1,0
376,112,53407,1,0
328,168,53657,2,0,B|328:240|328:240|288:256|240:224|240:184,1,180
192,248,54407,5,0
160,272,54532,1,0
128,248,54657,2,0,B|72:248|72:248|96:200|72:168|40:168|24:192|40:216,1,180,4|0
360,96,55657,6,0,B|376:72|416:56|416:56|392:96|392:136|400:160|456:136,2,180,0|0|0
320,152,56907,1,0
256,192,57157,6,0,B|256:80|256:80|240:128|208:168|176:208|128:224|104:192|96:160|120:136|128:136,1,360
126,64,58407,1,0
126,64,58532,1,0
126,64,58657,1,4
256,352,59157,1,0
256,200,59657,5,0
256,128,59907,1,0
256,56,60157,1,0
256,128,60407,1,0
192,88,60657,5,0
320,88,60907,1,0
192,152,61157,1,0
320,152,61407,1,0
192,216,61657,1,0
320,216,61907,1,0
256,328,62157,1,0
256,328,62407,5,0
256,328,62532,1,0
256,328,62657,1,4
193,292,62907,1,0
256,256,63157,1,0
256,224,63282,1,0
256,192,63407,1,0
256,160,63532,1,0
256,128,63657,1,0
184,248,64157,5,2
184,248,64282,1,2
328,248,64532,1,2
328,248,64657,1,2
256,288,64907,1,0
256,288,65157,1,4
256,32,81157,6,0,B|256:136,1,90,4|0
255,211,81657,2,0,B|255:107,1,90
320,152,82157,2,0,B|352:192|344:248,1,90
192,152,82657,2,0,B|160:192|168:248,1,90,4|0
144,304,83157,2,0,B|200:304|216:288|232:264,1,90
368,304,83657,2,0,B|312:304|296:288|280:264,1,90
256,336,84157,5,0
225,274,84407,1,0
256,208,84657,1,0
293,146,84907,1,0
221,146,85157,1,0
256,80,85407,1,0
328,80,85657,1,0
256,80,85907,2,0,B|200:80,2,45
256,8,86407,5,0
256,8,86532,1,0
256,8,86657,1,4
176,144,86907,1,0
336,144,87157,1,0
56,56,87657,5,0
440,152,88157,1,0
56,248,88657,1,0
440,336,89157,5,0
384,288,89407,1,0
360,216,89657,1,0
312,160,89907,1,0
284,137,90032,1,0
256,112,90157,1,0
200,160,90407,5,0
177,189,90532,1,0
152,216,90657,1,4
256,344,90907,1,0
360,216,91157,1,0
96,192,91657,5,0
416,192,92157,1,0
160,24,92657,5,0
352,72,92907,1,0
184,136,93157,1,0
312,176,93407,1,0
216,240,93657,1,0
288,280,93907,1,0
272,312,94032,1,0
256,344,94157,1,0
192,312,94407,6,0,B|128:312,2,45,0|0|4
56,248,94907,1,0
56,96,95157,1,0
256,32,95657,5,0
256,32,96157,2,0,B|296:72|232:104|232:104|280:120|304:128|288:160,1,180
256,216,96907,1,0
256,288,97157,5,0
192,248,97407,1,0
256,216,97657,1,0
320,184,97907,2,0,B|272:144,1,45
256,128,98157,1,0
192,88,98407,5,0
224,64,98532,1,0
256,40,98657,1,4
408,40,98907,1,0
408,192,99157,1,0
256,232,99657,6,0,B|248:248|272:264|304:240|320:240|328:248|328:264|320:288|288:312|272:312|248:328|264:344,2,180
216,168,100907,1,0
256,104,101157,1,0
296,168,101407,1,0
328,104,101657,1,0
292,41,101907,5,0
256,24,102032,1,0
220,41,102157,1,0
184,104,102407,5,0
200,136,102532,1,0
216,168,102657,1,4
104,264,102907,1,0
256,248,103157,1,0
304,112,103657,6,0,B|336:152|336:176|312:232|312:232|376:200|376:200|384:224|384:280|352:312|328:304|320:312|320:336|336:344|352:336,1,360
464,256,105157,1,0
424,192,105407,1,0
360,152,105657,1,0
296,128,105907,1,0
296,128,106032,1,0
296,128,106157,1,0
216,128,106407,5,0
216,128,106532,1,0
216,128,106657,1,4
80,64,106907,1,0
32,208,107157,1,0
219,306,107657,5,0
291,306,107907,1,0
256,240,108157,2,0,B|232:200|264:152|272:136|248:96|248:96|288:120|304:144|336:120|336:96|320:80|304:104,1,270
292,28,109157,1,0
220,28,109407,1,0
256,88,109657,1,2
256,160,109907,5,0
216,216,110157,1,0
256,272,110407,1,0
296,216,110657,1,4
256,144,110907,5,0
192,216,111157,1,0
256,312,111407,1,0
336,216,111657,1,2
256,96,111907,1,0
256,96,112157,5,0
280,64,112282,1,0
312,48,112407,1,0
344,40,112532,1,0
378,51,112657,1,2
409,67,112782,1,0
428,97,112907,1,4
120,104,129157,6,0,B|128:120|144:128|160:128|184:136|200:128|224:120|240:96|248:72|264:48|288:24|312:16|328:16|328:16|304:40|296:56|288:88|304:120|328:144|344:144|384:120|392:88|368:80|344:88,1,450
440,96,130657,1,0
440,96,130907,1,0
440,96,131157,6,0,B|480:128|496:168|504:232|504:256|504:256|472:224|440:200|352:184|352:184|408:224|432:280|384:336|320:328|320:280|368:280,1,540
288,240,132907,1,0
240,296,133157,6,0,B|208:264|192:224|224:184|232:160|272:152|304:160|320:160|336:136|336:120|328:80|296:64|288:64|264:64|240:88|240:112|264:128|288:104,1,360
256,56,135157,5,2
256,128,135407,1,0
240,160,135532,1,0
256,192,135657,1,0
320,232,135907,1,0
320,232,136157,5,2
384,264,136407,1,0
408,232,136532,1,0
384,200,136657,1,0
320,160,136907,1,0
256,128,137157,6,0,B|272:96|264:48|232:64|160:32|160:32|248:232|248:232|200:240|184:256|176:280|184:296|208:296|224:288|240:272|256:232,1,540
304,208,138907,1,0
336,136,139157,2,0,B|344:112|368:96|384:96|400:120|416:144|448:152|512:128|512:128|472:168|456:192|448:224|456:264|480:304|488:328|472:360|384:360|368:320|376:304|392:272|416:272|432:272|432:312,1,540
256,192,141157,12,0,143157
256,88,144532,5,4
256,88,144657,1,12
200,224,145157,5,0
224,256,145282,1,0
256,272,145407,1,0
288,256,145532,1,0
312,224,145657,1,2
256,176,145907,5,0
256,176,146157,1,0
292,113,146407,1,0
256,96,146532,1,0
220,113,146657,1,4
352,64,147157,5,0
376,88,147282,1,0
400,112,147407,1,0
376,144,147532,1,0
352,168,147657,1,2
400,224,147907,6,0,B|400:336,2,90
400,224,148532,1,0
400,224,148657,1,4
256,224,149157,5,0
256,224,149282,1,0
256,224,149407,1,0
256,224,149532,1,0
256,224,149657,1,2
256,152,149907,5,0
192,192,150157,1,0
192,120,150407,2,0,B|128:120,2,45,0|0|4
328,72,151157,5,0
352,104,151282,1,0
328,128,151407,1,0
352,152,151532,1,0
328,184,151657,1,2
328,256,151907,5,0
256,256,152157,1,0
256,184,152407,1,0
256,184,152532,1,0
256,184,152657,1,4
128,248,153157,6,0,B|72:248,2,45
128,248,153532,1,0
128,248,153657,1,2
176,192,153907,5,0
224,248,154157,2,0,B|224:304|280:304,1,90
279,303,154532,1,0
279,303,154657,1,4
368,192,155157,5,0
368,192,155282,1,0
368,192,155407,1,0
368,192,155532,1,0
368,192,155657,2,0,B|368:136|368:112|368:88|368:88|320:112|296:104|272:80,1,180,2|0
256,160,156407,2,0,B|256:256,1,90,0|4
120,192,157157,5,0
120,160,157282,1,0
136,128,157407,1,0
168,112,157532,1,0
200,112,157657,1,2
200,184,157907,5,0
256,224,158157,1,0
312,184,158407,1,0
256,144,158657,2,0,B|256:40,1,90
256,54,159157,1,0
120,192,159657,5,0
256,288,159907,1,0
392,192,160157,1,0
256,56,160657,5,2
256,184,161157,6,0,B|248:144|224:120|184:112|160:120|160:120|192:160|208:192|208:232|208:264|160:304|104:280,1,360
120,216,162407,1,2
168,120,162782,1,2
256,56,163157,1,2
256,200,163657,5,0
328,200,163907,1,0
328,272,164157,2,0,B|384:272|408:240|424:208|416:168|384:136,1,180
328,104,164907,5,0
256,88,165157,1,0
184,104,165407,1,0
184,104,165657,2,0,B|184:208|184:208|208:200|224:184|248:208|272:216,1,180
256,128,166407,5,0
256,128,166532,1,0
256,128,166657,1,4
256,200,166907,1,0
296,264,167157,1,0
424,192,167657,6,0,B|384:208|360:192|352:160|392:112|408:96|400:72|392:56|368:48|360:64,2,180
480,240,168907,1,0
416,280,169157,2,0,B|392:320|352:336|304:336|272:304|280:256|280:256|256:264|224:256|192:248|200:208|208:176|200:160|160:176,1,360
168,104,170407,5,0
192,80,170532,1,0
224,80,170657,2,0,B|360:80|360:80|320:112|288:136|288:144|288:176|312:192|344:192|344:192|288:208|304:240,1,360,4|0
160,192,172157,5,0
256,304,172657,1,0
304,248,172907,1,0
256,192,173157,1,0
304,136,173407,1,0
256,88,173657,2,0,B|192:176|192:176|192:136|184:88|144:80|96:80|96:128|144:128,2,270,0|0|0
