osu file format v8

[General]
AudioFilename: Strange Paradise (Short ver).mp3
AudioLeadIn: 0
PreviewTime: 49230
Countdown: 0
SampleSet: Soft
StackLeniency: 0.7
Mode: 0
LetterboxInBreaks: 1

[Editor]
DistanceSpacing: 0.800000011920929
BeatDivisor: 4
GridSize: 8

[Metadata]
Title:Strange Paradise (Short Ver.)
Artist:Bond
Creator:kazumikos
Version:Neutral
Source:
Tags:Shine Sallad4ever Alexander Borodin Polovtsian dances

[Difficulty]
HPDrainRate:5
CircleSize:4
OverallDifficulty:5
ApproachRate:5
SliderMultiplier:1.3
SliderTickRate:2

[Events]
//Background and Video events
0,0,"BG2.jpg"
//Break Periods
2,63356,79957
2,113357,127957
//Storyboard Layer 0 (Background)
//Storyboard Layer 1 (Fail)
//Storyboard Layer 2 (Pass)
//Storyboard Layer 3 (Foreground)
Sprite,Foreground,Centre,"BG\tex1.1.png",320,240 S,0,17250,,0.4960001 F,0,17250,18250,0,1 M,0,17250,19250,144,264,189,212 F,0,18250,19250,1,0
Sprite,Foreground,Centre,"BG\text2.1.png",320,240 S,0,19750,,0.5359998 F,0,19750,20750,0,1 M,0,19750,22250,479,173,383,154 F,0,20750,21250,1 F,0,21250,22250,1,0
Sprite,Foreground,Centre,"BG\text3.1.png",320,240 S,0,23750,,0.64 F,0,23750,25250,0,1 M,0,23750,27250,516,295,332,365 F,0,25250,25750,1 F,0,25750,27250,1,0
//Storyboard Sound Samples
//Background Colour Transformations
3,100,163,162,255

[TimingPoints]
3157,500,4,2,1,70,1,0
18282,-100,4,2,1,50,0,0
18657,-100,4,2,1,30,0,0
19032,-100,4,2,1,20,0,0
19532,-100,4,2,1,70,0,0
22282,-100,4,2,1,60,0,0
22657,-100,4,2,1,50,0,0
23032,-100,4,2,1,40,0,0
23532,-100,4,2,1,70,0,0
26282,-100,4,2,1,40,0,0
26657,-100,4,2,1,30,0,0
27032,-100,4,2,1,20,0,0
27407,-100,4,2,1,70,0,0
30282,-100,4,2,1,60,0,0
30657,-100,4,2,1,40,0,0
31032,-100,4,2,1,30,0,0
33032,-100,4,2,2,70,0,0
129032,-100,4,2,1,5,0,0
137032,-100,4,2,1,20,0,0
139032,-100,4,2,1,35,0,0
141032,-100,4,2,1,50,0,0
143032,-100,4,2,1,60,0,0
144532,-100,4,2,1,70,0,0
161157,-100,4,2,1,70,0,1
175157,-200,4,2,1,70,0,0

[Colours]
Combo1 : 92,152,156
Combo2 : 255,255,255
Combo3 : 168,226,255
Combo4 : 0,94,0
Combo5 : 0,47,94

[HitObjects]
256,40,17157,2,0,B|256:216|256:216|256:232|272:256|304:256|320:216|296:208,1,260
328,168,18407,2,0,L|328:112|384:88,2,97.5,2|2|2
432,192,19657,6,0,L|432:272,2,65
328,216,20657,5,0
296,256,20907,1,0
256,288,21157,1,0
216,256,21407,1,0
184,216,21657,2,0,B|184:152|104:152|104:152|104:128,1,130
104,88,22407,5,2
184,24,22782,1,2
264,88,23157,1,2
184,152,23657,6,0,B|184:216|184:216|232:240|232:264|200:264,2,130
216,112,24907,1,0
248,72,25157,6,0,B|376:72|376:72|352:104|344:128|360:160|384:176|424:160|400:128,1,260
456,144,26407,1,2
456,248,26782,1,2
368,304,27157,1,2
320,224,27657,6,0,B|208:224|208:224|272:184|264:152|240:128|208:128|192:136|208:168|200:168,1,260
150,157,28907,1,0
101,138,29157,1,0
101,85,29407,1,0
149,66,29657,1,0
256,176,30407,5,2
308,264,30782,1,2
204,264,31157,1,2
256,192,33157,6,0,L|344:192|376:144,1,130,0|8
408,64,34157,2,0,B|456:56|472:96|472:96|472:176,1,130,0|4
424,240,35157,2,4,B|360:240|360:240|352:272|304:272,1,130,0|8
256,184,36157,2,0,L|256:104|224:88|224:120,1,130,0|4
160,184,37157,6,0,L|80:184|80:144|64:120,1,130,0|8
160,80,38157,2,0,L|216:32|264:32|272:56,1,130,0|4
256,144,39157,2,0,L|336:144|352:120|368:120|384:120,1,130,0|8
432,208,40157,2,0,B|384:272|384:272|352:288|320:272,1,130,0|4
240,224,41157,6,0,L|168:224|144:200|112:232,3,130,0|8|0|4
32,176,43157,2,0,B|80:128|80:128|80:104|56:72,3,130,0|8|0|4
160,56,45157,6,0,L|256:56|232:96,3,130,0|8|0|4
256,192,47157,2,0,L|256:280|224:296|208:296,3,130,0|8|0|4
128,232,49157,6,0,B|128:104|128:104|152:128|184:120|192:96|160:80,1,195
208,56,50157,2,0,B|320:56|320:56|248:136|248:136|368:136,1,325
399,158,51657,1,0
426,202,51907,1,0
400,248,52157,2,0,B|352:304|264:304,1,130
234,303,52907,5,0
200,264,53157,1,0
232,224,53407,1,0
200,184,53657,2,0,B|201:74|257:10|369:10|416:80|417:210,1,390
328,128,55657,6,0,B|312:104|288:104|272:136|264:176|272:216,2,130
344,176,56907,1,0
360,224,57157,2,0,B|320:304|208:304|168:280,1,195
136,296,58157,6,0,B|96:264|112:208|168:200|208:184|224:168|224:136|192:104|160:112|168:152,1,260
160,48,59657,2,0,B|240:40|272:88|280:112,2,130
128,88,60907,5,0
96,128,61157,1,0
72,176,61407,1,0
96,224,61657,2,0,B|144:320|256:360|352:328|416:224,1,390
256,88,81157,5,0
344,136,81657,1,0
344,240,82157,1,0
256,192,82657,2,0,B|200:192|200:192|160:208|160:264,1,130,4|0
256,296,83657,5,0
344,240,84157,1,0
424,168,84657,1,0
344,96,85157,1,0
296,96,85407,1,0
256,64,85657,1,0
256,168,86157,5,0
360,192,86657,2,0,B|408:208|456:192|456:192|456:152,1,130,4|0
360,112,87657,5,0
256,96,88157,1,0
152,120,88657,1,0
256,96,89157,2,0,B|216:144|216:176|320:232|320:280|248:328,1,260
360,296,90657,2,0,B|376:240|352:192|320:160,1,130,4|0
256,104,91657,5,0
152,104,92157,1,0
96,192,92657,2,0,B|24:192,2,65
144,192,93407,1,0
192,192,93657,1,0
256,280,94157,5,0
312,192,94657,1,4
368,280,95157,1,0
416,192,95657,6,0,B|416:136|384:72|320:48|240:48|240:48|272:88|280:112|256:144|216:136|216:96,1,390
112,104,97657,1,0
168,191,98157,1,0
112,280,98657,1,4
168,192,99157,1,0
256,248,99657,6,0,B|336:248|344:168,3,130
343,119,101407,1,0
343,67,101657,1,0
256,128,102157,6,0,B|168:128|168:208,1,130,0|4
64,201,103157,1,0
118,289,103657,5,0
224,288,104157,1,0
256,192,104657,1,0
256,88,105157,6,0,B|376:88|376:88|368:128,1,130
360,152,105907,1,0
325,197,106157,2,0,B|296:240|264:272|224:288|224:288|216:248|192:208|144:192,1,260
144,88,107657,5,0
192,64,107907,1,0
240,88,108157,1,0
256,192,108657,5,0
304,216,108907,1,0
352,192,109157,1,0
352,296,109657,6,0,B|432:296,2,65
256,248,110657,2,0,B|176:248,2,65,4|0|0
256,144,111657,2,0,B|344:144,2,65
256,248,112657,5,0
256,248,112907,1,0
256,248,113157,1,0
256,192,129157,12,0,130657
256,192,131157,12,0,132657
256,192,133157,12,0,136657
256,112,137157,6,0,B|120:136|72:232|128:328|264:352,1,390
216,256,139157,6,0,B|192:232|176:224|200:192|224:184|272:184|296:192|312:184|344:160|352:120|344:80|336:64|312:40|280:32|248:32|216:40|192:64,1,390
104,32,141157,2,0,B|56:48|16:96|0:136|0:200|88:200|144:168|160:144|192:128|232:120|264:112,1,390
256,216,143157,6,0,B|256:320,2,97.5
256,160,144157,1,0
256,160,144657,1,4
352,120,145157,6,0,B|416:120|416:120|424:152|480:152,2,130,2|0|0
376,224,146657,1,4
296,288,147157,5,2
192,288,147657,1,0
192,240,147907,1,0
192,288,148157,1,0
96,240,148657,1,4
144,144,149157,5,2
192,240,149657,1,0
240,264,149907,2,0,B|320:312,1,65
312,248,150407,2,0,B|392:248,1,65,0|4
384,200,150907,2,0,B|440:152,1,65,0|2
408,112,151407,2,0,B|352:56,1,65
312,56,151907,1,0
280,96,152157,2,0,B|280:160|280:160|264:184|224:184,2,97.5
232,96,153157,6,0,B|152:96|152:96|96:144|160:208,1,195,2|0
176,240,154157,1,0
232,296,154532,1,0
312,296,154907,1,0
312,248,155157,2,0,B|312:192|312:192|376:152|400:128|424:112|336:128|296:96|304:56|352:72,1,260,2|0
256,136,156657,5,0
344,184,157157,1,2
344,288,157657,1,0
296,288,157907,5,0
256,256,158157,2,0,B|256:192|192:168,2,97.5
200,264,159157,2,0,B|120:264|120:264|120:216|80:216,1,130,2|0
47,220,159907,1,0
47,168,160157,1,0
151,168,160657,1,0
256,168,161157,6,0,B|256:136|280:120|312:128|328:152|328:168|328:208|280:240|280:240|277:285|280:296|296:312|328:280,2,260,2|0|2
152,192,163657,1,0
128,240,163907,1,0
152,288,164157,1,0
256,288,164657,5,0
304,288,164907,1,0
304,240,165157,1,2
352,240,165407,1,0
352,192,165657,2,0,B|368:96|296:8|224:8|144:80|160:208,1,390,0|2
256,224,167657,5,0
256,120,168157,1,0
184,192,168657,1,0
152,232,168907,1,0
184,272,169157,2,0,B|224:328|288:328|328:264|336:232|344:184|400:208|392:240|376:240,1,260,2|0
381,133,170657,5,0
307,59,171157,1,2
256,152,171657,6,0,B|288:184|288:200|256:240|256:240|256:296,2,130
208,152,172907,1,0
160,160,173157,1,2
120,192,173407,1,0
160,232,173657,2,0,B|368:232,2,195
