osu file format v5

[General]
AudioFilename: Bond - 01 - Explosive.mp3
AudioLeadIn: 0
PreviewTime: 23599
Countdown: 1
SampleSet: Normal
EditorBookmarks: 16844,25034,37945,62854,79678,112151,121280,130148

[Metadata]
Title:Explosive
Artist:Bond
Creator:kingcobra52
Version:Professional

[Difficulty]
HPDrainRate:5
CircleSize:6
OverallDifficulty:6
SliderMultiplier:1.8
SliderTickRate:1

[Events]
//Background and Video events
0,0,"october.jpg"
//Break Periods
2,96310,112005
//Storyboard Layer 0 (Background)
//Storyboard Layer 1 (Failing)
//Storyboard Layer 2 (Passing)
//Storyboard Layer 3 (Foreground)
//Storyboard Sound Samples
//Background Colour Transformations
3,100,163,162,255

[TimingPoints]
17340,521.66,4,1,0,100

[HitObjects]
128,56,17340,2,0,C|200:56,3,45
176,176,18122,2,0,L|112:176,3,45
128,56,18904,1,0
288,88,19426,2,0,L|288:32,3,45
408,48,20209,2,0,C|408:93,3,45
288,88,20991,1,0
392,216,21513,6,0,L|344:216,3,45
256,328,22295,2,0,L|312:328,3,45
192,328,23078,1,0
128,192,23599,2,0,L|128:240,2,45
56,184,24121,2,2,L|56:274,1,90
56,344,24643,1,2
144,224,25164,6,0,L|184:256,2,45
176,160,25686,2,0,B|224:96|320:112|423:160|464:296,1,360
312,312,27251,1,0
168,320,27773,2,0,B|144:318|22:246|23:91|176:56,1,360
288,144,29338,1,0
416,208,29859,6,0,L|352:208,2,45
416,136,30381,1,0
416,64,30642,2,0,B|491:64,2,45
288,136,31424,1,0
152,200,31946,2,0,L|197:200,2,45
152,128,32468,1,0
152,56,32729,2,0,B|104:56,2,45
296,48,33511,6,0,L|256:72,2,45
312,120,34033,2,0,B|304:176|277:248|204:145|120:129|61:218|176:320|256:320,1,360
360,312,35598,1,0
424,184,36119,1,0
376,48,36641,1,2
304,48,36902,2,2,B|164:-7|176:144,1,180
176,184,37684,1,2
96,272,38206,6,0,B|176:272,4,45
152,128,39249,1,0
216,88,39510,1,0
288,88,39771,1,0
344,128,40032,1,0
360,200,40293,6,0,B|435:200,4,45
312,336,41336,1,0
248,296,41597,1,0
184,336,41858,1,0
120,296,42118,1,0
88,232,42379,6,0,B|33:162|96:56,3,180
160,48,44205,1,0
216,88,44466,2,0,C|229:132|280:120,3,90
336,96,45509,1,2
408,104,45770,1,2
464,152,46031,1,2
472,224,46292,1,2
400,248,46552,6,0,C|371:319|338:260|293:325|272:261|224:328,1,360
144,192,48117,1,0
216,192,48378,1,0
232,112,48639,2,0,C|269:49|302:108|347:43|368:107|416:40,1,360
464,192,50204,1,0
392,192,50465,1,0
320,192,50726,2,0,C|272:272,1,90
232,328,51247,2,0,C|152:272,1,90
104,224,51769,2,0,C|176:152,1,90
152,88,52291,2,0,C|72:32,1,90
256,192,52812,12,2,54377
216,320,54899,2,0,B|95:348|88:224,1,180
88,88,55942,1,0
136,136,56203,1,0
192,184,56464,1,0
248,136,56725,1,0
296,72,56986,2,0,B|417:44|424:168,1,180
424,304,58029,1,0
360,344,58290,1,0
304,288,58551,1,0
248,240,58812,1,0
176,240,59072,6,0,C|96:296,1,90
64,232,59594,2,0,C|24:144,1,90
80,96,60116,2,0,C|160:48,1,90
216,32,60637,2,0,C|320:32,1,90
376,48,61159,2,2,B|427:180|357:264|248:272,1,270
176,272,62333,2,2,B|120:184,1,90
40,32,63246,6,0,B|120:32,4,45
72,96,64028,1,0
128,136,64289,1,0
200,152,64550,1,0
272,144,64811,1,0
336,112,65071,1,0
400,144,65332,6,0,B|400:192,4,45
456,192,66115,1,0
408,248,66376,1,0
344,280,66636,1,0
272,296,66897,1,0
200,272,67158,1,0
176,200,67419,6,0,B|114:52|260:9|415:71|409:152|364:321|232:272|256:176,1,540
256,178,69245,1,0
176,200,69506,1,0
32,144,70027,2,2,B|104:80,1,90
168,56,70549,2,2,B|264:56,1,90
312,96,71070,2,2,B|384:160,1,90
424,216,71592,6,2,B|424:272,4,45
352,216,72375,1,0
288,264,72635,2,2,C|288:219,4,45
224,224,73418,1,0
152,216,73679,6,2,B|74:244|112:152,1,90
104,104,74200,1,2
248,96,74722,2,2,B|248:16,2,45
312,136,75244,1,2
376,176,75505,1,2
432,216,75765,2,2,L|337:352|243:204|96:352,1,540
256,192,77852,12,2,79417
128,224,79939,2,0,B|168:280,3,45
256,216,80721,2,0,B|296:264,3,45
128,152,82025,2,0,B|168:104,3,45
256,152,82808,2,2,B|296:96,3,45
384,72,83590,6,0,B|440:96,2,45
376,144,84112,2,0,B|387:288|276:336|200:248,1,270
240,120,85416,2,0,B|136:120,1,90
32,32,86199,1,0
40,184,86720,1,0
88,240,86981,1,0
216,304,87503,1,0
288,288,87764,2,2,B|408:144,1,180
304,32,88807,5,0
240,128,89329,1,0
176,32,89850,1,0
88,144,90372,2,0,B|16:224,1,90
32,280,90894,2,0,B|104:352,1,90
168,344,91415,2,0,B|248:264,1,90
192,216,91937,5,0
160,152,92198,1,0
200,96,92459,1,0
336,56,92980,2,0,B|400:136,1,90
424,264,93763,1,0
376,320,94024,1,0
288,208,94545,1,0
216,80,95067,1,2
152,112,95328,2,2,B|80:152|72:208|88:256|128:288,1,180
160,304,96110,1,2
72,232,113325,6,0,B|99:338|228:336|312:272,1,270
432,232,114629,1,0
368,104,115151,1,0
304,64,115412,2,0,B|228:14|100:59|88:176,1,270
88,304,116716,1,0
248,312,117237,1,0
256,192,117498,12,0,121150
80,64,121672,6,2,B|136:64,3,45
160,64,122193,1,2
304,64,122715,1,0
376,64,122976,1,0
456,64,123236,1,0
456,128,123497,1,0
456,200,123758,6,2,B|456:280,3,45
456,280,124280,1,2
344,336,124801,1,0
288,288,125062,1,0
264,216,125323,1,0
248,144,125584,1,0
216,80,125845,6,2,B|185:30,3,45
152,32,126366,1,2
48,128,126888,1,0
48,200,127149,1,0
72,264,127410,1,0
120,312,127671,1,0
192,288,127931,6,0,B|288:224,1,90
336,248,128453,2,0,B|424:320,1,90
448,248,128975,2,0,B|448:128,1,90
408,96,129496,2,0,B|328:40,1,90
264,56,130018,6,0,C|228:28|196:59|164:29|128:56,1,180
80,104,130801,2,0,B|40:144,4,45
88,176,131583,1,2
120,240,131844,1,2
160,296,132105,6,0,C|196:268|228:299|260:269|296:296,1,180
376,280,132887,2,0,B|424:240,4,45
376,208,133670,1,2
352,136,133931,1,2
304,72,134191,6,0,B|265:33|221:68,2,90
208,152,135235,1,0
144,184,135495,1,0
72,152,135756,1,0
40,88,136017,1,0
96,40,136278,1,2
168,40,136539,2,2,B|272:40,5,90
400,80,138365,6,2,B|344:128,3,45
344,136,138886,1,2
392,272,139408,1,0
344,328,139669,1,0
272,328,139930,1,0
208,296,140190,1,0
168,232,140451,6,2,B|120:264,3,45
96,280,140973,1,2
48,152,141495,1,0
64,80,141755,1,0
128,40,142016,1,0
200,40,142277,1,0
264,64,142538,6,2,B|304:24,3,45
328,32,143060,1,2
448,104,143581,1,0
400,160,143842,1,0
456,208,144103,1,0
432,280,144364,1,0
376,328,144625,2,2,B|288:168,1,180
144,168,145668,2,2,B|48:344,1,180
32,184,146711,6,2,B|58:147,3,45
80,112,147233,1,2
216,48,147755,2,2,B|272:48,4,45
192,112,148537,1,2
240,168,148798,6,2,B|296:168,3,45
288,128,149319,1,2
192,32,149841,1,2
128,72,150102,1,2
72,120,150363,1,2
48,192,150624,1,2
88,248,150884,6,0,B|106:303|176:232,1,90
224,216,151406,2,0,B|242:271|312:208,1,90
360,184,151928,2,0,B|378:239|448:176,1,90
432,112,152449,2,0,B|379:63|361:118,1,90
288,112,152971,2,0,B|235:63|217:118,1,90
144,112,153493,1,0
88,152,153754,2,2,B|72:256,3,90
208,304,155058,6,2,B|280:304,3,45
288,304,155579,1,2
408,240,156101,1,2
368,176,156362,1,2
296,160,156623,1,2
224,160,156884,1,2
152,136,157144,6,2,B|112:80,3,45
104,64,157666,1,2
240,24,158188,1,2
312,32,158449,1,2
384,48,158709,1,2
432,88,158970,1,2
440,160,159231,6,2,B|392:208,3,45
384,216,159753,1,2
432,272,160014,1,0
392,328,160274,1,0
328,288,160535,2,2,B|293:335|224:272,2,90
256,192,161318,12,2,162883
160,144,163404,2,0,B|240:144,4,45
160,216,164187,2,0,B|104:216,4,45
400,88,165491,2,0,B|475:88,4,45
400,160,166273,2,2,B|352:160,3,45
320,160,166795,1,2
264,112,167056,5,0
240,88,167186,1,0
200,88,167317,1,0
168,104,167447,1,0
136,128,167578,2,0,B|85:218|98:332|216:336,1,270
336,328,168882,1,0
400,288,169143,1,0
400,144,169664,1,0
264,96,170186,1,0
200,136,170447,1,0
168,280,170968,1,0
216,328,171229,1,0
256,248,171751,6,0,B|328:192,1,90
384,152,172273,2,0,B|312:80,1,90
256,48,172794,2,0,B|136:48,1,90
96,72,173316,2,0,B|32:152,1,90
56,216,173838,2,2,B|136:280,1,90
184,312,174359,2,2,B|288:352,1,90
336,320,174881,2,2,B|432:248,1,90
416,184,175402,5,0
376,152,175533,1,0
408,120,175663,1,0
376,80,175794,1,0
352,48,175924,2,0,B|155:44|195:208,1,270
48,152,177228,1,0
48,224,177489,1,0
48,80,178011,1,0
184,40,178532,1,0
256,40,178793,2,0,B|337:46|369:96|401:144|353:240,1,270
256,192,180097,12,4,186357
