osu file format v5

[General]
AudioFilename: 12 Story of My Life.mp3
AudioLeadIn: 0
PreviewTime: -1
Countdown: 1
SampleSet: Soft
StackLeniency: 0.5
Mode: 0
LetterboxInBreaks: 1

[Metadata]
Title:Story of My Life
Artist:Bon Jovi
Creator:erom
Version:Normal
Source:
Tags:

[Difficulty]
HPDrainRate:4
CircleSize:6
OverallDifficulty:6
SliderMultiplier:0.6
SliderTickRate:1

[Events]
//Background and Video events
//Break Periods
2,83919,88855
2,151960,164524
//Storyboard Layer 0 (Background)
//Storyboard Layer 1 (Failing)
//Storyboard Layer 2 (Passing)
//Storyboard Layer 3 (Foreground)
//Storyboard Sound Samples
//Background Colour Transformations
3,100,255,0,0

[TimingPoints]
10730,206.184900004806,4,2,0,100

[HitObjects]
96,160,13719,2,0,B|160:224,18,60
192,224,18255,2,0,B|160:192,29,30
192,128,22070,2,0,B|256:192,23,60
160,224,28255,1,0
192,192,28977,1,0
96,128,29699,2,0,B|256:256,1,180
224,256,31039,1,0
192,224,31967,1,0
128,64,32894,2,0,B|256:224,1,180
256,192,33925,1,0
256,224,34544,1,0
224,224,35266,1,0
160,256,35987,1,0
160,224,37121,1,0
192,192,37843,1,0
128,96,38668,2,0,B|384:288,1,300
160,160,41554,1,0
192,192,42276,1,0
192,192,42997,1,0
192,224,44956,5,0
224,224,45575,1,0
224,192,46193,1,0
192,192,47224,5,0
192,160,47946,1,0
224,160,48668,1,0
256,192,49492,1,0
224,224,50420,1,0
192,256,51142,1,0
96,64,52173,6,0,B|288:224,1,240
128,192,53204,1,0
160,192,53925,1,0
160,192,54235,1,0
160,96,54544,2,0,B|288:192,1,150
192,160,56090,1,0
224,192,57018,1,0
256,192,57946,1,0
256,224,58771,1,0
288,224,59698,1,0
256,256,60626,1,0
224,256,61451,1,0
192,256,62379,1,0
192,224,63307,1,0
160,224,64131,1,0
128,224,65368,1,0
128,192,66296,1,0
160,96,66812,5,0
160,192,67430,1,0
160,96,68461,2,0,B|288:224,1,150
224,224,69595,1,0
256,224,70626,1,0
288,224,71760,1,0
224,224,72894,1,0
224,192,73925,1,0
192,192,74750,1,0
192,224,75575,1,0
160,224,76502,1,0
160,192,77224,1,0
192,192,78152,1,0
224,192,78977,1,0
224,224,79801,5,0
192,224,80729,1,0
160,224,81657,1,0
160,192,82585,1,0
192,192,90317,5,0
224,192,91039,1,0
160,96,91760,2,0,B|352:224,1,210
288,192,93513,5,0
256,160,94337,1,0
192,64,95162,2,0,B|384:192,1,210
160,192,96090,1,0
224,224,96812,1,0
256,224,97636,5,0
256,192,98255,1,0
256,160,99286,1,0
192,160,100008,1,0
160,192,100832,1,0
224,192,103616,1,0
96,96,104028,1,0
192,160,104441,1,0
192,160,105162,5,0
160,192,105987,1,0
192,224,106709,1,0
224,192,107533,1,0
192,192,108358,1,0
256,96,108977,5,0
160,192,109595,5,0
128,192,110111,1,0
160,64,110832,6,0,B|320:192,1,180
192,224,111657,1,0
192,192,112688,1,0
192,192,113410,1,0
160,224,114131,1,0
192,192,116193,5,0
224,192,116605,1,0
96,96,117327,1,0
224,160,118255,1,0
224,160,119286,1,0
192,160,120111,1,0
160,192,121038,1,0
160,192,121863,1,0
192,160,122791,1,0
224,192,123513,1,0
192,192,124131,1,0
160,192,124853,1,0
128,160,125781,1,0
192,160,126502,1,0
192,192,127327,5,0
160,192,127843,1,0
192,192,129080,1,0
224,160,129492,1,0
224,160,130007,1,0
160,160,130935,1,0
160,192,131863,1,0
128,192,132688,1,0
160,160,133513,1,0
224,160,134440,1,0
160,160,135368,1,0
128,192,136193,1,0
192,192,137018,1,0
224,160,137842,1,0
160,160,138667,1,0
256,192,139698,12,0,141863
192,128,142688,1,0
160,160,143513,1,0
128,128,144440,1,0
160,128,145368,1,0
192,128,146193,1,0
192,160,147018,1,0
160,160,148049,1,0
256,192,148873,12,0,149595
128,160,150420,1,0
128,128,151141,1,0
256,192,157842,12,0,161657
256,192,162172,12,0,163409
256,192,163925,12,0,164853
224,160,165677,5,0
256,160,166708,1,0
224,192,167842,1,0
160,192,170007,1,0
128,160,170935,1,0
160,160,171760,1,0
192,160,173512,1,0
224,160,174131,1,0
256,160,175162,1,0
288,160,176708,1,0
288,128,177739,1,0
224,128,180213,1,0
192,160,182997,5,0
192,192,183822,1,0
128,224,184750,1,0
128,192,185574,1,0
256,192,185987,12,0,186708
160,160,187430,1,0
192,160,188152,1,0
224,192,188873,1,0
256,192,189904,1,0
256,160,190935,1,0
224,160,191657,1,0
224,192,192378,1,0
256,192,192688,12,0,193512
192,192,194131,1,0
160,160,194853,1,0
192,160,195884,1,0
160,192,197121,1,0
128,192,197945,1,0
128,160,198770,1,0
192,256,199595,1,0
160,192,200935,1,0
128,128,201760,1,0
128,128,202481,1,0
192,192,203100,1,0
224,192,204131,1,0
256,192,206090,12,0,208152
224,192,208667,1,0
192,128,210110,1,0
256,128,211038,1,0
224,192,211966,1,0
192,192,212791,1,0
160,160,213925,5,0
192,128,215162,1,0
224,160,216090,1,0
192,192,217945,1,0
160,192,218976,1,0
160,160,219904,1,0
224,160,221244,1,0
192,192,222481,1,0
160,160,223306,1,0
192,160,224543,1,0
192,192,225471,1,0
192,192,226296,5,0
128,192,227327,1,0
160,160,228255,1,0
256,192,229182,12,0,231657
192,160,232172,1,0
128,96,232688,1,0
224,128,233203,1,0
256,192,235883,12,0,241450
