osu file format v14

[General]
AudioFilename: Bomber HEY!! - Ai wa Binchoutan Part II.mp3
AudioLeadIn: 0
PreviewTime: 73055
Countdown: 0
SampleSet: Soft
StackLeniency: 0.7
Mode: 3
LetterboxInBreaks: 0
SpecialStyle: 0
WidescreenStoryboard: 1

[Editor]
DistanceSpacing: 1
BeatDivisor: 8
GridSize: 32
TimelineZoom: 2

[Metadata]
Title:Ai wa Binchoutan Part II
TitleUnicode:愛は備長炭パートⅡ
Artist:Bomber HEY!!
ArtistUnicode:Bomber HEY!!
Creator:Kayano
Version:Insane
Source:
Tags:
BeatmapID:1166247
BeatmapSetID:548644

[Difficulty]
HPDrainRate:8
CircleSize:4
OverallDifficulty:8
ApproachRate:5
SliderMultiplier:1.4
SliderTickRate:1

[Events]
//Background and Video events
0,0,"Background.jpg",0,0
//Break Periods
//Storyboard Layer 0 (Background)
//Storyboard Layer 1 (Fail)
//Storyboard Layer 2 (Pass)
//Storyboard Layer 3 (Foreground)
//Storyboard Sound Samples

[TimingPoints]
9378,387.096774193548,4,2,1,20,1,0
12474,-100,4,2,1,25,0,0
15571,-100,4,2,1,30,0,0
21765,-100,4,2,1,40,0,0
34152,-100,4,2,2,40,0,0
74410,-100,4,2,1,40,0,1
99184,-100,4,2,1,40,0,0

[HitObjects]
448,192,9378,5,0,0:0:0:0:
448,192,9571,1,0,0:0:0:0:
448,192,9765,1,0,0:0:0:0:
192,192,9861,1,0,0:0:0:0:
192,192,10055,1,0,0:0:0:0:
320,192,10248,1,0,0:0:0:0:
320,192,10442,1,0,0:0:0:0:
64,192,10539,1,0,0:0:0:0:
64,192,10732,1,0,0:0:0:0:
192,192,10781,1,0,0:0:0:0:
320,192,10829,1,0,0:0:0:0:
448,192,10877,1,0,0:0:0:0:
192,192,10926,1,0,0:0:0:0:
64,192,10926,128,0,11119:0:0:0:0:
320,192,11119,128,0,11313:0:0:0:0:
192,192,11313,128,0,11507:0:0:0:0:
448,192,11313,1,0,0:0:0:0:
320,192,11507,128,0,11700:0:0:0:0:
64,192,11700,128,0,12281:0:0:0:0:
192,192,11700,1,0,0:0:0:0:
320,192,11894,1,8,0:0:0:0:
448,192,11894,1,0,0:0:0:0:
320,192,12087,1,8,0:0:0:0:
192,192,12087,1,0,0:0:0:0:
448,192,12281,1,0,0:0:0:0:
64,192,12474,1,0,1:0:0:0:
320,192,12474,1,0,0:0:0:0:
448,192,12668,1,0,0:0:0:0:
192,192,12765,1,0,0:0:0:0:
64,192,12765,1,0,1:0:0:0:
320,192,12861,1,0,0:0:0:0:
192,192,12958,1,0,0:0:0:0:
320,192,13055,1,0,0:0:0:0:
448,192,13055,1,0,1:0:0:0:
64,192,13152,1,0,0:0:0:0:
448,192,13248,1,0,1:0:0:0:
192,192,13248,1,0,0:0:0:0:
64,192,13345,1,0,0:0:0:0:
448,192,13539,1,0,1:0:0:0:
192,192,13539,1,0,0:0:0:0:
64,192,13636,1,0,0:0:0:0:
448,192,13829,1,0,1:0:0:0:
192,192,13829,1,0,0:0:0:0:
64,192,13877,1,0,0:0:0:0:
320,192,13926,1,0,0:0:0:0:
448,192,13974,1,0,0:0:0:0:
192,192,14023,1,0,0:0:0:0:
64,192,14023,128,0,14216:1:0:0:0:
448,192,14216,128,0,14410:1:0:0:0:
192,192,14313,1,0,0:0:0:0:
64,192,14410,128,0,14603:1:0:0:0:
320,192,14603,128,0,14797:1:0:0:0:
192,192,14603,1,0,0:0:0:0:
192,192,14797,1,0,0:0:0:0:
64,192,14797,128,0,15377:1:0:0:0:
320,192,14990,1,8,0:0:0:0:
448,192,14990,1,0,0:0:0:0:
192,192,15087,1,0,0:0:0:0:
320,192,15184,1,8,0:0:0:0:
192,192,15281,1,0,0:0:0:0:
320,192,15377,1,0,0:0:0:0:
448,192,15377,1,0,0:0:0:0:
64,192,15571,1,2,0:3:0:0:
192,192,15571,1,0,0:0:0:0:
448,192,15765,1,0,0:0:0:0:
192,192,15861,1,0,0:0:0:0:
320,192,15861,1,0,0:0:0:0:
64,192,15958,1,0,0:0:0:0:
448,192,15958,1,2,0:3:0:0:
320,192,16055,1,0,0:0:0:0:
192,192,16152,1,0,0:0:0:0:
64,192,16152,1,0,0:0:0:0:
320,192,16345,1,0,0:0:0:0:
448,192,16345,1,2,0:3:0:0:
64,192,16442,1,0,0:0:0:0:
448,192,16636,1,0,0:0:0:0:
320,192,16636,1,0,0:0:0:0:
64,192,16732,1,2,0:3:0:0:
192,192,16732,1,0,0:0:0:0:
64,192,16926,1,0,0:0:0:0:
448,192,16926,1,0,0:0:0:0:
192,192,16974,1,0,0:0:0:0:
320,192,17023,1,0,0:0:0:0:
448,192,17071,1,0,0:0:0:0:
64,192,17119,1,2,0:3:0:0:
192,192,17119,1,0,0:0:0:0:
448,192,17313,1,0,0:0:0:0:
64,192,17410,1,0,0:0:0:0:
192,192,17410,1,0,0:0:0:0:
320,192,17507,1,0,0:0:0:0:
448,192,17507,1,2,0:3:0:0:
192,192,17700,1,0,0:0:0:0:
448,192,17700,1,0,0:0:0:0:
320,192,17797,1,0,0:0:0:0:
64,192,17894,1,0,0:0:0:0:
448,192,17894,1,2,0:3:0:0:
320,192,17990,1,0,0:0:0:0:
192,192,18087,1,0,0:0:0:0:
64,192,18087,1,0,0:0:0:0:
320,192,18184,1,0,0:0:0:0:
448,192,18184,1,0,0:0:0:0:
192,192,18281,1,2,0:3:0:0:
64,192,18281,128,4,18474:0:0:0:0:
320,192,18474,1,0,0:0:0:0:
448,192,18474,128,4,18668:0:0:0:0:
192,192,18668,1,2,0:3:0:0:
64,192,18668,128,4,18861:0:0:0:0:
448,192,19055,1,2,0:3:0:0:
320,192,19055,128,4,19248:0:0:0:0:
64,192,19248,1,0,0:0:0:0:
192,192,19248,128,4,19442:0:0:0:0:
448,192,19442,1,2,0:3:0:0:
320,192,19442,128,4,19636:0:0:0:0:
448,192,19829,128,4,20023:0:0:0:0:
192,192,19829,1,2,0:3:0:0:
64,192,20023,128,4,20216:0:0:0:0:
320,192,20023,1,0,0:0:0:0:
448,192,20216,128,4,21571:0:0:0:0:
320,192,20216,1,4,0:0:0:0:
192,192,20216,1,2,0:3:0:0:
320,192,20410,1,0,0:0:0:0:
64,192,20410,1,0,0:0:0:0:
192,192,20507,1,0,0:0:0:0:
320,192,20603,1,0,0:0:0:0:
64,192,20700,1,0,0:0:0:0:
192,192,20797,1,0,0:0:0:0:
320,192,20894,1,0,0:0:0:0:
192,192,20990,1,8,0:0:0:0:
64,192,20990,1,0,0:0:0:0:
192,192,21184,1,8,0:0:0:0:
320,192,21184,1,0,0:0:0:0:
192,192,21377,1,8,0:0:0:0:
64,192,21377,1,0,0:0:0:0:
320,192,21571,1,0,0:0:0:0:
448,192,21765,1,2,0:3:0:0:
192,192,21765,1,4,0:0:0:0:
64,192,21765,1,4,0:0:0:0:
448,192,21958,1,0,0:0:0:0:
320,192,21958,1,8,0:0:0:0:
192,192,22055,1,0,0:0:0:0:
64,192,22152,1,0,0:0:0:0:
320,192,22152,1,2,0:3:0:0:
448,192,22248,1,0,0:0:0:0:
192,192,22345,1,0,0:0:0:0:
320,192,22345,1,8,0:0:0:0:
64,192,22442,1,0,0:0:0:0:
192,192,22539,1,2,0:3:0:0:
448,192,22539,1,0,0:0:0:0:
64,192,22636,1,0,0:0:0:0:
320,192,22732,1,8,0:0:0:0:
448,192,22732,1,0,0:0:0:0:
192,192,22829,1,0,0:0:0:0:
448,192,22926,1,0,0:0:0:0:
64,192,22926,1,2,0:3:0:0:
64,192,23119,1,0,0:0:0:0:
192,192,23119,1,8,0:0:0:0:
320,192,23168,1,0,0:0:0:0:
448,192,23216,1,0,0:0:0:0:
320,192,23265,1,0,0:0:0:0:
192,192,23313,1,0,0:0:0:0:
64,192,23313,128,2,23507:0:3:0:0:
192,192,23507,128,8,23700:0:0:0:0:
320,192,23507,1,0,0:0:0:0:
448,192,23700,128,2,23894:0:3:0:0:
64,192,23700,1,0,0:0:0:0:
320,192,23894,128,8,24087:0:0:0:0:
192,192,23894,1,0,0:0:0:0:
64,192,24087,128,2,24474:0:3:0:0:
448,192,24087,1,0,0:0:0:0:
192,192,24281,1,8,0:0:0:0:
448,192,24377,1,0,0:0:0:0:
320,192,24474,1,2,0:3:0:0:
192,192,24474,1,4,0:0:0:0:
64,192,24668,1,0,0:0:0:0:
448,192,24668,1,8,0:0:0:0:
448,192,24861,1,2,0:3:0:0:
64,192,24861,1,4,0:0:0:0:
192,192,24861,1,4,0:0:0:0:
192,192,25055,1,0,0:0:0:0:
320,192,25055,1,8,0:0:0:0:
448,192,25152,1,0,0:0:0:0:
192,192,25248,1,2,0:3:0:0:
64,192,25248,1,0,0:0:0:0:
320,192,25345,1,0,0:0:0:0:
64,192,25442,1,0,0:0:0:0:
448,192,25442,1,8,0:0:0:0:
192,192,25539,1,0,0:0:0:0:
320,192,25636,1,2,0:3:0:0:
448,192,25636,1,0,0:0:0:0:
192,192,25732,1,0,0:0:0:0:
64,192,25829,1,8,0:0:0:0:
448,192,25829,1,0,0:0:0:0:
320,192,25926,1,0,0:0:0:0:
192,192,26023,1,2,0:3:0:0:
64,192,26023,1,0,0:0:0:0:
448,192,26216,1,0,0:0:0:0:
320,192,26216,1,8,0:0:0:0:
192,192,26265,1,0,0:0:0:0:
64,192,26313,1,0,0:0:0:0:
192,192,26361,1,0,0:0:0:0:
320,192,26410,1,4,0:0:0:0:
448,192,26410,128,2,26603:0:3:0:0:
320,192,26603,128,8,26797:0:0:0:0:
64,192,26603,1,0,0:0:0:0:
192,192,26797,128,2,26990:0:3:0:0:
448,192,26797,1,0,0:0:0:0:
64,192,26990,128,8,27184:0:0:0:0:
320,192,26990,1,0,0:0:0:0:
448,192,27184,128,2,27571:0:3:0:0:
192,192,27184,1,0,0:0:0:0:
320,192,27184,1,4,0:0:0:0:
64,192,27281,1,0,0:0:0:0:
192,192,27377,1,8,0:0:0:0:
320,192,27474,1,0,0:0:0:0:
64,192,27571,1,4,0:0:0:0:
192,192,27571,128,2,27958:0:3:0:0:
320,192,27765,1,8,0:0:0:0:
448,192,27765,1,0,0:0:0:0:
320,192,27958,1,4,0:0:0:0:
64,192,27958,1,2,0:3:0:0:
448,192,27958,1,4,0:0:0:0:
192,192,28152,1,8,0:0:0:0:
448,192,28152,1,0,0:0:0:0:
320,192,28248,1,0,0:0:0:0:
64,192,28345,1,0,0:0:0:0:
448,192,28345,1,2,0:3:0:0:
192,192,28442,1,0,0:0:0:0:
320,192,28539,1,8,0:0:0:0:
64,192,28539,1,0,0:0:0:0:
448,192,28636,1,0,0:0:0:0:
320,192,28732,1,0,0:0:0:0:
192,192,28732,1,2,0:3:0:0:
448,192,28829,1,0,0:0:0:0:
320,192,28926,1,8,0:0:0:0:
64,192,28926,1,0,0:0:0:0:
192,192,29023,1,0,0:0:0:0:
64,192,29119,1,0,0:0:0:0:
448,192,29119,1,2,0:3:0:0:
64,192,29313,1,0,0:0:0:0:
192,192,29313,1,8,0:0:0:0:
320,192,29361,1,0,0:0:0:0:
448,192,29410,1,0,0:0:0:0:
192,192,29458,1,0,0:0:0:0:
320,192,29507,1,0,0:0:0:0:
64,192,29507,128,2,29700:0:3:0:0:
448,192,29700,128,8,29894:0:0:0:0:
192,192,29700,1,0,0:0:0:0:
192,192,29894,128,2,30087:0:3:0:0:
64,192,29894,1,0,0:0:0:0:
448,192,30087,1,0,0:0:0:0:
320,192,30087,128,8,30281:0:0:0:0:
64,192,30281,128,2,30668:0:3:0:0:
192,192,30281,1,0,0:0:0:0:
448,192,30474,1,8,0:0:0:0:
320,192,30571,1,0,0:0:0:0:
192,192,30668,1,4,0:0:0:0:
448,192,30668,1,2,0:3:0:0:
320,192,30861,1,8,0:0:0:0:
64,192,30861,1,0,0:0:0:0:
448,192,31055,1,2,0:3:0:0:
192,192,31055,1,4,0:0:0:0:
64,192,31055,1,4,0:0:0:0:
192,192,31248,1,0,0:0:0:0:
320,192,31248,1,8,0:0:0:0:
64,192,31345,1,0,0:0:0:0:
448,192,31442,1,0,0:0:0:0:
320,192,31442,1,2,0:3:0:0:
192,192,31539,1,0,0:0:0:0:
64,192,31636,1,8,0:0:0:0:
448,192,31636,1,0,0:0:0:0:
320,192,31684,1,0,0:0:0:0:
192,192,31732,1,0,0:0:0:0:
64,192,31781,1,0,0:0:0:0:
320,192,31829,1,2,0:3:0:0:
448,192,31829,1,0,0:0:0:0:
192,192,31926,1,0,0:0:0:0:
64,192,32023,1,0,0:0:0:0:
448,192,32023,1,8,0:0:0:0:
320,192,32119,1,0,0:0:0:0:
192,192,32216,1,2,0:3:0:0:
64,192,32216,1,4,0:0:0:0:
320,192,32313,1,0,0:0:0:0:
448,192,32410,1,8,0:0:0:0:
64,192,32410,1,0,0:0:0:0:
192,192,32458,1,0,0:0:0:0:
320,192,32507,1,0,0:0:0:0:
448,192,32555,1,0,0:0:0:0:
192,192,32603,1,2,0:3:0:0:
64,192,32603,1,4,0:0:0:0:
320,192,32700,1,0,0:0:0:0:
448,192,32797,1,0,0:0:0:0:
64,192,32797,1,8,0:0:0:0:
192,192,32894,1,0,0:0:0:0:
320,192,32990,1,2,0:3:0:0:
448,192,32990,1,0,0:0:0:0:
64,192,33087,1,0,0:0:0:0:
192,192,33184,1,0,0:0:0:0:
320,192,33184,1,8,0:0:0:0:
448,192,33281,1,0,0:0:0:0:
192,192,33377,1,4,0:0:0:0:
320,192,33377,1,0,0:0:0:0:
64,192,33377,128,4,33571:0:3:0:0:
192,192,33571,128,4,33765:0:3:0:0:
320,192,33571,1,4,0:0:0:0:
448,192,33571,1,0,0:0:0:0:
320,192,33765,128,4,34539:0:3:0:0:
448,192,33765,1,4,0:0:0:0:
64,192,33765,1,0,0:0:0:0:
448,192,33958,1,8,0:0:0:0:
192,192,34539,1,2,0:0:0:0:
64,192,34539,1,0,0:0:0:0:
320,192,34926,1,2,0:0:0:0:
448,192,34926,1,0,0:0:0:0:
192,192,35216,1,2,0:0:0:0:
64,192,35216,1,0,0:0:0:0:
320,192,35313,1,2,0:0:0:0:
448,192,35313,1,0,0:0:0:0:
192,192,35507,1,2,0:0:0:0:
320,192,35507,1,0,0:0:0:0:
64,192,35700,1,2,0:0:0:0:
320,192,35700,1,4,0:0:0:0:
448,192,35700,1,4,0:0:0:0:
192,192,35894,1,0,0:0:0:0:
448,192,35990,1,0,0:0:0:0:
320,192,35990,1,0,0:0:0:0:
192,192,36087,1,0,0:0:0:0:
64,192,36087,1,8,0:0:0:0:
64,192,36281,1,0,0:0:0:0:
448,192,36281,1,0,0:0:0:0:
192,192,36474,1,2,0:0:0:0:
448,192,36474,1,0,0:0:0:0:
64,192,36668,1,0,0:0:0:0:
448,192,36765,1,0,0:0:0:0:
320,192,36765,1,0,0:0:0:0:
64,192,36861,1,0,0:0:0:0:
192,192,36861,1,8,0:0:0:0:
64,192,37055,1,0,0:0:0:0:
320,192,37055,1,0,0:0:0:0:
64,192,37248,1,0,0:0:0:0:
192,192,37248,1,0,0:0:0:0:
448,192,37248,1,2,0:0:0:0:
320,192,37442,1,0,0:0:0:0:
192,192,37539,1,0,0:0:0:0:
64,192,37539,1,0,0:0:0:0:
448,192,37636,1,8,0:0:0:0:
320,192,37636,1,0,0:0:0:0:
448,192,37829,1,0,0:0:0:0:
192,192,37829,1,0,0:0:0:0:
320,192,38023,1,0,0:0:0:0:
64,192,38023,1,2,0:0:0:0:
448,192,38216,1,0,0:0:0:0:
64,192,38216,1,0,0:0:0:0:
192,192,38313,1,0,0:0:0:0:
320,192,38313,1,0,0:0:0:0:
64,192,38410,1,0,0:0:0:0:
448,192,38410,1,8,0:0:0:0:
192,192,38603,1,0,0:0:0:0:
448,192,38603,1,0,0:0:0:0:
448,192,38797,1,2,0:0:0:0:
320,192,38797,1,0,0:0:0:0:
64,192,38797,1,0,0:0:0:0:
320,192,38990,1,0,0:0:0:0:
64,192,39087,1,0,0:0:0:0:
192,192,39087,1,0,0:0:0:0:
448,192,39184,1,8,0:0:0:0:
320,192,39184,1,0,0:0:0:0:
192,192,39377,1,0,0:0:0:0:
448,192,39377,1,0,0:0:0:0:
64,192,39571,1,0,0:0:0:0:
448,192,39571,1,2,0:0:0:0:
192,192,39765,1,0,0:0:0:0:
448,192,39861,1,0,0:0:0:0:
320,192,39861,1,0,0:0:0:0:
192,192,39958,1,0,0:0:0:0:
64,192,39958,1,8,0:0:0:0:
320,192,40152,1,0,0:0:0:0:
64,192,40152,1,0,0:0:0:0:
64,192,40345,1,0,0:0:0:0:
192,192,40345,1,0,0:0:0:0:
448,192,40345,1,2,0:0:0:0:
320,192,40539,1,0,0:0:0:0:
448,192,40636,1,0,0:0:0:0:
192,192,40636,1,0,0:0:0:0:
320,192,40732,1,0,0:0:0:0:
64,192,40732,1,8,0:0:0:0:
448,192,40926,1,0,0:0:0:0:
64,192,40926,1,0,0:0:0:0:
448,192,41119,1,2,0:0:0:0:
192,192,41119,1,0,0:0:0:0:
448,192,41313,1,0,0:0:0:0:
320,192,41313,1,0,0:0:0:0:
64,192,41410,1,0,0:0:0:0:
192,192,41410,1,0,0:0:0:0:
448,192,41507,1,8,0:0:0:0:
320,192,41507,1,0,0:0:0:0:
64,192,41603,1,0,0:0:0:0:
192,192,41603,1,0,0:0:0:0:
320,192,41700,1,0,0:0:0:0:
448,192,41700,1,0,0:0:0:0:
320,192,41894,1,0,0:0:0:0:
192,192,41894,1,0,0:0:0:0:
64,192,41894,128,2,42087:0:0:0:0:
448,192,42087,128,0,42281:0:0:0:0:
192,192,42184,1,0,0:0:0:0:
320,192,42281,1,0,0:0:0:0:
64,192,42281,128,8,42474:0:0:0:0:
192,192,42474,1,0,0:0:0:0:
448,192,42474,128,0,42668:0:0:0:0:
320,192,42668,1,0,0:0:0:0:
192,192,42668,1,2,0:0:0:0:
64,192,42861,1,0,0:0:0:0:
448,192,42958,1,0,0:0:0:0:
192,192,42958,1,0,0:0:0:0:
320,192,43055,1,0,0:0:0:0:
64,192,43055,1,8,0:0:0:0:
320,192,43248,1,0,0:0:0:0:
192,192,43248,1,0,0:0:0:0:
320,192,43442,128,2,43636:0:0:0:0:
64,192,43442,1,0,0:0:0:0:
448,192,43442,1,0,0:0:0:0:
192,192,43636,128,0,43829:0:0:0:0:
448,192,43732,1,0,0:0:0:0:
320,192,43829,128,8,44023:0:0:0:0:
64,192,43829,1,0,0:0:0:0:
192,192,44023,128,0,44216:0:0:0:0:
448,192,44023,1,0,0:0:0:0:
64,192,44216,1,0,0:0:0:0:
448,192,44216,1,2,0:0:0:0:
320,192,44410,1,0,0:0:0:0:
192,192,44507,1,0,0:0:0:0:
64,192,44507,1,0,0:0:0:0:
448,192,44603,1,8,0:0:0:0:
320,192,44603,1,0,0:0:0:0:
320,192,44797,1,0,0:0:0:0:
192,192,44797,1,0,0:0:0:0:
448,192,44990,1,2,0:0:0:0:
192,192,44990,1,0,0:0:0:0:
64,192,44990,1,0,0:0:0:0:
320,192,45184,1,0,0:0:0:0:
448,192,45281,1,0,0:0:0:0:
192,192,45281,1,0,0:0:0:0:
64,192,45377,1,8,0:0:0:0:
320,192,45377,1,0,0:0:0:0:
192,192,45571,1,0,0:0:0:0:
448,192,45571,1,0,0:0:0:0:
64,192,45765,1,0,0:0:0:0:
448,192,45765,1,2,0:0:0:0:
320,192,45958,1,0,0:0:0:0:
192,192,45958,1,0,0:0:0:0:
64,192,46055,1,0,0:0:0:0:
448,192,46055,1,0,0:0:0:0:
192,192,46152,1,0,0:0:0:0:
320,192,46152,1,8,0:0:0:0:
64,192,46345,1,0,0:0:0:0:
448,192,46345,1,0,0:0:0:0:
192,192,46539,1,4,0:0:0:0:
448,192,46539,1,2,0:0:0:0:
320,192,46539,1,0,0:0:0:0:
64,192,46732,1,0,0:0:0:0:
320,192,46732,1,0,0:0:0:0:
192,192,46829,1,0,0:0:0:0:
448,192,46829,1,0,0:0:0:0:
320,192,46926,1,0,0:0:0:0:
64,192,46926,1,8,0:0:0:0:
448,192,47119,1,0,0:0:0:0:
192,192,47119,1,0,0:0:0:0:
64,192,47216,1,0,0:0:0:0:
320,192,47216,1,0,0:0:0:0:
192,192,47313,1,0,0:0:0:0:
448,192,47313,1,2,0:0:0:0:
320,192,47507,1,0,0:0:0:0:
448,192,47507,1,0,0:0:0:0:
192,192,47603,1,0,0:0:0:0:
64,192,47603,1,0,0:0:0:0:
320,192,47700,1,0,0:0:0:0:
448,192,47700,1,8,0:0:0:0:
64,192,47748,1,0,0:0:0:0:
192,192,47797,1,0,0:0:0:0:
448,192,47845,1,0,0:0:0:0:
320,192,47894,1,0,0:0:0:0:
64,192,47942,1,0,0:0:0:0:
192,192,47990,1,0,0:0:0:0:
448,192,48039,1,0,0:0:0:0:
320,192,48087,1,2,0:0:0:0:
64,192,48087,1,4,0:0:0:0:
192,192,48087,1,4,0:0:0:0:
448,192,48281,1,0,0:0:0:0:
320,192,48377,1,0,0:0:0:0:
64,192,48474,1,8,0:0:0:0:
192,192,48474,1,0,0:0:0:0:
448,192,48668,1,0,0:0:0:0:
64,192,48668,1,0,0:0:0:0:
320,192,48765,1,0,0:0:0:0:
192,192,48861,1,0,0:0:0:0:
64,192,48861,1,2,0:0:0:0:
448,192,48958,1,0,0:0:0:0:
320,192,49055,1,0,0:0:0:0:
192,192,49152,1,0,0:0:0:0:
64,192,49248,1,0,0:0:0:0:
448,192,49248,1,8,0:0:0:0:
192,192,49442,1,0,0:0:0:0:
320,192,49442,1,0,0:0:0:0:
192,192,49636,1,4,0:0:0:0:
64,192,49636,1,4,0:0:0:0:
448,192,49636,1,2,0:0:0:0:
320,192,49829,1,0,0:0:0:0:
192,192,49926,1,0,0:0:0:0:
448,192,50023,1,8,0:0:0:0:
64,192,50023,1,0,0:0:0:0:
320,192,50119,1,0,0:0:0:0:
64,192,50216,1,0,0:0:0:0:
192,192,50216,1,0,0:0:0:0:
448,192,50313,1,0,0:0:0:0:
320,192,50410,1,0,0:0:0:0:
192,192,50410,1,2,0:0:0:0:
448,192,50603,1,0,0:0:0:0:
64,192,50603,1,0,0:0:0:0:
192,192,50700,1,0,0:0:0:0:
320,192,50700,1,0,0:0:0:0:
64,192,50797,1,0,0:0:0:0:
448,192,50797,1,8,0:0:0:0:
320,192,50990,1,0,0:0:0:0:
192,192,50990,1,0,0:0:0:0:
64,192,51184,1,2,0:0:0:0:
448,192,51184,1,4,0:0:0:0:
320,192,51184,1,4,0:0:0:0:
192,192,51281,1,0,0:0:0:0:
320,192,51377,1,0,0:0:0:0:
448,192,51474,1,0,0:0:0:0:
64,192,51571,1,8,0:0:0:0:
192,192,51571,1,0,0:0:0:0:
448,192,51668,1,0,0:0:0:0:
320,192,51765,1,0,0:0:0:0:
192,192,51765,1,0,0:0:0:0:
64,192,51861,1,0,0:0:0:0:
448,192,51958,1,2,0:0:0:0:
320,192,51958,1,0,0:0:0:0:
64,192,52055,1,0,0:0:0:0:
192,192,52152,1,0,0:0:0:0:
320,192,52248,1,0,0:0:0:0:
64,192,52345,1,0,0:0:0:0:
448,192,52345,1,8,0:0:0:0:
320,192,52539,1,0,0:0:0:0:
64,192,52539,1,0,0:0:0:0:
64,192,52732,1,4,0:0:0:0:
192,192,52732,1,4,0:0:0:0:
448,192,52732,1,2,0:0:0:0:
448,192,52926,1,0,0:0:0:0:
64,192,53023,1,0,0:0:0:0:
448,192,53119,1,8,0:0:0:0:
192,192,53119,1,0,0:0:0:0:
64,192,53313,1,0,0:0:0:0:
448,192,53313,1,0,0:0:0:0:
192,192,53507,1,4,0:0:0:0:
320,192,53507,1,4,0:0:0:0:
448,192,53507,1,2,0:0:0:0:
448,192,53700,1,0,0:0:0:0:
64,192,53797,1,0,0:0:0:0:
192,192,53797,1,4,0:0:0:0:
320,192,53797,1,4,0:0:0:0:
448,192,53894,1,8,0:0:0:0:
192,192,54087,1,4,0:0:0:0:
320,192,54087,1,4,0:0:0:0:
448,192,54087,1,0,0:0:0:0:
64,192,54281,1,0,0:0:0:0:
192,192,54281,1,4,0:0:0:0:
448,192,54281,1,2,0:0:0:0:
320,192,54281,1,4,0:0:0:0:
64,192,54474,1,0,0:0:0:0:
192,192,54571,1,0,0:0:0:0:
320,192,54668,1,0,0:0:0:0:
448,192,54668,1,8,0:0:0:0:
192,192,54765,1,0,0:0:0:0:
64,192,54861,1,0,0:0:0:0:
448,192,54861,1,0,0:0:0:0:
320,192,54958,1,0,0:0:0:0:
64,192,55055,1,2,0:0:0:0:
192,192,55055,1,0,0:0:0:0:
320,192,55152,1,0,0:0:0:0:
448,192,55248,1,0,0:0:0:0:
320,192,55345,1,0,0:0:0:0:
192,192,55442,1,0,0:0:0:0:
64,192,55442,1,8,0:0:0:0:
320,192,55636,1,0,0:0:0:0:
448,192,55636,1,0,0:0:0:0:
192,192,55829,1,4,0:0:0:0:
64,192,55829,1,4,0:0:0:0:
448,192,55829,1,2,0:0:0:0:
320,192,55926,1,0,0:0:0:0:
64,192,56023,1,0,0:0:0:0:
192,192,56119,1,0,0:0:0:0:
320,192,56216,1,0,0:0:0:0:
448,192,56216,1,8,0:0:0:0:
64,192,56313,1,0,0:0:0:0:
192,192,56410,1,0,0:0:0:0:
448,192,56410,1,0,0:0:0:0:
320,192,56507,1,0,0:0:0:0:
192,192,56603,1,0,0:0:0:0:
64,192,56603,1,2,0:0:0:0:
448,192,56700,1,0,0:0:0:0:
320,192,56797,1,0,0:0:0:0:
192,192,56894,1,0,0:0:0:0:
64,192,56990,1,0,0:0:0:0:
448,192,56990,1,8,0:0:0:0:
192,192,57184,1,0,0:0:0:0:
320,192,57184,1,0,0:0:0:0:
320,192,57377,1,4,0:0:0:0:
448,192,57377,1,4,0:0:0:0:
64,192,57377,1,2,0:0:0:0:
192,192,57571,1,0,0:0:0:0:
320,192,57668,1,0,0:0:0:0:
448,192,57765,1,8,0:0:0:0:
64,192,57765,1,0,0:0:0:0:
320,192,57861,1,0,0:0:0:0:
64,192,57958,1,0,0:0:0:0:
192,192,57958,1,0,0:0:0:0:
448,192,58055,1,0,0:0:0:0:
64,192,58152,1,2,0:0:0:0:
320,192,58152,1,0,0:0:0:0:
448,192,58248,1,0,0:0:0:0:
192,192,58345,1,0,0:0:0:0:
320,192,58442,1,0,0:0:0:0:
64,192,58539,1,0,0:0:0:0:
448,192,58539,1,8,0:0:0:0:
320,192,58732,1,0,0:0:0:0:
192,192,58732,1,0,0:0:0:0:
192,192,58926,128,4,59700:0:0:0:0:
448,192,58926,1,4,0:0:0:0:
64,192,58926,1,2,0:0:0:0:
64,192,59119,1,0,0:0:0:0:
448,192,59216,1,0,0:0:0:0:
320,192,59313,1,0,0:0:0:0:
64,192,59313,1,8,0:0:0:0:
64,192,59507,1,0,0:0:0:0:
448,192,59507,1,0,0:0:0:0:
320,192,59700,128,4,60087:0:0:0:0:
64,192,59700,1,10,0:0:0:0:
448,192,59700,1,4,0:0:0:0:
448,192,59894,1,0,0:0:0:0:
64,192,59894,1,0,0:0:0:0:
448,192,60087,128,4,60474:0:0:0:0:
64,192,60087,1,10,0:0:0:0:
192,192,60087,1,4,0:0:0:0:
64,192,60281,1,0,0:0:0:0:
192,192,60281,1,0,0:0:0:0:
320,192,60474,1,4,0:0:0:0:
192,192,60474,1,4,0:0:0:0:
64,192,60474,1,2,0:0:0:0:
448,192,60668,128,8,60861:0:0:0:0:
320,192,60765,1,0,0:0:0:0:
192,192,60861,1,0,0:0:0:0:
64,192,60861,1,2,0:0:0:0:
448,192,61055,128,8,61248:0:0:0:0:
320,192,61248,1,0,0:0:0:0:
64,192,61248,1,2,0:0:0:0:
448,192,61442,128,8,61636:0:0:0:0:
64,192,61539,1,0,0:0:0:0:
192,192,61636,1,2,0:0:0:0:
320,192,61636,1,0,0:0:0:0:
448,192,61829,128,8,62023:0:0:0:0:
320,192,62023,1,0,0:0:0:0:
192,192,62023,1,0,0:0:0:0:
64,192,62023,1,2,0:0:0:0:
448,192,62216,128,8,62410:0:0:0:0:
320,192,62313,1,0,0:0:0:0:
192,192,62410,1,0,0:0:0:0:
64,192,62410,1,2,0:0:0:0:
448,192,62603,128,8,62797:0:0:0:0:
320,192,62797,1,4,0:0:0:0:
64,192,62797,1,2,0:0:0:0:
448,192,62990,128,8,63184:0:0:0:0:
64,192,63087,1,0,0:0:0:0:
192,192,63184,1,2,0:0:0:0:
320,192,63184,1,4,0:0:0:0:
448,192,63377,128,8,63571:0:0:0:0:
64,192,63571,1,2,0:0:0:0:
192,192,63571,1,4,0:0:0:0:
320,192,63571,1,4,0:0:0:0:
64,192,63765,128,8,63958:0:0:0:0:
192,192,63861,1,0,0:0:0:0:
320,192,63958,1,0,0:0:0:0:
448,192,63958,1,2,0:0:0:0:
64,192,64152,128,8,64345:0:0:0:0:
192,192,64345,1,0,0:0:0:0:
448,192,64345,1,2,0:0:0:0:
64,192,64539,128,8,64732:0:0:0:0:
448,192,64636,1,0,0:0:0:0:
320,192,64732,1,2,0:0:0:0:
192,192,64732,1,0,0:0:0:0:
64,192,64926,128,8,65119:0:0:0:0:
192,192,65119,1,0,0:0:0:0:
320,192,65119,1,0,0:0:0:0:
448,192,65119,1,2,0:0:0:0:
64,192,65313,128,8,65507:0:0:0:0:
192,192,65410,1,0,0:0:0:0:
320,192,65507,1,0,0:0:0:0:
448,192,65507,1,2,0:0:0:0:
64,192,65700,128,8,65894:0:0:0:0:
192,192,65894,1,0,0:0:0:0:
448,192,65894,1,2,0:0:0:0:
64,192,66087,128,8,66281:0:0:0:0:
448,192,66184,1,0,0:0:0:0:
320,192,66281,1,2,0:0:0:0:
192,192,66281,1,0,0:0:0:0:
448,192,66377,1,0,0:0:0:0:
64,192,66474,128,8,66668:0:0:0:0:
192,192,66668,1,4,0:0:0:0:
448,192,66668,1,4,0:0:0:0:
320,192,66668,128,2,66861:0:0:0:0:
448,192,66861,128,8,67055:0:0:0:0:
320,192,66958,1,0,0:0:0:0:
64,192,67055,1,0,0:0:0:0:
192,192,67055,128,2,67248:0:0:0:0:
64,192,67248,128,8,67442:0:0:0:0:
320,192,67345,1,0,0:0:0:0:
448,192,67442,1,0,0:0:0:0:
192,192,67442,128,2,67636:0:0:0:0:
448,192,67636,128,8,67829:0:0:0:0:
192,192,67732,1,0,0:0:0:0:
64,192,67829,1,0,0:0:0:0:
320,192,67829,128,2,68023:0:0:0:0:
64,192,68023,128,8,68216:0:0:0:0:
192,192,68119,1,0,0:0:0:0:
448,192,68216,1,0,0:0:0:0:
320,192,68216,128,2,68410:0:0:0:0:
448,192,68410,128,8,68603:0:0:0:0:
320,192,68507,1,0,0:0:0:0:
64,192,68603,1,0,0:0:0:0:
192,192,68603,128,2,68797:0:0:0:0:
64,192,68797,128,8,68990:0:0:0:0:
320,192,68894,1,0,0:0:0:0:
448,192,68990,1,4,0:0:0:0:
192,192,68990,128,2,69184:0:0:0:0:
448,192,69184,128,8,69377:0:0:0:0:
192,192,69281,1,0,0:0:0:0:
320,192,69377,128,2,69571:0:0:0:0:
64,192,69377,1,4,0:0:0:0:
64,192,69571,128,8,69765:0:0:0:0:
192,192,69668,1,0,0:0:0:0:
320,192,69765,1,4,0:0:0:0:
448,192,69765,128,2,69958:0:0:0:0:
64,192,69958,128,8,70152:0:0:0:0:
320,192,70055,1,0,0:0:0:0:
448,192,70152,128,2,70345:0:0:0:0:
192,192,70152,1,0,0:0:0:0:
64,192,70345,128,8,70539:0:0:0:0:
320,192,70442,1,0,0:0:0:0:
192,192,70539,128,2,70732:0:0:0:0:
448,192,70539,1,4,0:0:0:0:
320,192,70732,128,8,70926:0:0:0:0:
448,192,70732,1,0,0:0:0:0:
448,192,70926,1,0,0:0:0:0:
192,192,70926,128,2,71119:0:0:0:0:
64,192,71119,128,8,71313:0:0:0:0:
448,192,71119,1,0,0:0:0:0:
320,192,71313,1,2,0:0:0:0:
448,192,71313,1,4,0:0:0:0:
192,192,71377,1,0,0:0:0:0:
64,192,71442,1,0,0:0:0:0:
448,192,71507,1,8,0:0:0:0:
320,192,71571,1,0,0:0:0:0:
192,192,71636,1,0,0:0:0:0:
64,192,71700,1,2,0:0:0:0:
320,192,71748,1,0,0:0:0:0:
448,192,71797,1,0,0:0:0:0:
192,192,71845,1,0,0:0:0:0:
64,192,71894,1,8,0:0:0:0:
320,192,71942,1,0,0:0:0:0:
448,192,71990,1,0,0:0:0:0:
192,192,72039,1,0,0:0:0:0:
448,192,72087,1,4,0:0:0:0:
320,192,72087,1,4,0:0:0:0:
64,192,72087,1,2,0:0:0:0:
64,192,72377,1,4,0:0:0:0:
448,192,72377,1,2,0:0:0:0:
192,192,72377,1,4,0:0:0:0:
192,192,72668,1,4,0:0:0:0:
320,192,72668,1,4,0:0:0:0:
448,192,72668,1,2,0:0:0:0:
192,192,72861,1,4,0:0:0:0:
320,192,72861,1,4,0:0:0:0:
64,192,72861,128,2,74023:0:0:0:0:
448,192,72861,128,2,74023:0:0:0:0:
320,192,73248,1,0,0:0:0:0:
192,192,73636,1,0,0:0:0:0:
320,192,74023,1,8,0:0:0:0:
64,192,74410,1,6,0:0:0:0:
192,192,74410,128,4,75958:0:0:0:0:
448,192,74410,1,6,0:3:0:0:
64,192,74603,1,2,0:0:0:0:
448,192,74603,1,8,0:0:0:0:
320,192,74797,1,2,0:3:0:0:
64,192,74797,1,2,0:0:0:0:
64,192,74894,1,2,0:0:0:0:
320,192,74990,1,8,0:0:0:0:
64,192,75087,1,2,0:0:0:0:
448,192,75184,1,0,0:0:0:0:
320,192,75184,1,2,0:3:0:0:
64,192,75281,1,2,0:0:0:0:
448,192,75377,1,8,0:0:0:0:
64,192,75474,1,2,0:0:0:0:
64,192,75571,1,2,0:0:0:0:
448,192,75571,1,2,0:3:0:0:
64,192,75765,1,2,0:0:0:0:
320,192,75765,1,8,0:0:0:0:
448,192,75813,1,2,0:0:0:0:
320,192,75861,1,2,0:0:0:0:
448,192,75910,1,2,0:0:0:0:
64,192,75958,1,2,0:0:0:0:
320,192,75958,1,2,0:3:0:0:
448,192,76152,1,8,0:0:0:0:
64,192,76152,1,0,0:0:0:0:
320,192,76248,1,0,0:0:0:0:
64,192,76345,1,2,0:3:0:0:
192,192,76345,1,2,0:0:0:0:
320,192,76539,1,8,0:0:0:0:
448,192,76539,1,0,0:0:0:0:
192,192,76636,1,0,0:0:0:0:
64,192,76732,1,2,0:0:0:0:
448,192,76732,1,2,0:3:0:0:
320,192,76829,1,0,0:0:0:0:
192,192,76926,1,0,0:0:0:0:
448,192,76926,1,8,0:0:0:0:
320,192,77023,1,0,0:0:0:0:
448,192,77119,1,10,0:3:0:0:
64,192,77119,1,6,0:0:0:0:
192,192,77119,1,4,0:0:0:0:
320,192,77313,1,0,0:0:0:0:
448,192,77313,1,0,0:0:0:0:
64,192,77507,128,4,79055:0:0:0:0:
320,192,77507,1,6,0:3:0:0:
192,192,77507,1,6,0:0:0:0:
192,192,77700,1,2,0:0:0:0:
320,192,77700,1,8,0:0:0:0:
192,192,77894,1,2,0:0:0:0:
448,192,77894,1,2,0:3:0:0:
192,192,77990,1,2,0:0:0:0:
448,192,78087,1,8,0:0:0:0:
192,192,78184,1,2,0:0:0:0:
320,192,78281,1,0,0:0:0:0:
448,192,78281,1,2,0:3:0:0:
192,192,78377,1,2,0:0:0:0:
320,192,78474,1,8,0:0:0:0:
192,192,78571,1,2,0:0:0:0:
192,192,78668,1,2,0:0:0:0:
320,192,78668,1,2,0:3:0:0:
192,192,78861,1,2,0:0:0:0:
448,192,78861,1,8,0:0:0:0:
320,192,78910,1,2,0:0:0:0:
448,192,78958,1,2,0:0:0:0:
320,192,79007,1,2,0:0:0:0:
192,192,79055,1,2,0:0:0:0:
448,192,79055,1,2,0:3:0:0:
64,192,79248,1,0,0:0:0:0:
320,192,79248,1,8,0:0:0:0:
192,192,79345,1,0,0:0:0:0:
320,192,79442,1,2,0:0:0:0:
448,192,79442,1,2,0:3:0:0:
192,192,79636,1,8,0:0:0:0:
64,192,79636,1,0,0:0:0:0:
320,192,79732,1,0,0:0:0:0:
64,192,79829,1,2,0:3:0:0:
448,192,79829,1,2,0:0:0:0:
192,192,79926,1,0,0:0:0:0:
320,192,80023,1,8,0:0:0:0:
448,192,80023,1,0,0:0:0:0:
192,192,80119,1,0,0:0:0:0:
64,192,80216,1,2,0:3:0:0:
448,192,80216,1,2,0:0:0:0:
320,192,80313,1,0,0:0:0:0:
192,192,80410,1,8,0:0:0:0:
64,192,80410,1,0,0:0:0:0:
320,192,80507,1,0,0:0:0:0:
64,192,80603,1,6,0:0:0:0:
192,192,80603,128,4,82152:0:0:0:0:
448,192,80603,1,6,0:3:0:0:
64,192,80797,1,2,0:0:0:0:
320,192,80797,1,8,0:0:0:0:
64,192,80990,1,2,0:0:0:0:
448,192,80990,1,2,0:3:0:0:
64,192,81087,1,2,0:0:0:0:
320,192,81184,1,8,0:0:0:0:
64,192,81281,1,2,0:0:0:0:
448,192,81377,1,0,0:0:0:0:
320,192,81377,1,2,0:3:0:0:
64,192,81474,1,2,0:0:0:0:
448,192,81571,1,8,0:0:0:0:
64,192,81668,1,2,0:0:0:0:
64,192,81765,1,2,0:0:0:0:
320,192,81765,1,2,0:3:0:0:
64,192,81958,1,2,0:0:0:0:
448,192,81958,1,8,0:0:0:0:
320,192,82007,1,2,0:0:0:0:
448,192,82055,1,2,0:0:0:0:
320,192,82103,1,2,0:0:0:0:
64,192,82152,1,2,0:0:0:0:
448,192,82152,1,2,0:3:0:0:
320,192,82345,1,8,0:0:0:0:
192,192,82345,1,0,0:0:0:0:
448,192,82442,1,0,0:0:0:0:
192,192,82539,1,2,0:0:0:0:
64,192,82539,1,2,0:3:0:0:
320,192,82732,1,8,0:0:0:0:
64,192,82732,1,0,0:0:0:0:
192,192,82829,1,0,0:0:0:0:
320,192,82926,1,2,0:0:0:0:
448,192,82926,1,2,0:3:0:0:
64,192,83023,1,0,0:0:0:0:
192,192,83119,1,8,0:0:0:0:
448,192,83119,1,0,0:0:0:0:
320,192,83216,1,0,0:0:0:0:
64,192,83313,1,6,0:0:0:0:
192,192,83313,1,4,0:0:0:0:
448,192,83313,1,10,0:3:0:0:
320,192,83507,1,8,0:0:0:0:
448,192,83507,1,0,0:0:0:0:
64,192,83700,1,6,0:3:0:0:
192,192,83700,1,6,0:0:0:0:
320,192,83700,1,4,0:0:0:0:
320,192,83894,1,8,0:0:0:0:
448,192,83894,1,0,0:0:0:0:
192,192,83990,1,0,0:0:0:0:
64,192,84087,1,2,0:3:0:0:
448,192,84087,1,2,0:0:0:0:
64,192,84281,1,8,0:0:0:0:
448,192,84281,1,0,0:0:0:0:
320,192,84377,1,0,0:0:0:0:
192,192,84474,1,2,0:0:0:0:
64,192,84474,1,10,0:3:0:0:
448,192,84668,1,0,0:0:0:0:
320,192,84668,1,8,0:0:0:0:
64,192,84765,1,0,0:0:0:0:
192,192,84861,1,2,0:0:0:0:
448,192,84861,1,2,0:3:0:0:
64,192,85055,1,0,0:0:0:0:
320,192,85055,1,8,0:0:0:0:
64,192,85248,1,4,0:0:0:0:
448,192,85248,1,6,0:3:0:0:
192,192,85248,1,4,0:0:0:0:
320,192,85345,1,0,0:0:0:0:
64,192,85442,1,0,0:0:0:0:
192,192,85442,1,8,0:0:0:0:
448,192,85539,1,0,0:0:0:0:
64,192,85636,1,10,0:3:0:0:
320,192,85636,1,4,0:0:0:0:
192,192,85636,1,4,0:0:0:0:
448,192,85732,1,0,0:0:0:0:
192,192,85829,1,8,0:0:0:0:
320,192,85829,1,0,0:0:0:0:
64,192,85926,1,0,0:0:0:0:
192,192,86023,1,4,0:0:0:0:
320,192,86023,1,4,0:0:0:0:
448,192,86023,1,4,0:3:0:0:
64,192,86216,1,4,0:3:0:0:
192,192,86216,1,4,0:0:0:0:
320,192,86216,1,4,0:0:0:0:
448,192,86410,1,4,0:0:0:0:
192,192,86410,128,0,86797:0:3:0:0:
320,192,86410,1,4,0:0:0:0:
64,192,86410,1,4,0:3:0:0:
448,192,86797,1,6,0:0:0:0:
320,192,86797,128,4,88345:0:0:0:0:
64,192,86797,1,6,0:3:0:0:
64,192,86990,1,8,0:0:0:0:
448,192,86990,1,2,0:0:0:0:
192,192,87184,1,2,0:3:0:0:
448,192,87184,1,2,0:0:0:0:
448,192,87281,1,2,0:0:0:0:
192,192,87377,1,8,0:0:0:0:
448,192,87474,1,2,0:0:0:0:
64,192,87571,1,0,0:0:0:0:
192,192,87571,1,2,0:3:0:0:
448,192,87668,1,2,0:0:0:0:
64,192,87765,1,8,0:0:0:0:
448,192,87861,1,2,0:0:0:0:
448,192,87958,1,2,0:0:0:0:
64,192,87958,1,2,0:3:0:0:
192,192,88152,1,8,0:0:0:0:
448,192,88152,1,2,0:0:0:0:
64,192,88200,1,2,0:0:0:0:
192,192,88248,1,2,0:0:0:0:
64,192,88297,1,2,0:0:0:0:
192,192,88345,1,2,0:3:0:0:
448,192,88345,1,2,0:0:0:0:
64,192,88539,1,8,0:0:0:0:
448,192,88539,1,0,0:0:0:0:
192,192,88636,1,0,0:0:0:0:
448,192,88732,1,2,0:3:0:0:
320,192,88732,1,2,0:0:0:0:
64,192,88926,1,0,0:0:0:0:
192,192,88926,1,8,0:0:0:0:
320,192,89023,1,0,0:0:0:0:
64,192,89119,1,2,0:3:0:0:
448,192,89119,1,2,0:0:0:0:
192,192,89216,1,0,0:0:0:0:
320,192,89313,1,0,0:0:0:0:
64,192,89313,1,8,0:0:0:0:
192,192,89410,1,0,0:0:0:0:
64,192,89507,1,10,0:3:0:0:
448,192,89507,1,6,0:0:0:0:
320,192,89507,1,4,0:0:0:0:
64,192,89700,1,0,0:0:0:0:
192,192,89700,1,0,0:0:0:0:
320,192,89894,1,6,0:0:0:0:
192,192,89894,1,6,0:3:0:0:
448,192,89894,128,4,91442:0:0:0:0:
320,192,90087,1,2,0:0:0:0:
192,192,90087,1,8,0:0:0:0:
320,192,90281,1,2,0:0:0:0:
64,192,90281,1,2,0:3:0:0:
320,192,90377,1,2,0:0:0:0:
64,192,90474,1,8,0:0:0:0:
320,192,90571,1,2,0:0:0:0:
64,192,90668,1,2,0:3:0:0:
192,192,90668,1,0,0:0:0:0:
320,192,90765,1,2,0:0:0:0:
192,192,90861,1,8,0:0:0:0:
320,192,90958,1,2,0:0:0:0:
320,192,91055,1,2,0:0:0:0:
192,192,91055,1,2,0:3:0:0:
64,192,91248,1,8,0:0:0:0:
320,192,91248,1,2,0:0:0:0:
192,192,91297,1,2,0:0:0:0:
64,192,91345,1,2,0:0:0:0:
192,192,91394,1,2,0:0:0:0:
64,192,91442,1,2,0:3:0:0:
320,192,91442,1,2,0:0:0:0:
448,192,91636,1,0,0:0:0:0:
192,192,91636,1,8,0:0:0:0:
320,192,91732,1,0,0:0:0:0:
192,192,91829,1,2,0:0:0:0:
64,192,91829,1,2,0:3:0:0:
448,192,92023,1,0,0:0:0:0:
320,192,92023,1,8,0:0:0:0:
192,192,92119,1,0,0:0:0:0:
64,192,92216,1,2,0:0:0:0:
448,192,92216,1,2,0:3:0:0:
320,192,92313,1,0,0:0:0:0:
192,192,92410,1,8,0:0:0:0:
64,192,92410,1,0,0:0:0:0:
320,192,92507,1,0,0:0:0:0:
448,192,92603,1,2,0:3:0:0:
64,192,92603,1,2,0:0:0:0:
192,192,92700,1,0,0:0:0:0:
320,192,92797,1,8,0:0:0:0:
448,192,92797,1,0,0:0:0:0:
192,192,92894,1,0,0:0:0:0:
448,192,92990,1,6,0:0:0:0:
320,192,92990,128,4,94539:0:0:0:0:
64,192,92990,1,6,0:3:0:0:
192,192,93184,1,8,0:0:0:0:
448,192,93184,1,2,0:0:0:0:
64,192,93377,1,2,0:3:0:0:
448,192,93377,1,2,0:0:0:0:
448,192,93474,1,2,0:0:0:0:
192,192,93571,1,8,0:0:0:0:
448,192,93668,1,2,0:0:0:0:
64,192,93765,1,0,0:0:0:0:
192,192,93765,1,2,0:3:0:0:
448,192,93861,1,2,0:0:0:0:
64,192,93958,1,8,0:0:0:0:
448,192,94055,1,2,0:0:0:0:
192,192,94152,1,2,0:3:0:0:
448,192,94152,1,2,0:0:0:0:
448,192,94345,1,2,0:0:0:0:
64,192,94345,1,8,0:0:0:0:
192,192,94394,1,2,0:0:0:0:
64,192,94442,1,2,0:0:0:0:
192,192,94490,1,2,0:0:0:0:
448,192,94539,1,2,0:0:0:0:
64,192,94539,1,2,0:3:0:0:
192,192,94732,1,8,0:0:0:0:
320,192,94732,1,0,0:0:0:0:
64,192,94829,1,0,0:0:0:0:
448,192,94926,1,2,0:3:0:0:
320,192,94926,1,2,0:0:0:0:
448,192,95119,1,0,0:0:0:0:
192,192,95119,1,8,0:0:0:0:
320,192,95216,1,0,0:0:0:0:
192,192,95313,1,2,0:0:0:0:
64,192,95313,1,2,0:3:0:0:
448,192,95410,1,0,0:0:0:0:
320,192,95507,1,8,0:0:0:0:
64,192,95507,1,0,0:0:0:0:
192,192,95603,1,0,0:0:0:0:
64,192,95700,1,10,0:3:0:0:
320,192,95700,1,4,0:0:0:0:
448,192,95700,1,6,0:0:0:0:
64,192,95894,1,0,0:0:0:0:
192,192,95894,1,8,0:0:0:0:
448,192,96087,1,6,0:3:0:0:
320,192,96087,1,6,0:0:0:0:
192,192,96087,1,4,0:0:0:0:
192,192,96281,1,8,0:0:0:0:
64,192,96281,1,0,0:0:0:0:
320,192,96377,1,0,0:0:0:0:
64,192,96474,1,2,0:0:0:0:
448,192,96474,1,2,0:3:0:0:
64,192,96668,1,0,0:0:0:0:
448,192,96668,1,8,0:0:0:0:
192,192,96765,1,0,0:0:0:0:
320,192,96861,1,2,0:0:0:0:
448,192,96861,1,10,0:3:0:0:
64,192,97055,1,0,0:0:0:0:
192,192,97055,1,8,0:0:0:0:
448,192,97152,1,0,0:0:0:0:
320,192,97248,1,2,0:0:0:0:
64,192,97248,1,2,0:3:0:0:
192,192,97442,1,8,0:0:0:0:
448,192,97442,1,0,0:0:0:0:
448,192,97636,1,4,0:0:0:0:
64,192,97636,1,6,0:3:0:0:
320,192,97636,1,4,0:0:0:0:
192,192,97732,1,0,0:0:0:0:
448,192,97829,1,0,0:0:0:0:
320,192,97829,1,8,0:0:0:0:
64,192,97926,1,0,0:0:0:0:
448,192,98023,1,10,0:3:0:0:
192,192,98023,1,4,0:0:0:0:
320,192,98023,1,4,0:0:0:0:
64,192,98119,1,0,0:0:0:0:
320,192,98216,1,8,0:0:0:0:
192,192,98216,1,0,0:0:0:0:
448,192,98313,1,0,0:0:0:0:
64,192,98410,1,4,0:3:0:0:
192,192,98410,1,4,0:0:0:0:
320,192,98410,1,4,0:0:0:0:
448,192,98539,1,4,0:3:0:0:
320,192,98539,1,4,0:0:0:0:
448,192,98668,1,4,0:0:0:0:
64,192,98668,1,4,0:3:0:0:
64,192,98797,1,4,0:0:0:0:
192,192,98797,1,4,0:3:0:0:
320,192,98926,1,4,0:3:0:0:
192,192,98926,1,4,0:0:0:0:
448,192,99055,1,4,0:3:0:0:
320,192,99055,1,4,0:0:0:0:
64,192,99184,1,4,0:0:0:0:
192,192,99184,1,4,0:0:0:0:
448,192,99184,1,4,0:3:0:0:
320,192,99958,128,2,100345:0:0:0:0:
192,192,100345,128,2,100732:0:0:0:0:
64,192,100732,1,2,0:3:0:0:
320,192,100732,1,4,0:0:0:0:
448,192,100732,1,4,0:0:0:0:
192,192,100926,1,8,0:0:0:0:
64,192,100926,1,0,0:0:0:0:
320,192,101023,1,0,0:0:0:0:
192,192,101119,1,2,0:3:0:0:
448,192,101119,1,0,0:0:0:0:
64,192,101216,1,0,0:0:0:0:
192,192,101313,1,8,0:0:0:0:
320,192,101313,1,0,0:0:0:0:
448,192,101410,1,0,0:0:0:0:
64,192,101507,1,0,0:0:0:0:
320,192,101507,1,2,0:3:0:0:
448,192,101603,1,0,0:0:0:0:
64,192,101700,1,0,0:0:0:0:
192,192,101700,1,8,0:0:0:0:
320,192,101797,1,0,0:0:0:0:
448,192,101894,1,2,0:3:0:0:
64,192,101894,1,0,0:0:0:0:
448,192,102087,1,0,0:0:0:0:
320,192,102087,1,8,0:0:0:0:
192,192,102136,1,0,0:0:0:0:
64,192,102184,1,0,0:0:0:0:
192,192,102232,1,0,0:0:0:0:
320,192,102281,1,0,0:0:0:0:
448,192,102281,128,2,102474:0:3:0:0:
192,192,102474,1,0,0:0:0:0:
320,192,102474,128,8,102668:0:0:0:0:
64,192,102668,128,2,102861:0:3:0:0:
448,192,102668,1,0,0:0:0:0:
320,192,102861,1,0,0:0:0:0:
192,192,102861,128,8,103055:0:0:0:0:
448,192,103055,128,2,103442:0:3:0:0:
64,192,103055,1,0,0:0:0:0:
320,192,103248,1,8,0:0:0:0:
64,192,103345,1,0,0:0:0:0:
192,192,103442,1,2,0:3:0:0:
320,192,103442,1,4,0:0:0:0:
448,192,103636,1,0,0:0:0:0:
64,192,103636,1,8,0:0:0:0:
320,192,103829,1,4,0:0:0:0:
448,192,103829,1,4,0:0:0:0:
64,192,103829,1,2,0:3:0:0:
192,192,104023,1,8,0:0:0:0:
320,192,104023,1,0,0:0:0:0:
64,192,104119,1,0,0:0:0:0:
320,192,104216,1,2,0:3:0:0:
448,192,104216,1,0,0:0:0:0:
192,192,104313,1,0,0:0:0:0:
448,192,104410,1,0,0:0:0:0:
64,192,104410,1,8,0:0:0:0:
320,192,104507,1,0,0:0:0:0:
64,192,104603,1,0,0:0:0:0:
192,192,104603,1,2,0:3:0:0:
320,192,104700,1,0,0:0:0:0:
64,192,104797,1,0,0:0:0:0:
448,192,104797,1,8,0:0:0:0:
192,192,104894,1,0,0:0:0:0:
320,192,104990,1,2,0:3:0:0:
448,192,104990,1,0,0:0:0:0:
64,192,105184,1,0,0:0:0:0:
192,192,105184,1,8,0:0:0:0:
320,192,105232,1,0,0:0:0:0:
448,192,105281,1,0,0:0:0:0:
320,192,105329,1,0,0:0:0:0:
64,192,105377,128,2,105571:0:3:0:0:
192,192,105377,1,4,0:0:0:0:
448,192,105571,1,0,0:0:0:0:
192,192,105571,128,8,105765:0:0:0:0:
320,192,105765,128,2,105958:0:3:0:0:
64,192,105765,1,0,0:0:0:0:
448,192,105958,128,8,106152:0:0:0:0:
192,192,105958,1,0,0:0:0:0:
192,192,106152,1,4,0:0:0:0:
320,192,106152,1,0,0:0:0:0:
64,192,106152,128,2,106539:0:3:0:0:
448,192,106248,1,0,0:0:0:0:
320,192,106345,1,8,0:0:0:0:
192,192,106442,1,0,0:0:0:0:
448,192,106539,1,4,0:0:0:0:
320,192,106539,128,2,106926:0:3:0:0:
192,192,106732,1,8,0:0:0:0:
64,192,106732,1,0,0:0:0:0:
64,192,106926,1,4,0:0:0:0:
448,192,106926,1,2,0:3:0:0:
192,192,106926,1,4,0:0:0:0:
64,192,107119,1,0,0:0:0:0:
320,192,107119,1,8,0:0:0:0:
192,192,107216,1,0,0:0:0:0:
64,192,107313,1,2,0:3:0:0:
448,192,107313,1,0,0:0:0:0:
320,192,107410,1,0,0:0:0:0:
448,192,107507,1,0,0:0:0:0:
192,192,107507,1,8,0:0:0:0:
64,192,107603,1,0,0:0:0:0:
320,192,107700,1,2,0:3:0:0:
192,192,107700,1,0,0:0:0:0:
64,192,107797,1,0,0:0:0:0:
448,192,107894,1,0,0:0:0:0:
192,192,107894,1,8,0:0:0:0:
320,192,107990,1,0,0:0:0:0:
64,192,108087,1,2,0:3:0:0:
448,192,108087,1,0,0:0:0:0:
448,192,108281,1,0,0:0:0:0:
320,192,108281,1,8,0:0:0:0:
192,192,108329,1,0,0:0:0:0:
64,192,108377,1,0,0:0:0:0:
320,192,108426,1,0,0:0:0:0:
192,192,108474,1,0,0:0:0:0:
448,192,108474,128,2,108668:0:3:0:0:
320,192,108668,1,0,0:0:0:0:
64,192,108668,128,8,108861:0:0:0:0:
448,192,108861,1,0,0:0:0:0:
320,192,108861,128,2,109055:0:3:0:0:
64,192,109055,1,0,0:0:0:0:
192,192,109055,128,8,109248:0:0:0:0:
448,192,109248,128,2,109636:0:3:0:0:
320,192,109248,1,0,0:0:0:0:
64,192,109442,1,8,0:0:0:0:
192,192,109539,1,0,0:0:0:0:
64,192,109636,1,2,0:3:0:0:
320,192,109636,1,4,0:0:0:0:
192,192,109829,1,8,0:0:0:0:
448,192,109829,1,0,0:0:0:0:
64,192,110023,1,2,0:3:0:0:
320,192,110023,1,4,0:0:0:0:
448,192,110023,1,4,0:0:0:0:
192,192,110216,1,8,0:0:0:0:
320,192,110216,1,0,0:0:0:0:
448,192,110313,1,0,0:0:0:0:
192,192,110410,1,2,0:3:0:0:
64,192,110410,1,0,0:0:0:0:
320,192,110507,1,0,0:0:0:0:
448,192,110603,1,8,0:0:0:0:
64,192,110603,1,0,0:0:0:0:
192,192,110652,1,0,0:0:0:0:
320,192,110700,1,0,0:0:0:0:
448,192,110748,1,0,0:0:0:0:
192,192,110797,1,2,0:3:0:0:
64,192,110797,1,0,0:0:0:0:
320,192,110894,1,0,0:0:0:0:
64,192,110990,1,8,0:0:0:0:
448,192,110990,1,0,0:0:0:0:
192,192,111087,1,0,0:0:0:0:
448,192,111184,1,4,0:0:0:0:
320,192,111184,1,2,0:3:0:0:
192,192,111281,1,0,0:0:0:0:
448,192,111377,1,0,0:0:0:0:
64,192,111377,1,8,0:0:0:0:
320,192,111426,1,0,0:0:0:0:
192,192,111474,1,0,0:0:0:0:
64,192,111523,1,0,0:0:0:0:
448,192,111571,1,4,0:0:0:0:
320,192,111571,1,2,0:3:0:0:
192,192,111668,1,0,0:0:0:0:
448,192,111765,1,8,0:0:0:0:
64,192,111765,1,0,0:0:0:0:
320,192,111861,1,0,0:0:0:0:
64,192,111958,1,0,0:0:0:0:
192,192,111958,1,2,0:3:0:0:
448,192,112055,1,0,0:0:0:0:
192,192,112152,1,8,0:0:0:0:
320,192,112152,1,0,0:0:0:0:
64,192,112248,1,0,0:0:0:0:
448,192,112345,128,4,112539:0:3:0:0:
192,192,112345,1,0,0:0:0:0:
320,192,112345,1,4,0:0:0:0:
320,192,112539,128,4,112732:0:3:0:0:
192,192,112539,1,4,0:0:0:0:
64,192,112539,1,0,0:0:0:0:
448,192,112732,1,0,0:0:0:0:
64,192,112732,1,4,0:0:0:0:
192,192,112732,1,4,0:3:0:0:
