osu file format v14

[General]
AudioFilename: Bomber HEY!! - Ai wa Binchoutan Part II.mp3
AudioLeadIn: 0
PreviewTime: 73055
Countdown: 0
SampleSet: Soft
StackLeniency: 0.7
Mode: 3
LetterboxInBreaks: 0
SpecialStyle: 0
WidescreenStoryboard: 1

[Editor]
DistanceSpacing: 1
BeatDivisor: 4
GridSize: 32
TimelineZoom: 2

[Metadata]
Title:Ai wa Binchoutan Part II
TitleUnicode:愛は備長炭パートⅡ
Artist:Bomber HEY!!
ArtistUnicode:Bomber HEY!!
Creator:Kayano
Version:Easy
Source:
Tags:
BeatmapID:1166168
BeatmapSetID:548644

[Difficulty]
HPDrainRate:7
CircleSize:4
OverallDifficulty:7
ApproachRate:5
SliderMultiplier:1.4
SliderTickRate:1

[Events]
//Background and Video events
0,0,"Background.jpg",0,0
//Break Periods
//Storyboard Layer 0 (Background)
//Storyboard Layer 1 (Fail)
//Storyboard Layer 2 (Pass)
//Storyboard Layer 3 (Foreground)
//Storyboard Sound Samples

[TimingPoints]
9378,387.096774193548,4,2,1,20,1,0
12474,-100,4,2,1,25,0,0
15571,-100,4,2,1,30,0,0
21765,-100,4,2,1,40,0,0
34152,-100,4,2,2,40,0,0
74410,-100,4,2,1,40,0,1
99184,-100,4,2,1,40,0,0

[HitObjects]
448,192,9378,5,0,0:0:0:0:
448,192,9765,1,0,0:0:0:0:
64,192,10152,1,0,0:0:0:0:
64,192,10539,1,0,0:0:0:0:
448,192,10926,1,0,0:0:0:0:
192,192,11313,1,0,0:0:0:0:
448,192,11700,128,0,12474:0:0:0:0:
64,192,12474,1,0,0:0:0:0:
64,192,12861,1,0,0:0:0:0:
448,192,13248,1,0,0:0:0:0:
448,192,13636,1,0,0:0:0:0:
64,192,14023,1,0,0:0:0:0:
320,192,14410,1,0,0:0:0:0:
64,192,14797,128,0,15571:0:0:0:0:
320,192,15571,1,2,0:3:0:0:
64,192,15958,1,2,0:3:0:0:
320,192,16345,1,2,0:3:0:0:
64,192,16732,1,2,0:3:0:0:
448,192,17119,1,2,0:3:0:0:
192,192,17507,1,2,0:3:0:0:
448,192,17894,1,2,0:3:0:0:
192,192,18281,1,4,0:0:0:0:
320,192,18474,1,4,0:0:0:0:
448,192,18668,1,4,0:0:0:0:
320,192,19055,1,4,0:0:0:0:
192,192,19248,1,4,0:0:0:0:
64,192,19442,1,4,0:0:0:0:
192,192,19829,1,4,0:0:0:0:
320,192,20023,1,4,0:0:0:0:
448,192,20216,128,4,21765:0:0:0:0:
64,192,21765,1,2,0:3:0:0:
192,192,21765,1,4,0:0:0:0:
448,192,22152,1,2,0:3:0:0:
320,192,22539,1,2,0:3:0:0:
192,192,22926,1,2,0:3:0:0:
448,192,23313,1,2,0:3:0:0:
64,192,23700,1,2,0:3:0:0:
192,192,24087,1,2,0:3:0:0:
320,192,24474,1,2,0:3:0:0:
448,192,24474,1,4,0:0:0:0:
192,192,24861,1,2,0:3:0:0:
64,192,24861,1,4,0:0:0:0:
320,192,25248,1,2,0:3:0:0:
448,192,25636,1,2,0:3:0:0:
192,192,26023,1,2,0:3:0:0:
64,192,26410,1,2,0:3:0:0:
448,192,26410,1,4,0:0:0:0:
192,192,26797,1,2,0:3:0:0:
448,192,27184,1,4,0:0:0:0:
320,192,27184,1,2,0:3:0:0:
192,192,27571,1,2,0:3:0:0:
64,192,27571,1,4,0:0:0:0:
448,192,27958,1,4,0:0:0:0:
320,192,27958,1,2,0:3:0:0:
192,192,28345,1,2,0:3:0:0:
64,192,28732,1,2,0:3:0:0:
192,192,29119,1,2,0:3:0:0:
320,192,29507,1,2,0:3:0:0:
448,192,29894,1,2,0:3:0:0:
320,192,30281,1,2,0:3:0:0:
192,192,30668,1,2,0:3:0:0:
64,192,30668,1,4,0:0:0:0:
448,192,31055,1,4,0:0:0:0:
320,192,31055,1,2,0:3:0:0:
64,192,31442,1,2,0:3:0:0:
192,192,31829,1,2,0:3:0:0:
448,192,32216,1,4,0:0:0:0:
320,192,32216,1,2,0:3:0:0:
64,192,32603,1,4,0:0:0:0:
192,192,32603,1,2,0:3:0:0:
320,192,32990,1,2,0:3:0:0:
64,192,33377,1,2,0:3:0:0:
448,192,33377,1,4,0:0:0:0:
320,192,33571,1,2,0:3:0:0:
192,192,33571,1,4,0:0:0:0:
64,192,33765,1,2,0:3:0:0:
448,192,33765,1,4,0:0:0:0:
320,192,34539,1,2,0:0:0:0:
192,192,34926,1,2,0:0:0:0:
64,192,35313,1,2,0:0:0:0:
320,192,35700,1,4,0:0:0:0:
448,192,35700,1,2,0:0:0:0:
192,192,36087,1,8,0:0:0:0:
448,192,36474,1,2,0:0:0:0:
320,192,36861,1,8,0:0:0:0:
192,192,37248,1,2,0:0:0:0:
320,192,37636,1,8,0:0:0:0:
64,192,38023,1,2,0:0:0:0:
192,192,38410,1,8,0:0:0:0:
448,192,38797,1,2,0:0:0:0:
320,192,39184,1,8,0:0:0:0:
64,192,39571,1,2,0:0:0:0:
192,192,39958,1,8,0:0:0:0:
320,192,40345,1,2,0:0:0:0:
448,192,40732,1,8,0:0:0:0:
192,192,41119,1,2,0:0:0:0:
64,192,41507,1,8,0:0:0:0:
192,192,41894,1,2,0:0:0:0:
320,192,42281,1,8,0:0:0:0:
448,192,42668,1,2,0:0:0:0:
64,192,43055,1,8,0:0:0:0:
320,192,43442,1,2,0:0:0:0:
192,192,43829,1,8,0:0:0:0:
64,192,44216,1,2,0:0:0:0:
448,192,44603,1,8,0:0:0:0:
192,192,44990,1,2,0:0:0:0:
64,192,45377,1,8,0:0:0:0:
320,192,45765,1,2,0:0:0:0:
448,192,46152,1,8,0:0:0:0:
320,192,46539,1,2,0:0:0:0:
192,192,46539,1,4,0:0:0:0:
64,192,46926,1,8,0:0:0:0:
192,192,47313,1,2,0:0:0:0:
448,192,47700,1,8,0:0:0:0:
320,192,47894,1,0,0:0:0:0:
192,192,48087,1,4,0:0:0:0:
64,192,48087,1,4,0:0:0:0:
448,192,48474,1,8,0:0:0:0:
320,192,48861,1,2,0:0:0:0:
192,192,49248,1,8,0:0:0:0:
320,192,49636,1,2,0:0:0:0:
448,192,49636,1,4,0:0:0:0:
64,192,50023,1,8,0:0:0:0:
192,192,50410,1,2,0:0:0:0:
320,192,50797,1,8,0:0:0:0:
448,192,51184,1,4,0:0:0:0:
64,192,51184,1,4,0:0:0:0:
320,192,51571,1,8,0:0:0:0:
192,192,51958,1,2,0:0:0:0:
320,192,52345,1,8,0:0:0:0:
448,192,52732,1,4,0:0:0:0:
64,192,52732,1,2,0:0:0:0:
192,192,53119,1,8,0:0:0:0:
320,192,53507,1,2,0:0:0:0:
448,192,53507,1,4,0:0:0:0:
64,192,53797,1,4,0:0:0:0:
192,192,53797,1,2,0:0:0:0:
448,192,54087,1,4,0:0:0:0:
320,192,54087,1,2,0:0:0:0:
192,192,54281,1,2,0:0:0:0:
64,192,54281,1,4,0:0:0:0:
448,192,54668,1,8,0:0:0:0:
64,192,55055,1,2,0:0:0:0:
192,192,55442,1,8,0:0:0:0:
320,192,55829,1,2,0:0:0:0:
448,192,55829,1,4,0:0:0:0:
64,192,56216,1,8,0:0:0:0:
448,192,56603,1,2,0:0:0:0:
320,192,56990,1,8,0:0:0:0:
64,192,57377,1,4,0:0:0:0:
192,192,57377,1,2,0:0:0:0:
448,192,57765,1,8,0:0:0:0:
64,192,58152,1,2,0:0:0:0:
192,192,58539,1,8,0:0:0:0:
320,192,58926,1,2,0:0:0:0:
448,192,58926,1,4,0:0:0:0:
192,192,59313,1,8,0:0:0:0:
320,192,59700,1,4,0:0:0:0:
64,192,59700,1,10,0:0:0:0:
448,192,60087,1,10,0:0:0:0:
192,192,60087,1,4,0:0:0:0:
320,192,60474,1,2,0:0:0:0:
64,192,60474,1,4,0:0:0:0:
448,192,60668,1,8,0:0:0:0:
448,192,61055,1,8,0:0:0:0:
448,192,61442,1,8,0:0:0:0:
448,192,61829,1,8,0:0:0:0:
448,192,62216,1,8,0:0:0:0:
448,192,62603,1,8,0:0:0:0:
192,192,62797,1,4,0:0:0:0:
448,192,62990,1,8,0:0:0:0:
192,192,63184,1,4,0:0:0:0:
448,192,63377,1,8,0:0:0:0:
192,192,63571,1,4,0:0:0:0:
64,192,63765,1,8,0:0:0:0:
64,192,64152,1,8,0:0:0:0:
64,192,64539,1,8,0:0:0:0:
64,192,64926,1,8,0:0:0:0:
64,192,65313,1,8,0:0:0:0:
64,192,65700,1,8,0:0:0:0:
320,192,65894,1,4,0:0:0:0:
64,192,66087,1,8,0:0:0:0:
320,192,66281,1,4,0:0:0:0:
64,192,66474,1,8,0:0:0:0:
320,192,66668,1,4,0:0:0:0:
448,192,66861,1,8,0:0:0:0:
64,192,67248,1,8,0:0:0:0:
448,192,67636,1,8,0:0:0:0:
64,192,68023,1,8,0:0:0:0:
448,192,68410,1,8,0:0:0:0:
64,192,68797,1,8,0:0:0:0:
320,192,68990,1,4,0:0:0:0:
192,192,69184,1,8,0:0:0:0:
320,192,69377,1,4,0:0:0:0:
192,192,69571,1,8,0:0:0:0:
320,192,69765,1,4,0:0:0:0:
64,192,69958,1,8,0:0:0:0:
448,192,70345,1,8,0:0:0:0:
320,192,70539,1,4,0:0:0:0:
64,192,70732,1,8,0:0:0:0:
448,192,71119,1,8,0:0:0:0:
320,192,71313,1,4,0:0:0:0:
64,192,71313,128,2,72087:0:0:0:0:
448,192,72087,1,2,0:0:0:0:
320,192,72087,1,4,0:0:0:0:
192,192,72377,1,2,0:0:0:0:
320,192,72377,1,4,0:0:0:0:
192,192,72668,1,4,0:0:0:0:
64,192,72668,1,2,0:0:0:0:
320,192,72861,1,2,0:0:0:0:
448,192,72861,128,4,74023:0:0:0:0:
64,192,74023,1,8,0:0:0:0:
64,192,74410,1,2,0:0:0:0:
320,192,74410,1,4,0:0:0:0:
192,192,74603,1,2,0:0:0:0:
320,192,74797,1,2,0:0:0:0:
192,192,75087,1,2,0:0:0:0:
320,192,75377,1,2,0:0:0:0:
448,192,75571,1,2,0:0:0:0:
320,192,75765,1,2,0:0:0:0:
192,192,75958,1,2,0:0:0:0:
320,192,76345,1,2,0:0:0:0:
192,192,76732,1,2,0:0:0:0:
64,192,77119,1,2,0:0:0:0:
320,192,77119,1,4,0:0:0:0:
192,192,77507,1,2,0:0:0:0:
448,192,77507,1,4,0:0:0:0:
320,192,77700,1,2,0:0:0:0:
448,192,77894,1,2,0:0:0:0:
320,192,78184,1,2,0:0:0:0:
192,192,78474,1,2,0:0:0:0:
320,192,78668,1,2,0:0:0:0:
192,192,78861,1,2,0:0:0:0:
64,192,79055,1,2,0:0:0:0:
448,192,79248,1,2,0:0:0:0:
320,192,79442,1,2,0:0:0:0:
192,192,79636,1,2,0:0:0:0:
64,192,79829,128,2,80603:0:0:0:0:
320,192,80603,1,2,0:0:0:0:
448,192,80603,1,4,0:0:0:0:
192,192,80797,1,2,0:0:0:0:
64,192,80990,1,2,0:0:0:0:
192,192,81281,1,2,0:0:0:0:
320,192,81571,1,2,0:0:0:0:
192,192,81765,1,2,0:0:0:0:
320,192,81958,1,2,0:0:0:0:
448,192,82152,1,2,0:0:0:0:
64,192,82539,1,2,0:0:0:0:
448,192,82926,1,2,0:0:0:0:
64,192,83313,1,4,0:0:0:0:
192,192,83313,1,2,0:0:0:0:
320,192,83700,1,2,0:0:0:0:
448,192,83700,1,4,0:0:0:0:
192,192,84087,1,2,0:0:0:0:
64,192,84474,1,2,0:0:0:0:
192,192,84861,1,2,0:0:0:0:
320,192,85248,1,2,0:0:0:0:
448,192,85248,1,4,0:0:0:0:
192,192,85636,1,2,0:0:0:0:
320,192,85636,1,4,0:0:0:0:
64,192,86023,1,2,0:0:0:0:
192,192,86023,1,4,0:0:0:0:
448,192,86216,1,2,0:0:0:0:
320,192,86216,1,4,0:0:0:0:
192,192,86410,1,4,0:0:0:0:
64,192,86410,1,2,0:0:0:0:
448,192,86797,1,2,0:0:0:0:
192,192,86797,1,4,0:0:0:0:
320,192,86990,1,2,0:0:0:0:
192,192,87184,1,2,0:0:0:0:
320,192,87474,1,2,0:0:0:0:
192,192,87765,1,2,0:0:0:0:
64,192,87958,1,2,0:0:0:0:
192,192,88152,1,2,0:0:0:0:
320,192,88345,1,2,0:0:0:0:
192,192,88732,1,2,0:0:0:0:
320,192,89119,1,2,0:0:0:0:
192,192,89507,1,4,0:0:0:0:
448,192,89507,1,2,0:0:0:0:
320,192,89894,1,2,0:0:0:0:
64,192,89894,1,4,0:0:0:0:
192,192,90087,1,2,0:0:0:0:
64,192,90281,1,2,0:0:0:0:
192,192,90571,1,2,0:0:0:0:
320,192,90861,1,2,0:0:0:0:
192,192,91055,1,2,0:0:0:0:
320,192,91248,1,2,0:0:0:0:
448,192,91442,1,2,0:0:0:0:
64,192,91636,1,2,0:0:0:0:
192,192,91829,1,2,0:0:0:0:
320,192,92023,1,2,0:0:0:0:
448,192,92216,128,2,92990:0:0:0:0:
192,192,92990,1,2,0:0:0:0:
64,192,92990,1,4,0:0:0:0:
320,192,93184,1,2,0:0:0:0:
448,192,93377,1,2,0:0:0:0:
320,192,93668,1,2,0:0:0:0:
192,192,93958,1,2,0:0:0:0:
320,192,94152,1,2,0:0:0:0:
192,192,94345,1,2,0:0:0:0:
64,192,94539,1,2,0:0:0:0:
448,192,94926,1,2,0:0:0:0:
64,192,95313,1,2,0:0:0:0:
320,192,95700,1,2,0:0:0:0:
448,192,95700,1,4,0:0:0:0:
192,192,96087,1,2,0:0:0:0:
64,192,96087,1,4,0:0:0:0:
320,192,96474,1,2,0:0:0:0:
448,192,96861,1,2,0:0:0:0:
320,192,97248,1,2,0:0:0:0:
192,192,97636,1,2,0:0:0:0:
64,192,97636,1,4,0:0:0:0:
192,192,98023,1,4,0:0:0:0:
320,192,98023,1,2,0:0:0:0:
448,192,98410,1,4,0:0:0:0:
320,192,98410,1,4,0:3:0:0:
192,192,98797,1,4,0:3:0:0:
64,192,98797,1,4,0:0:0:0:
448,192,99184,1,4,0:0:0:0:
320,192,99184,1,4,0:3:0:0:
64,192,99958,1,2,0:0:0:0:
192,192,100345,1,2,0:0:0:0:
320,192,100732,1,4,0:0:0:0:
448,192,100732,1,2,0:3:0:0:
64,192,101119,1,2,0:3:0:0:
192,192,101507,1,2,0:3:0:0:
320,192,101894,1,2,0:3:0:0:
64,192,102281,1,2,0:3:0:0:
448,192,102668,1,2,0:3:0:0:
320,192,103055,1,2,0:3:0:0:
192,192,103442,1,2,0:3:0:0:
64,192,103442,1,4,0:0:0:0:
448,192,103829,1,4,0:0:0:0:
320,192,103829,1,2,0:3:0:0:
192,192,104216,1,2,0:3:0:0:
64,192,104603,1,2,0:3:0:0:
320,192,104990,1,2,0:3:0:0:
64,192,105377,1,4,0:0:0:0:
448,192,105377,1,2,0:3:0:0:
320,192,105765,1,2,0:3:0:0:
192,192,106152,1,2,0:3:0:0:
64,192,106152,1,4,0:0:0:0:
320,192,106539,1,2,0:3:0:0:
448,192,106539,1,4,0:0:0:0:
192,192,106926,1,2,0:3:0:0:
64,192,106926,1,4,0:0:0:0:
320,192,107313,1,2,0:3:0:0:
448,192,107700,1,2,0:3:0:0:
320,192,108087,1,2,0:3:0:0:
192,192,108474,1,2,0:3:0:0:
64,192,108861,1,2,0:3:0:0:
192,192,109248,1,2,0:3:0:0:
320,192,109636,1,2,0:3:0:0:
448,192,109636,1,4,0:0:0:0:
192,192,110023,1,2,0:3:0:0:
64,192,110023,1,4,0:0:0:0:
448,192,110410,1,2,0:3:0:0:
320,192,110797,1,2,0:3:0:0:
64,192,111184,1,4,0:0:0:0:
192,192,111184,1,2,0:3:0:0:
320,192,111571,1,2,0:3:0:0:
448,192,111571,1,4,0:0:0:0:
192,192,111958,1,2,0:3:0:0:
64,192,112345,1,4,0:0:0:0:
448,192,112345,1,2,0:3:0:0:
192,192,112539,1,2,0:3:0:0:
320,192,112539,1,4,0:0:0:0:
448,192,112732,1,2,0:3:0:0:
64,192,112732,1,4,0:0:0:0:
