osu file format v5

[General]
AudioFilename: aa_south_island.ogg
AudioLeadIn: 0
PreviewTime: -1
Countdown: 0
SampleSet: Normal
StackLeniency: 0
Mode: 0
LetterboxInBreaks: 1

[Metadata]
Title:Armed Assault - South Sahrani
Artist:Bohemia Interactive
Creator:hank_officer
Version:Easy
Source:
Tags:

[Difficulty]
HPDrainRate:5
CircleSize:4
OverallDifficulty:2
SliderMultiplier:1
SliderTickRate:2

[Events]
//Background and Video events
0,0,"ArmA_artwork_blackhawkdown.jpg"
//Break Periods
2,47690,50084
2,64770,88289
//Storyboard Layer 0 (Background)
//Storyboard Layer 1 (Failing)
//Storyboard Layer 2 (Passing)
//Storyboard Layer 3 (Foreground)
//Storyboard Sound Samples
//Background Colour Transformations
3,100,163,162,255

[TimingPoints]
22110,461.467466543609,4,1,0,50,1

[Colours]
Combo1 : 0,0,0
Combo2 : 0,128,0
Combo3 : 64,128,128
Combo4 : 128,128,64
Combo5 : 128,64,0

[HitObjects]
64,64,22110,2,0,C|288:64,1,200
352,64,23494,1,2
448,160,23956,6,0,C|224:160,1,200
160,160,25341,1,2
32,320,25802,5,0
224,320,26494,2,0,C|384:320,1,150
448,320,27647,1,2
64,64,29493,6,0,C|288:64,1,200
320,112,30878,1,2
320,192,31339,1,0
320,256,31685,2,0,C|96:352,1,225
32,352,33185,6,0,L|32:192|224:32|480:32,1,650
416,288,36877,5,2
288,288,37569,2,2,C|128:224,1,150
96,160,38723,5,2
96,32,39415,2,2,C|256:96,1,150
320,96,40568,6,2,L|432:96|432:192|240:192,1,400
64,64,44260,5,2
224,64,44953,2,2,C|384:128,1,150
432,160,46106,1,2
320,224,46798,2,2,C|160:272,1,150
32,64,51643,6,2,C|384:64,1,350
384,128,53490,2,2,C|32:128,1,350
32,192,55336,6,6,C|225:247|416:192,1,400
80,64,59027,6,2,C|304:64,1,200
352,64,60411,1,2
352,144,60873,6,2,C|128:144,1,200
80,144,62258,1,2
80,224,62719,1,6
256,192,64565,1,6
256,192,89484,12,0,93637
432,320,95945,6,2,C|336:320,1,75
288,320,96637,2,2,C|128:256,1,150
80,64,97791,6,2,C|176:64,1,75
224,64,98483,2,2,C|384:128,1,150
432,320,99636,6,2,C|336:320,1,75
288,320,100329,2,2,C|128:256,1,150
128,192,101482,6,6,C|448:240,1,300
400,320,103328,6,2,C|304:320,1,75
256,320,104020,1,2
224,320,104251,2,2,C|128:256,1,100
112,64,105174,6,2,C|208:64,1,75
256,64,105866,1,2
288,64,106097,2,2,C|384:128,1,100
384,192,107020,6,2,C|80:288,1,300
80,208,108866,1,6
64,64,110712,5,0
64,144,111173,2,2,C|64:208,1,50
160,192,112096,1,0
160,112,112557,2,2,C|160:48,1,50
272,64,113480,1,6
352,64,113942,1,6
432,64,114403,1,6
448,320,116249,5,0
368,320,116711,2,2,C|304:320,1,50
64,64,118095,6,2,C|288:64,1,200
336,64,119479,1,2
336,144,119941,5,0
272,144,120287,1,0
208,144,120633,2,2,C|48:144,1,150
48,224,121787,6,2,C|272:224,1,200
320,224,123171,1,6
352,224,123402,1,6
64,64,125479,6,2,C|288:64,1,200
336,64,126863,1,2
416,64,127324,2,2,C|416:128,1,50
256,128,128247,1,2
96,224,129170,6,2,C|192:224,1,75
240,224,129862,2,2,C|400:160,1,150
432,112,131016,1,6
80,64,132862,6,2,C|176:64,1,75
224,64,133554,2,2,C|384:128,1,150
368,192,134708,2,6,C|48:192,1,300
64,64,136554,5,0
160,64,137015,1,0
192,64,137246,1,0
288,64,137707,2,2,C|288:224,1,150
