osu file format v4

[General]
AudioFilename: Bodyslam - Ok Hak.mp3
AudioLeadIn: 0
AudioHash: 91d36df0715ee54dc9fd607679f1da4a
PreviewTime: 59176
SampleSet: Soft
EditorBookmarks: 9175,40287,59732,89178,104178,133623,142485

[Metadata]
Title:Ok Hak
Artist:Bodyslam
Creator:Kharl
Version:Hard

[Difficulty]
HPDrainRate:7
CircleSize:6
OverallDifficulty:7
SliderMultiplier: 1.4
SliderTickRate: 2

[Events]
//Background and Video events
1,0,"okhak.avi"
//Break Periods
2,40219,48842
2,89087,103388
//Storyboard Layer 0 (Background)
//Storyboard Layer 1 (Failing)
//Storyboard Layer 2 (Passing)
//Storyboard Layer 3 (Foreground)
//Storyboard Sound Samples
//Background Colour Transformations
3,0,0,0,0

[TimingPoints]
300,555.473009755444,4,2,0
60281,555.473009755444,4,1,0
63595,555.473009755444,4,1,0
143026,555.473009755444,4,2,0

[HitObjects]
136,184,9743,1,0
256,184,10298,2,0,B|256:184|360:184|432:288,1,210
384,320,11409,1,0
264,320,11964,1,0
200,320,12242,1,0
112,240,12798,1,0
176,240,13075,1,0
368,176,13909,5,0
304,176,14186,1,0
192,176,14742,2,0,B|192:176|216:96|296:48|352:40,1,210
400,40,15853,1,0
448,80,16130,1,0
400,120,16408,1,0
448,160,16686,1,0
448,280,17241,2,2,B|448:280|408:320|312:328,1,140
184,240,18630,5,0
96,136,19186,1,0
168,32,19741,1,0
224,136,20297,1,0
280,32,20852,1,0
368,120,21407,2,0,B|368:120|368:176|296:248,1,140
256,272,22241,1,0
208,304,22518,1,2
224,184,23074,6,0,L|224:184|160:224|216:264,2,140
280,152,24463,1,0
224,120,24740,1,0
112,176,25296,1,0
112,240,25574,1,0
200,320,26129,1,0
200,256,26407,1,2
320,288,27240,5,0
360,240,27518,1,0
424,136,28073,2,0,B|424:136|400:80|312:48,1,140
264,72,28906,1,0
200,56,29184,1,0
168,112,29462,1,0
184,176,29740,1,0
248,200,30017,2,0,B|248:200|314:178|400:184,2,140
96,312,31961,6,2,B|96:312|208:216,1,140
88,224,33072,2,2,B|88:224|200:312,1,140
312,312,34183,2,2,B|312:312|368:248|384:176,1,140
304,88,35294,1,0
264,136,35572,2,0,B|264:136|231:225|85:254|39:125|152:40,1,350
368,120,38072,5,0
312,184,38488,1,0
248,248,38905,1,0
144,176,39460,2,0,B|144:176|240:72,1,140
256,192,49737,5,0
256,192,50014,1,0
256,192,50292,1,0
256,192,50570,1,0
320,192,50848,2,2,B|320:192|216:88,1,140
288,96,51681,2,2,B|288:96|184:208,1,140
88,200,52792,5,0
112,256,53069,1,0
160,296,53347,1,0
216,312,53625,2,2,B|216:312|336:312,3,105
392,184,55569,5,0
392,128,55847,1,2
336,48,56402,1,0
264,120,56958,1,2
184,48,57513,1,0
136,80,57791,2,2,B|136:80|1:175|95:333|256:176,1,350
280,304,60013,5,0
344,304,60281,2,0,B|344:304|408:264|432:192,1,140
344,120,61391,2,4,B|344:120|280:152|240:224,2,140
360,240,63058,1,2
280,328,63595,5,0
224,328,63872,1,0
168,328,64150,1,0
144,272,64428,1,0
112,224,64705,2,0,B|112:224|157:176|232:216,3,105
280,224,66372,1,0
336,240,66650,2,2,B|336:240|318:69|184:120,1,210
208,248,68316,5,0
256,288,68594,1,0
304,248,68871,1,0
344,200,69149,2,2,B|344:200|376:136|304:96|272:120,1,140
168,200,70260,2,2,B|168:200|136:136|208:96|240:120,1,140
256,256,71371,2,6,L|256:256|280:224|224:184|248:152,1,140
352,184,72482,5,0
352,184,72760,1,0
352,184,73038,1,0
368,128,73315,1,0
424,104,73593,2,2,B|424:104|424:176|392:224,2,105
312,104,74982,1,0
272,152,75259,1,0
232,200,75537,1,0
192,248,75815,2,0,B|192:248|96:352,2,140
336,224,77759,5,0
392,256,78037,2,2,B|392:256|464:184|424:80|304:64|256:104,1,280
208,128,79564,1,0
144,184,79981,1,0
96,224,80259,2,6,B|96:224|48:272|80:344|176:360|216:304,2,210
200,272,82481,2,6,B|200:272|239:195|151:123|80:184,1,210
64,64,83869,5,0
128,72,84147,1,4
192,96,84425,2,6,B|192:96|264:136|336:216|352:248,1,210
384,288,85536,1,0
416,344,85813,1,0
256,192,86647,12,4,88869
232,304,104422,5,0
168,304,104700,2,2,B|168:304|104:264|80:192,1,140
168,120,105810,2,4,B|168:120|232:152|272:224,2,140
152,240,107477,1,2
232,328,108032,5,0
288,328,108310,1,0
344,328,108588,1,0
368,272,108866,1,0
400,224,109143,2,0,B|400:224|355:176|272:216,3,105
232,224,110810,1,0
176,240,111087,2,2,B|176:240|194:69|336:120,1,210
256,288,113032,5,0
208,248,113309,1,0
168,200,113587,2,2,B|168:200|136:136|208:96|240:120,1,140
360,160,114698,5,0
360,160,114976,1,0
256,256,115809,2,6,L|256:256|232:224|288:184|264:152,1,140
144,192,116920,5,0
144,192,117198,1,0
144,192,117475,2,0,B|144:192|88:144,2,70
224,240,118447,1,0
296,296,118864,1,0
296,168,119420,1,0
232,176,119697,1,0
176,200,119975,1,0
128,240,120253,2,2,B|128:240|72:192|104:80|208:40|264:48,1,280
376,128,122197,5,0
400,64,122475,2,2,B|400:64|472:115|408:192,2,140
320,104,124002,1,0
256,152,124419,1,0
200,192,124697,2,6,B|200:192|71:209|80:360,2,210
208,256,126641,1,0
216,320,126918,6,6,B|216:320|331:294|344:160,2,210
160,288,128863,1,0
208,240,129140,2,6,B|208:240|208:128|80:64,2,210
272,248,131084,5,0
328,208,131362,1,4
264,176,131640,1,0
208,216,131918,1,0
152,176,132195,1,4
208,144,132473,2,2,B|208:144|328:64,1,140
376,112,133306,1,0
376,176,133584,6,4,B|376:176|376:328,3,140
312,320,135528,1,0
248,320,135806,2,0,B|248:320|248:240,1,70
248,184,136361,1,6
192,216,136639,1,0
136,184,136917,1,6
192,152,137195,5,0
136,120,137472,1,0
80,152,137750,2,0,B|80:152|56:184|80:232,1,70
128,264,138306,2,0,B|128:264|160:288|200:264,1,70
256,240,138861,2,4,B|256:240|287:199|248:160,1,70
216,128,139417,1,0
216,128,139555,1,0
216,128,139694,1,0
216,128,139833,1,0
256,192,139972,12,4,142472
256,192,143581,5,2
368,96,144692,5,0
368,184,145109,1,0
368,272,145525,1,0
256,272,146081,2,0,B|256:272|146:217|136:96,1,210
256,192,148025,5,2
144,296,148858,5,0
208,296,149136,1,0
272,296,149413,1,0
336,296,149691,2,0,B|336:296|408:296,1,70
408,232,150247,2,0,B|408:232|408:160|312:128,1,140
256,128,151080,2,0,B|256:128|256:208|184:256,2,140
128,128,152746,5,0
128,128,153163,1,0
128,128,153579,1,0
160,272,154413,2,2,B|160:272|248:267|336:229|376:96,1,280
256,192,155801,12,4,160245
