osu file format v4

[General]
AudioFilename: Bodyslam - Ok Hak.mp3
AudioLeadIn: 0
AudioHash: 91d36df0715ee54dc9fd607679f1da4a
PreviewTime: 59176
SampleSet: Soft
EditorBookmarks: 9175,40287,59732,89178,104178,133623,142485

[Metadata]
Title:Ok Hak
Artist:Bodyslam
Creator:Kharl
Version:Easy

[Difficulty]
HPDrainRate:3
CircleSize:4
OverallDifficulty:3
SliderMultiplier: 1.1
SliderTickRate: 2

[Events]
//Background and Video events
1,0,"okhak.avi"
//Break Periods
2,39663,48857
2,89082,103246
//Storyboard Layer 0 (Background)
//Storyboard Layer 1 (Failing)
//Storyboard Layer 2 (Passing)
//Storyboard Layer 3 (Foreground)
//Storyboard Sound Samples
//Background Colour Transformations
3,0,0,0,0

[TimingPoints]
300,555.452693945566,4,2,0
60281,555.452693945566,4,1,0
63595,555.452693945566,4,1,0
143026,555.452693945566,4,2,0

[HitObjects]
256,192,10298,1,0
256,192,13075,5,0
208,112,14741,5,0
176,240,15852,2,0,B|176:240|344:232|448:120|448:136,1,275
64,184,19185,5,0
192,184,20296,1,0
328,184,21407,1,0
392,184,21962,1,2
256,88,23629,5,0
312,296,25573,1,0
200,296,26406,1,2
272,176,28072,5,0
144,216,29183,2,0,B|144:216|260:322|400:216,1,275
456,192,32516,5,0
320,192,33627,1,0
176,192,34738,1,0
104,192,35293,1,0
104,192,35571,1,2
136,128,38070,6,0,B|136:128|286:137|384:280,1,275
256,160,50290,5,0
256,288,51401,2,2,B|256:288|88:208,1,165
192,144,53623,5,2
232,144,54040,1,2
272,144,54456,1,2
416,88,55845,5,2
280,88,56956,1,2
208,88,57511,1,0
208,88,57789,1,0
176,192,60281,6,0,L|176:192|251:113|336:200,2,220
456,192,63595,6,0,B|456:192|360:128|192:280|64:184,1,385
136,104,66372,1,0
136,104,66649,1,0
336,176,68594,6,0,L|336:176|251:248|168:176,2,220
384,128,71371,1,0
392,240,72482,5,0
320,240,73037,1,0
248,240,73593,2,0,B|248:240|168:163|80:256,1,165
104,80,75814,2,0,B|104:80|192:76|264:168,1,165
384,88,78036,5,0
328,128,78592,1,0
272,168,79147,1,0
112,96,80258,6,6,B|112:96|112:272,1,165
256,264,82480,2,6,B|256:264|256:96,1,165
416,104,84702,2,6,B|416:104|416:280,1,165
256,192,86646,12,4,88868
336,192,104698,6,0,L|336:192|261:113|176:200,2,220
56,192,108031,6,0,B|56:192|152:128|320:280|448:184,1,385
376,104,110808,1,0
376,104,111086,1,0
336,192,113030,6,0,L|336:192|254:265|168:192,1,220
192,128,114696,5,0
192,128,114974,1,0
296,128,115807,1,6
440,224,116918,5,0
368,224,117473,1,0
296,224,118029,2,0,B|296:224|200:224|128:280,1,165
88,184,119695,1,0
88,112,120251,2,0,B|88:112|176:64|248:120,1,165
440,72,122472,5,2
384,112,123028,1,0
328,152,123583,1,2
272,112,124139,1,0
216,64,124694,6,6,B|216:64|48:64,1,165
184,200,126916,6,6,B|184:200|360:200,1,165
464,304,129138,6,6,B|464:304|296:304,1,165
96,264,131360,6,0,B|96:264|144:80|360:64,1,330
400,64,133582,5,4
400,136,134137,1,4
400,208,134692,1,4
400,280,135248,1,6
328,280,135803,5,4
256,280,136359,1,4
184,280,136914,1,4
112,280,137470,1,6
112,208,138025,5,4
112,136,138581,1,4
184,136,139136,1,0
256,192,139969,12,4,142469
184,104,144692,2,0,B|184:104|328:200,1,165
384,232,146080,1,2
256,192,148025,5,2
88,256,149135,5,0
152,224,149691,1,0
216,192,150246,1,0
280,160,150802,1,0
280,160,151080,1,2
432,96,152746,5,0
392,128,153163,1,0
352,160,153579,1,2
280,232,154412,2,0,B|280:232|216:216|176:160|184:96,1,165
136,56,155801,6,4,L|136:56|441:195|138:330|136:112,1,880
