osu file format v13

[General]
AudioFilename: La chanson du Pyro-Barbare ! par Bob Lennon [FantaBobGames].mp3
AudioLeadIn: 0
PreviewTime: -1
Countdown: 0
SampleSet: None
StackLeniency: 0.7
Mode: 0
LetterboxInBreaks: 1
WidescreenStoryboard: 1

[Editor]
DistanceSpacing: 1.3
BeatDivisor: 8
GridSize: 8
TimelineZoom: 3.099999

[Metadata]
Title:Chanson du Pyro-Barbare !
TitleUnicode:Chanson du Pyro-Barbare !
Artist:Bob Lennon
ArtistUnicode:Bob Lennon
Creator:Neizers
Version:Hard
Source:Skyrim
Tags:Bob Lennon Skyrim
BeatmapID:482743
BeatmapSetID:204416

[Difficulty]
HPDrainRate:7
CircleSize:4
OverallDifficulty:6.5
ApproachRate:7.4
SliderMultiplier:1.4
SliderTickRate:1

[Events]
//Background and Video events
0,0,"pyro.png",0,0
Video,0,"La chanson du Pyro-Barbare ! par Bob Lennon [FantaBobGames].avi"
//Break Periods
//Storyboard Layer 0 (Background)
//Storyboard Layer 1 (Fail)
//Storyboard Layer 2 (Pass)
//Storyboard Layer 3 (Foreground)
//Storyboard Sound Samples
//Background Colour Transformations
3,100,163,162,255

[TimingPoints]
54,607.656471541422,4,2,0,70,1,0

[Colours]
Combo1 : 128,64,0
Combo2 : 32,32,32
Combo3 : 255,55,65
Combo4 : 64,0,0
Combo5 : 255,0,0

[HitObjects]
80,192,22005,5,0,0:0:0:0:
128,144,22157,1,0,0:0:0:0:
192,120,22309,1,0,0:0:0:0:
368,152,22917,1,0,0:0:0:0:
416,208,23068,1,0,0:0:0:0:
448,272,23220,1,0,0:0:0:0:
208,216,23752,5,0,0:0:0:0:
136,216,23904,1,0,0:0:0:0:
168,152,24132,2,0,P|200:80|232:64,2,105
440,80,25575,5,0,0:0:0:0:
408,176,25727,1,0,0:0:0:0:
336,96,25879,1,0,0:0:0:0:
152,96,26563,1,0,0:0:0:0:
216,176,26714,1,0,0:0:0:0:
104,192,26866,1,0,0:0:0:0:
48,288,27398,5,0,0:0:0:0:
112,304,27550,1,0,0:0:0:0:
176,312,27702,1,0,0:0:0:0:
304,304,28006,1,0,0:0:0:0:
408,240,28310,1,0,0:0:0:0:
480,136,28613,1,0,0:0:0:0:
264,88,29145,5,0,0:0:0:0:
264,112,29297,1,0,0:0:0:0:
240,136,29525,2,0,P|208:192|192:200,2,70,0|0|0,0:0|0:0|0:0,0:0:0:0:
240,88,30360,2,0,P|216:40|192:24,2,70,0|0|0,0:0|0:0|0:0,0:0:0:0:
280,112,31272,1,0,0:0:0:0:
368,152,31576,1,0,0:0:0:0:
424,232,31880,1,0,0:0:0:0:
472,320,32183,1,0,0:0:0:0:
120,248,32791,5,0,0:0:0:0:
128,240,32943,1,0,0:0:0:0:
136,232,33095,1,0,0:0:0:0:
304,232,33702,1,0,0:0:0:0:
312,240,33854,1,0,0:0:0:0:
320,248,34006,1,0,0:0:0:0:
256,64,34614,6,0,L|216:64,2,35,0|0|0,0:0|0:0|0:0,0:0:0:0:
352,64,35146,1,0,0:0:0:0:
256,160,35449,1,0,0:0:0:0:
160,64,35753,5,0,0:0:0:0:
128,224,36057,2,0,P|184:296|248:304,1,157.5,0|0,0:0|0:0,0:0:0:0:
280,304,37045,1,0,0:0:0:0:
360,256,37348,1,0,0:0:0:0:
440,160,37956,1,0,0:0:0:0:
232,312,38260,1,0,0:0:0:0:
272,88,38564,1,0,0:0:0:0:
112,136,39627,5,0,0:0:0:0:
344,120,39931,1,0,0:0:0:0:
224,312,40235,1,0,0:0:0:0:
88,144,41450,5,0,0:0:0:0:
296,72,41754,1,0,0:0:0:0:
192,328,42058,1,0,0:0:0:0:
392,80,43349,2,0,P|392:136|336:160,1,122.5,0|0,0:0|0:0,0:0:0:0:
256,160,44185,1,0,0:0:0:0:
160,160,44488,1,0,0:0:0:0:
64,160,44792,1,0,0:0:0:0:
64,240,45096,2,0,P|64:312|128:328,1,140,0|0,0:0|0:0,0:0:0:0:
248,296,46008,5,0,0:0:0:0:
320,232,46311,1,0,0:0:0:0:
392,168,46615,1,0,0:0:0:0:
256,192,46843,12,0,50185,0:0:0:0:
176,80,50489,5,0,0:0:0:0:
96,160,50793,1,0,0:0:0:0:
64,264,51097,5,0,0:0:0:0:
248,296,51704,5,0,0:0:0:0:
176,128,52236,1,0,0:0:0:0:
64,280,52844,1,0,0:0:0:0:
256,192,53451,12,0,57553,0:0:0:0:
96,184,58009,5,0,0:0:0:0:
112,152,58161,1,0,0:0:0:0:
128,120,58313,2,0,B|144:88|144:88|192:88,1,70
384,200,58920,1,0,0:0:0:0:
368,232,59072,1,0,0:0:0:0:
352,272,59224,2,0,B|328:304|328:304|288:288,1,70
224,288,59832,5,0,0:0:0:0:
152,272,59984,1,0,0:0:0:0:
248,216,60136,1,0,0:0:0:0:
80,256,60439,1,0,0:0:0:0:
264,144,60743,1,0,0:0:0:0:
8,224,61047,1,0,0:0:0:0:
176,128,61579,6,0,B|208:112|248:136|248:136|280:120|312:128,1,140
336,232,62490,2,0,B|296:208|272:224|272:224|224:208|200:224,1,140,0|0,0:0|0:0,0:0:0:0:
112,176,63402,1,0,0:0:0:0:
152,176,63554,1,0,0:0:0:0:
192,176,63706,2,0,B|248:176|248:176|264:112|264:112|304:184,1,192.5,0|0,0:0|0:0,0:0:0:0:
256,192,65225,12,0,68187,0:0:0:0:
128,192,68795,5,0,0:0:0:0:
168,192,68947,1,0,0:0:0:0:
208,192,69098,2,0,B|232:176|248:192|248:192|280:176,2,70,0|0|0,0:0|0:0|0:0,0:0:0:0:
168,192,69858,1,0,0:0:0:0:
128,192,70010,1,0,0:0:0:0:
256,112,70618,5,0,0:0:0:0:
288,88,70770,1,0,0:0:0:0:
320,72,70921,2,0,B|368:64|408:104|384:144|320:136|312:112,1,157.5
272,72,71833,1,0,0:0:0:0:
424,88,72441,5,0,0:0:0:0:
424,128,72592,1,0,0:0:0:0:
424,168,72744,2,0,B|424:208|400:208|400:208|408:232,1,70,0|0,0:0|0:0,0:0:0:0:
192,288,73352,2,0,P|104:200|104:136,1,192.5,0|0,0:0|0:0,0:0:0:0:
128,112,74340,1,0,0:0:0:0:
160,88,74491,1,0,0:0:0:0:
192,64,74795,1,0,0:0:0:0:
176,176,75099,1,0,0:0:0:0:
352,96,75403,1,0,0:0:0:0:
424,256,76011,5,0,0:0:0:0:
352,304,76162,1,0,0:0:0:0:
272,320,76314,2,0,P|216:312|192:296,1,70,0|0,0:0|0:0,0:0:0:0:
336,176,76922,1,0,0:0:0:0:
360,336,77074,1,0,0:0:0:0:
176,240,77226,1,0,0:0:0:0:
160,104,77758,5,0,0:0:0:0:
160,152,77909,1,0,0:0:0:0:
160,200,78061,2,0,B|200:232|200:248|200:248|168:272,1,87.5,0|0,0:0|0:0,0:0:0:0:
181,262,78745,1,0,0:0:0:0:
136,312,79049,1,0,0:0:0:0:
152,40,79581,5,0,0:0:0:0:
56,128,79732,1,0,0:0:0:0:
224,80,79884,2,0,P|144:104|120:128,2,105,0|0|0,0:0|0:0|0:0,0:0:0:0:
272,80,81100,1,0,0:0:0:0:
360,128,81404,5,0,0:0:0:0:
376,272,81555,1,0,0:0:0:0:
264,168,81707,2,0,P|216:192|176:240,2,105,0|0|0,0:0|0:0|0:0,0:0:0:0:
120,96,83226,5,0,0:0:0:0:
184,80,83378,1,0,0:0:0:0:
240,72,83530,2,0,P|320:72|368:88,1,122.5,0|0,0:0|0:0,0:0:0:0:
368,144,84214,1,0,0:0:0:0:
352,200,84366,2,0,P|320:248|288:272,1,87.5
184,208,84973,5,0,0:0:0:0:
328,96,85125,1,0,0:0:0:0:
144,96,85277,1,0,0:0:0:0:
280,208,85581,1,0,0:0:0:0:
240,40,85885,1,0,0:0:0:0:
240,128,86189,5,0,0:0:0:0:
256,192,87100,12,0,89911,0:0:0:0:
