osu file format v14

[General]
AudioFilename: Duvet.mp3
AudioLeadIn: 0
PreviewTime: 61191
Countdown: 0
SampleSet: Soft
StackLeniency: 0.7
Mode: 0
LetterboxInBreaks: 0
WidescreenStoryboard: 1

[Editor]
Bookmarks: 22627,32922
DistanceSpacing: 1.5
BeatDivisor: 4
GridSize: 4
TimelineZoom: 1.1

[Metadata]
Title:Duvet (TV Size)
TitleUnicode:Duvet (TV Size)
Artist:Boa
ArtistUnicode:Bôa
Creator:hanyuu_nanodesu
Version:Easy
Source:シリアルエクスペリメンツレイン
Tags:Iwakura Lain Opening op Serial Experiments Lain Anime
BeatmapID:418511
BeatmapSetID:173184

[Difficulty]
HPDrainRate:2.5
CircleSize:3
OverallDifficulty:2
ApproachRate:3
SliderMultiplier:0.8
SliderTickRate:1

[Events]
//Background and Video events
0,0,"Duvet.jpg",0,0
Video,0,"Boa-Duvet.wmv"
//Break Periods
//Storyboard Layer 0 (Background)
//Storyboard Layer 1 (Fail)
//Storyboard Layer 2 (Pass)
//Storyboard Layer 3 (Foreground)
//Storyboard Sound Samples

[TimingPoints]
2038,643.43163538874,4,2,1,30,1,0
41287,-100,4,2,1,20,0,0
41837,645.161290322581,4,2,1,30,1,0
62464,643.43163538874,4,2,1,30,1,1
72598,-100,4,2,1,30,0,0
72758,-100,4,2,1,30,0,1
80480,-100,4,2,1,30,0,0
81123,-100,4,2,1,22,0,0
81766,-100,4,2,1,15,0,0
82410,-100,4,2,1,8,0,0
83053,-100,4,2,1,30,0,0
99147,-100,4,2,1,25,0,0
99790,-100,4,2,1,20,0,0
100434,-100,4,2,1,15,0,0
101078,-100,4,2,1,10,0,0

[Colours]
Combo1 : 63,63,63
Combo2 : 117,58,0
Combo3 : 0,89,45
Combo4 : 100,0,0

[HitObjects]
188,132,2038,6,0,B|232:132|256:96|256:96|280:132|340:132,2,160,4|0|0,0:0|0:0|0:0,0:0:0:0:
68,140,5255,1,2,3:0:0:0:
84,196,5576,1,0,0:0:0:0:
132,232,5898,2,0,B|204:288|300:244,1,160,0|0,0:0|0:0,0:0:0:0:
396,212,7828,5,2,3:0:0:0:
468,116,8472,2,0,P|420:96|341:105,1,120
300,124,9759,2,0,P|228:152|152:128,1,160,0|0,0:0|0:0,0:0:0:0:
28,124,11689,1,2,3:0:0:0:
116,204,12332,6,0,B|158:225|174:261|174:261|247:221,2,160,0|0|0,0:0|0:0|0:0,0:0:0:0:
40,300,15550,2,0,L|96:300,1,40,2|0,3:0|0:0,0:0:0:0:
120,344,16193,2,0,B|180:320|180:368|248:340,1,120,0|0,0:0|0:0,0:0:0:0:
292,324,17480,6,0,P|363:297|442:321,2,160,0|0|0,0:0|0:0|0:0,0:0:0:0:
200,256,20697,1,2,3:0:0:0:
116,332,21340,2,0,B|48:352|48:352|0:336,1,120
20,276,22627,6,0,P|36:228|20:156,2,120,4|0|2,0:0|0:0|3:0,0:0:0:0:
116,348,25201,2,0,B|192:315|192:379|280:339,1,160,0|0,0:0|0:0,0:0:0:0:
372,276,27131,2,0,L|332:248,1,40,2|0,3:0|0:0,0:0:0:0:
304,228,27775,6,0,P|228:196|144:228,2,160,0|0|0,0:0|0:0|0:0,0:0:0:0:
224,316,30992,1,2,3:0:0:0:
340,348,31635,2,0,P|348:308|332:264,1,80,0|4,0:0|0:0,0:0:0:0:
336,152,32922,6,0,P|396:180|492:148,1,160,4|0,0:0|0:0,0:0:0:0:
412,60,34853,1,2,3:0:0:0:
352,52,35174,2,0,P|304:48|264:76,2,80,4|0|0,0:0|0:0|0:0,0:0:0:0:
412,60,36783,5,0,0:0:0:0:
348,160,37426,2,0,L|328:212,1,40,2|0,3:0|0:0,0:0:0:0:
272,196,38070,2,0,P|189:178|120:224,1,160,4|0,0:0|0:0,0:0:0:0:
212,300,40000,1,2,3:0:0:0:
272,288,40322,6,0,L|380:256,1,110,0|4,0:0|0:0,0:0:0:0:
480,188,41837,6,0,P|492:108|452:44,1,160,4|0,0:0|0:0,0:0:0:0:
340,96,43772,2,0,L|300:120,1,40,2|0,3:0|0:0,0:0:0:0:
300,176,44417,2,0,P|321:217|324:266,2,80,0|2|0,0:0|3:0|0:0,0:0:0:0:
204,248,46353,1,2,3:0:0:0:
152,216,46675,1,0,0:0:0:0:
144,156,46998,6,0,P|168:100|228:72,1,120,0|0,0:0|0:0,0:0:0:0:
280,84,48288,2,0,P|324:92|372:80,2,80,0|2|0,0:0|3:0|0:0,0:0:0:0:
268,204,50224,1,2,3:0:0:0:
308,252,50546,1,0,0:0:0:0:
368,260,50869,2,0,P|404:260|452:240,1,80,0|2,0:0|3:0,0:0:0:0:
464,128,52159,5,4,0:0:0:0:
348,164,52804,2,0,P|276:184|196:144,1,160,2|2,3:0|3:0,0:0:0:0:
152,120,54417,1,0,0:0:0:0:
116,168,54740,2,0,B|132:240|104:292|104:292|140:316,1,160,0|0,0:0|0:0,0:0:0:0:
184,280,56353,2,0,P|208:256|264:236,1,80
308,220,57320,6,0,P|348:180|356:77,1,160,0|0,0:0|0:0,0:0:0:0:
248,120,59256,1,2,3:0:0:0:
144,180,59901,2,0,P|96:204|56:208,1,80,0|0,0:0|0:0,0:0:0:0:
28,104,61191,2,0,P|84:92|148:60,1,120
200,52,62464,6,0,P|240:44|296:48,2,80,4|2|0,0:0|3:0|0:0,0:0:0:0:
184,108,64072,2,0,P|172:144|184:192,1,80,0|4,0:0|0:0,0:0:0:0:
224,224,65037,2,0,B|300:192|300:264|393:218,1,160,0|0,0:0|0:0,0:0:0:0:
432,196,66646,2,0,P|444:160|432:112,1,80
404,68,67611,6,0,P|336:28|264:60,1,160,4|0,0:0|0:0,0:0:0:0:
272,176,69541,1,2,3:0:0:0:
256,232,69863,1,4,0:0:0:0:
136,248,70506,1,0,0:0:0:0:
156,192,70828,2,0,P|168:120|116:52,1,160,2|2,3:0|3:0,0:0:0:0:
232,16,72758,38,0,P|256:44|272:96,2,80,4|2|0,0:0|3:0|0:0,0:0:0:0:
348,40,74689,1,2,3:0:0:0:
400,72,75010,1,4,0:0:0:0:
300,132,75654,1,0,0:0:0:0:
264,180,75976,2,0,P|240:236|252:300,1,120,2|0,3:0|0:0,0:0:0:0:
264,352,77262,1,2,3:0:0:0:
340,260,77906,6,0,P|380:228|416:220,1,80,4|2,0:0|3:0,0:0:0:0:
456,112,79193,2,0,L|484:68,2,40,0|0|2,0:0|0:0|3:0,0:0:0:0:
396,116,80158,6,0,B|224:60|224:184|80:108,1,320,4|2,0:0|0:0,0:0:0:0:
44,156,83053,6,0,P|27:196|60:306,1,160,0|0,0:0|0:0,0:0:0:0:
144,220,84984,1,2,3:0:0:0:
252,168,85627,2,0,L|312:92,2,80,0|2|0,0:0|3:0|0:0,0:0:0:0:
256,288,87557,1,2,3:0:0:0:
252,168,88201,6,0,P|212:102|124:80,1,160,8|0,0:0|0:0,0:0:0:0:
148,200,90131,1,2,3:0:0:0:
192,240,90453,1,0,0:0:0:0:
240,276,90774,2,0,L|296:324,2,60,0|0|0,0:0|0:0|0:0,0:0:0:0:
276,228,92061,2,0,P|328:196|344:128,1,120,0|0,0:0|0:0,0:0:0:0:
400,116,93348,6,0,P|432:164|416:264,1,160,0|0,0:0|0:0,0:0:0:0:
340,352,95279,1,2,3:0:0:0:
232,300,95922,2,0,L|180:268,1,60,0|0,0:0|0:0,0:0:0:0:
244,204,96887,2,0,L|300:240,2,60,0|0|0,0:0|0:0|0:0,0:0:0:0:
256,192,98496,12,0,101069,0:0:0:0:
